  0
SECTION
  2
HEADER
  9
$ACADVER
  1
AC1009
  9
$INSBASE
 10
0.0
 20
0.0
 30
0.0
  9
$EXTMIN
 10
-350.019553
 20
-10.062079
 30
0.0
  9
$EXTMAX
 10
614.670189
 20
1120.082052
 30
0.000005
  9
$LIMMIN
 10
-350.019553
 20
-10.062079
  9
$LIMMAX
 10
614.670189
 20
1120.082052
  9
$ORTHOMODE
 70
     1
  9
$REGENMODE
 70
     1
  9
$FILLMODE
 70
     1
  9
$QTEXTMODE
 70
     0
  9
$MIRRTEXT
 70
     0
  9
$DRAGMODE
 70
     2
  9
$LTSCALE
 40
50.0
  9
$OSMODE
 70
     0
  9
$ATTMODE
 70
     1
  9
$TEXTSIZE
 40
200.0
  9
$TRACEWID
 40
1.0
  9
$TEXTSTYLE
  7
STANDARD
  9
$CLAYER
  8
TEAM-MAS
  9
$CELTYPE
  6
BYLAYER
  9
$CECOLOR
 62
   256
  9
$DIMSCALE
 40
0.0
  9
$DIMASZ
 40
20.0
  9
$DIMEXO
 40
10.0
  9
$DIMDLI
 40
1.0
  9
$DIMRND
 40
0.0
  9
$DIMDLE
 40
0.0
  9
$DIMEXE
 40
1.0
  9
$DIMTP
 40
0.0
  9
$DIMTM
 40
0.0
  9
$DIMTXT
 40
35.0
  9
$DIMCEN
 40
1.0
  9
$DIMTSZ
 40
0.0
  9
$DIMTOL
 70
     0
  9
$DIMLIM
 70
     0
  9
$DIMTIH
 70
     0
  9
$DIMTOH
 70
     0
  9
$DIMSE1
 70
     0
  9
$DIMSE2
 70
     0
  9
$DIMTAD
 70
     0
  9
$DIMZIN
 70
     0
  9
$DIMBLK
  1

  9
$DIMASO
 70
     1
  9
$DIMSHO
 70
     0
  9
$DIMPOST
  1

  9
$DIMAPOST
  1

  9
$DIMALT
 70
     0
  9
$DIMALTD
 70
     2
  9
$DIMALTF
 40
25.4
  9
$DIMLFAC
 40
1.0
  9
$DIMTOFL
 70
     0
  9
$DIMTVP
 40
0.0
  9
$DIMTIX
 70
     0
  9
$DIMSOXD
 70
     0
  9
$DIMSAH
 70
     0
  9
$DIMBLK1
  1

  9
$DIMBLK2
  1

  9
$DIMSTYLE
  2
TEAM
  9
$DIMCLRD
 70
     9
  9
$DIMCLRE
 70
     9
  9
$DIMCLRT
 70
    11
  9
$DIMTFAC
 40
1.0
  9
$DIMGAP
 40
7.0
  9
$LUNITS
 70
     2
  9
$LUPREC
 70
     1
  9
$SKETCHINC
 40
1.0
  9
$FILLETRAD
 40
50.0
  9
$AUNITS
 70
     0
  9
$AUPREC
 70
     0
  9
$MENU
  1
ROPLANS
  9
$ELEVATION
 40
0.0
  9
$PELEVATION
 40
0.0
  9
$THICKNESS
 40
0.0
  9
$LIMCHECK
 70
     0
  9
$BLIPMODE
 70
     1
  9
$CHAMFERA
 40
0.0
  9
$CHAMFERB
 40
0.0
  9
$SKPOLY
 70
     0
  9
$TDCREATE
 40
2450392.957851
  9
$TDUPDATE
 40
2456272.033233
  9
$TDINDWG
 40
2.315654
  9
$TDUSRTIMER
 40
2.315654
  9
$USRTIMER
 70
     1
  9
$ANGBASE
 50
0.0
  9
$ANGDIR
 70
     0
  9
$PDMODE
 70
     0
  9
$PDSIZE
 40
0.0
  9
$PLINEWID
 40
0.0
  9
$COORDS
 70
     2
  9
$SPLFRAME
 70
     0
  9
$SPLINETYPE
 70
     6
  9
$SPLINESEGS
 70
     8
  9
$ATTDIA
 70
     0
  9
$ATTREQ
 70
     0
  9
$HANDLING
 70
     1
  9
$HANDSEED
  5
16B
  9
$SURFTAB1
 70
    24
  9
$SURFTAB2
 70
    24
  9
$SURFTYPE
 70
     6
  9
$SURFU
 70
     6
  9
$SURFV
 70
     6
  9
$UCSNAME
  2

  9
$UCSORG
 10
0.0
 20
0.0
 30
0.0
  9
$UCSXDIR
 10
1.0
 20
0.0
 30
0.0
  9
$UCSYDIR
 10
0.0
 20
1.0
 30
0.0
  9
$PUCSNAME
  2

  9
$PUCSORG
 10
0.0
 20
0.0
 30
0.0
  9
$PUCSXDIR
 10
1.0
 20
0.0
 30
0.0
  9
$PUCSYDIR
 10
0.0
 20
1.0
 30
0.0
  9
$USERI1
 70
     0
  9
$USERI2
 70
     0
  9
$USERI3
 70
     0
  9
$USERI4
 70
     0
  9
$USERI5
 70
     0
  9
$USERR1
 40
0.0
  9
$USERR2
 40
0.0
  9
$USERR3
 40
0.0
  9
$USERR4
 40
0.0
  9
$USERR5
 40
0.0
  9
$WORLDVIEW
 70
     1
  9
$SHADEDGE
 70
     0
  9
$SHADEDIF
 70
    70
  9
$TILEMODE
 70
     1
  9
$MAXACTVP
 70
    16
  9
$PLIMCHECK
 70
     0
  9
$PEXTMIN
 10
-0.805942
 20
0.005011
 30
0.0
  9
$PEXTMAX
 10
20.250094
 20
11.356329
 30
0.0
  9
$PLIMMIN
 10
0.0
 20
0.0
  9
$PLIMMAX
 10
12.0
 20
9.0
  9
$UNITMODE
 70
     0
  9
$VISRETAIN
 70
     0
  9
$PLINEGEN
 70
     0
  9
$PSLTSCALE
 70
     0
  0
ENDSEC
  0
SECTION
  2
TABLES
  0
TABLE
  2
VPORT
 70
     2
  0
VPORT
  2
*ACTIVE
 70
     0
 10
0.0
 20
0.0
 11
1.0
 21
1.0
 12
132.325318
 22
555.009987
 13
0.0
 23
0.0
 14
1.0
 24
1.0
 15
50.0
 25
50.0
 16
0.0
 26
0.0
 36
1.0
 17
0.0
 27
0.0
 37
0.0
 40
1137.259415
 41
1.911765
 42
50.0
 43
0.0
 44
0.0
 50
0.0
 51
0.0
 71
     0
 72
   100
 73
     1
 74
     1
 75
     0
 76
     0
 77
     0
 78
     0
  0
ENDTAB
  0
TABLE
  2
LTYPE
 70
     3
  0
LTYPE
  2
CONTINUOUS
 70
     0
  3
Solid Line
 72
    65
 73
     0
 40
0.0
  0
LTYPE
  2
31
 70
     0
  3

 72
    65
 73
     4
 40
2.1
 49
1.5
 49
-0.3
 49
0.0
 49
-0.3
  0
LTYPE
  2
22
 70
     0
  3

 72
    65
 73
     2
 40
1.4
 49
1.2
 49
-0.2
  0
ENDTAB
  0
TABLE
  2
LAYER
 70
    11
  0
LAYER
  2
0
 70
     0
 62
     7
  6
CONTINUOUS
  0
LAYER
  2
DEFPOINTS
 70
     0
 62
     7
  6
CONTINUOUS
  0
LAYER
  2
TEAM-BODY
 70
     0
 62
     2
  6
CONTINUOUS
  0
LAYER
  2
TEAM-AXE
 70
     0
 62
    10
  6
31
  0
LAYER
  2
TEAM-MAS
 70
     0
 62
     9
  6
CONTINUOUS
  0
LAYER
  2
TEAM-TXT
 70
     0
 62
    11
  6
CONTINUOUS
  0
LAYER
  2
TEAM-COLD
 70
     0
 62
     3
  6
CONTINUOUS
  0
LAYER
  2
TEAM-HIDE
 70
     0
 62
     8
  6
22
  0
LAYER
  2
TEAM-KAN
 70
     0
 62
     6
  6
CONTINUOUS
  0
LAYER
  2
TEAM-WARM
 70
     0
 62
     1
  6
CONTINUOUS
  0
LAYER
  2
TEAM-INSP
 70
     0
 62
     5
  6
CONTINUOUS
  0
ENDTAB
  0
TABLE
  2
STYLE
 70
     2
  0
STYLE
  2
STANDARD
 70
     0
 40
0.0
 41
1.0
 50
0.0
 71
     0
 42
200.0
  3
txt
  4

  0
STYLE
  2
TEAM
 70
     0
 40
0.0
 41
0.8
 50
15.0
 71
     0
 42
7.0
  3
ROMANS.shx
  4

  0
ENDTAB
  0
TABLE
  2
VIEW
 70
     0
  0
ENDTAB
  0
TABLE
  2
UCS
 70
     0
  0
ENDTAB
  0
TABLE
  2
APPID
 70
     1
  0
APPID
  2
ACAD
 70
     0
  0
ENDTAB
  0
TABLE
  2
DIMSTYLE
 70
     1
  0
DIMSTYLE
  2
TEAM
 70
     0
  3

  4

  5

  6

  7

 40
0.0
 41
20.0
 42
10.0
 43
1.0
 44
1.0
 45
0.0
 46
0.0
 47
0.0
 48
0.0
140
35.0
141
1.0
142
0.0
143
25.4
144
1.0
145
0.0
146
1.0
147
7.0
 71
     0
 72
     0
 73
     0
 74
     0
 75
     0
 76
     0
 77
     0
 78
     0
170
     0
171
     2
172
     0
173
     0
174
     0
175
     0
176
     9
177
     9
178
    11
  0
ENDTAB
  0
ENDSEC
  0
SECTION
  2
BLOCKS
  0
BLOCK
  8
0
  2
$MODEL_SPACE
 70
     0
 10
0.0
 20
0.0
 30
0.0
  3
$MODEL_SPACE
  1

  0
ENDBLK
  5
164
  8
0
  0
BLOCK
 67
     1
  8
0
  2
$PAPER_SPACE
 70
     0
 10
0.0
 20
0.0
 30
0.0
  3
$PAPER_SPACE
  1

  0
ENDBLK
  5
162
 67
     1
  8
0
  0
BLOCK
  8
0
  2
*D0
 70
     1
 10
0.0
 20
0.0
 30
0.0
  3
*D0
  1

  0
LINE
  5
77
  8
0
  6
BYBLOCK
 62
     9
 10
12343.923048
 20
148860.0
 30
0.0
 11
12426.908861
 21
148860.0
 31
0.0
  0
LINE
  5
78
  8
0
  6
BYBLOCK
 62
     9
 10
12360.0
 20
148800.0
 30
0.0
 11
12426.908861
 21
148800.0
 31
0.0
  0
LINE
  5
79
  8
0
  6
BYBLOCK
 62
     9
 10
12425.908861
 20
148840.0
 30
0.0
 11
12425.908861
 21
148820.0
 31
0.0
  0
TEXT
  5
7A
  8
0
  6
BYBLOCK
 62
    11
 10
12443.408861
 20
148878.162625
 30
0.0
 40
35.0
  1
60
 50
90.0
  0
SOLID
  5
7B
  8
0
  6
BYBLOCK
 62
     9
 10
12422.575528
 20
148840.0
 30
0.0
 11
12429.242194
 21
148840.0
 31
0.0
 12
12425.908861
 22
148860.0
 32
0.0
 13
12425.908861
 23
148860.0
 33
0.0
  0
SOLID
  5
7C
  8
0
  6
BYBLOCK
 62
     9
 10
12422.575528
 20
148820.0
 30
0.0
 11
12429.242194
 21
148820.0
 31
0.0
 12
12425.908861
 22
148800.0
 32
0.0
 13
12425.908861
 23
148800.0
 33
0.0
  0
POINT
  5
7D
  8
DEFPOINTS
  6
BYBLOCK
 62
     0
 10
12333.923048
 20
148860.0
 30
0.0
  0
POINT
  5
7E
  8
DEFPOINTS
  6
BYBLOCK
 62
     0
 10
12350.0
 20
148800.0
 30
0.0
  0
POINT
  5
7F
  8
DEFPOINTS
  6
BYBLOCK
 62
     0
 10
12425.908861
 20
148800.0
 30
0.0
  0
ENDBLK
  5
81
  8
0
  0
BLOCK
  8
0
  2
*D1
 70
     1
 10
0.0
 20
0.0
 30
0.0
  3
*D1
  1

  0
LINE
  5
D9
  8
0
  6
BYBLOCK
 62
     9
 10
12343.923048
 20
148860.0
 30
0.0
 11
12383.222908
 21
148860.0
 31
0.0
  0
LINE
  5
DA
  8
0
  6
BYBLOCK
 62
     9
 10
12270.0
 20
148835.0
 30
0.0
 11
12383.222908
 21
148835.0
 31
0.0
  0
LINE
  5
DB
  8
0
  6
BYBLOCK
 62
     9
 10
12382.222908
 20
148880.0
 30
0.0
 11
12382.222908
 21
148900.0
 31
0.0
  0
LINE
  5
DC
  8
0
  6
BYBLOCK
 62
     9
 10
12382.222908
 20
148815.0
 30
0.0
 11
12382.222908
 21
148795.0
 31
0.0
  0
TEXT
  5
DD
  8
0
  6
BYBLOCK
 62
    11
 10
12399.722908
 20
148893.80522
 30
0.0
 40
35.0
  1
25
 50
90.0
  0
LINE
  5
DE
  8
0
  6
BYBLOCK
 62
     9
 10
12382.222908
 20
148860.0
 30
0.0
 11
12382.222908
 21
148835.0
 31
0.0
  0
SOLID
  5
DF
  8
0
  6
BYBLOCK
 62
     9
 10
12378.889575
 20
148880.0
 30
0.0
 11
12385.556242
 21
148880.0
 31
0.0
 12
12382.222908
 22
148860.0
 32
0.0
 13
12382.222908
 23
148860.0
 33
0.0
  0
SOLID
  5
E0
  8
0
  6
BYBLOCK
 62
     9
 10
12378.889575
 20
148815.0
 30
0.0
 11
12385.556242
 21
148815.0
 31
0.0
 12
12382.222908
 22
148835.0
 32
0.0
 13
12382.222908
 23
148835.0
 33
0.0
  0
POINT
  5
E1
  8
DEFPOINTS
  6
BYBLOCK
 62
     0
 10
12333.923048
 20
148860.0
 30
0.0
  0
POINT
  5
E2
  8
DEFPOINTS
  6
BYBLOCK
 62
     0
 10
12260.0
 20
148835.0
 30
0.0
  0
POINT
  5
E3
  8
DEFPOINTS
  6
BYBLOCK
 62
     0
 10
12382.222908
 20
148835.0
 30
0.0
  0
ENDBLK
  5
E5
  8
0
  0
BLOCK
  8
0
  2
*D2
 70
     1
 10
0.0
 20
0.0
 30
0.0
  3
*D2
  1

  0
LINE
  5
69
  8
0
  6
BYBLOCK
 62
     9
 10
12278.68513
 20
148590.0
 30
0.0
 11
12426.908861
 21
148590.0
 31
0.0
  0
LINE
  5
6A
  8
0
  6
BYBLOCK
 62
     9
 10
12360.0
 20
148800.0
 30
0.0
 11
12426.908861
 21
148800.0
 31
0.0
  0
LINE
  5
6B
  8
0
  6
BYBLOCK
 62
     9
 10
12425.908861
 20
148610.0
 30
0.0
 11
12425.908861
 21
148650.083333
 31
0.0
  0
LINE
  5
6C
  8
0
  6
BYBLOCK
 62
     9
 10
12425.908861
 20
148780.0
 30
0.0
 11
12425.908861
 21
148739.916667
 31
0.0
  0
SOLID
  5
6D
  8
0
  6
BYBLOCK
 62
     9
 10
12422.575528
 20
148610.0
 30
0.0
 11
12429.242194
 21
148610.0
 31
0.0
 12
12425.908861
 22
148590.0
 32
0.0
 13
12425.908861
 23
148590.0
 33
0.0
  0
SOLID
  5
6E
  8
0
  6
BYBLOCK
 62
     9
 10
12422.575528
 20
148780.0
 30
0.0
 11
12429.242194
 21
148780.0
 31
0.0
 12
12425.908861
 22
148800.0
 32
0.0
 13
12425.908861
 23
148800.0
 33
0.0
  0
TEXT
  5
6F
  8
0
  6
BYBLOCK
 62
    11
 10
12443.408861
 20
148657.083333
 30
0.0
 40
35.0
  1
210
 50
90.0
  0
POINT
  5
70
  8
DEFPOINTS
  6
BYBLOCK
 62
     0
 10
12268.68513
 20
148590.0
 30
0.0
  0
POINT
  5
71
  8
DEFPOINTS
  6
BYBLOCK
 62
     0
 10
12350.0
 20
148800.0
 30
0.0
  0
POINT
  5
72
  8
DEFPOINTS
  6
BYBLOCK
 62
     0
 10
12425.908861
 20
148800.0
 30
0.0
  0
ENDBLK
  5
74
  8
0
  0
BLOCK
  8
0
  2
*D3
 70
     1
 10
0.0
 20
0.0
 30
0.0
  3
*D3
  1

  0
LINE
  5
CB
  8
0
  6
BYBLOCK
 62
     9
 10
11923.5
 20
149090.0
 30
0.0
 11
11923.5
 21
149013.255467
 31
0.0
  0
LINE
  5
CC
  8
0
  6
BYBLOCK
 62
     9
 10
12076.5
 20
149090.0
 30
0.0
 11
12076.5
 21
149013.255467
 31
0.0
  0
LINE
  5
CD
  8
0
  6
BYBLOCK
 62
     9
 10
11943.5
 20
149014.255467
 30
0.0
 11
11952.166667
 21
149014.255467
 31
0.0
  0
LINE
  5
CE
  8
0
  6
BYBLOCK
 62
     9
 10
12056.5
 20
149014.255467
 30
0.0
 11
12047.833333
 21
149014.255467
 31
0.0
  0
TEXT
  5
CF
  8
0
  6
BYBLOCK
 62
    11
 10
11959.166667
 20
148996.755467
 30
0.0
 40
35.0
  1
153
  0
SOLID
  5
D0
  8
0
  6
BYBLOCK
 62
     9
 10
11943.5
 20
149017.588801
 30
0.0
 11
11943.5
 21
149010.922134
 31
0.0
 12
11923.5
 22
149014.255467
 32
0.0
 13
11923.5
 23
149014.255467
 33
0.0
  0
SOLID
  5
D1
  8
0
  6
BYBLOCK
 62
     9
 10
12056.5
 20
149017.588801
 30
0.0
 11
12056.5
 21
149010.922134
 31
0.0
 12
12076.5
 22
149014.255467
 32
0.0
 13
12076.5
 23
149014.255467
 33
0.0
  0
POINT
  5
D2
  8
DEFPOINTS
  6
BYBLOCK
 62
     0
 10
11923.5
 20
149100.0
 30
0.0
  0
POINT
  5
D3
  8
DEFPOINTS
  6
BYBLOCK
 62
     0
 10
12076.5
 20
149100.0
 30
0.0
  0
POINT
  5
D4
  8
DEFPOINTS
  6
BYBLOCK
 62
     0
 10
12076.5
 20
149014.255467
 30
0.0
  0
ENDBLK
  5
D6
  8
0
  0
BLOCK
  8
0
  2
*D4
 70
     1
 10
0.0
 20
0.0
 30
0.0
  3
*D4
  1

  0
LINE
  5
5B
  8
0
  6
BYBLOCK
 62
     9
 10
12010.0
 20
148000.0
 30
0.0
 11
12598.117826
 21
148000.0
 31
0.0
  0
LINE
  5
5C
  8
0
  6
BYBLOCK
 62
     9
 10
12086.5
 20
149100.0
 30
0.0
 11
12598.117826
 21
149100.0
 31
0.0
  0
LINE
  5
5D
  8
0
  6
BYBLOCK
 62
     9
 10
12597.117826
 20
148020.0
 30
0.0
 11
12597.117826
 21
148417.583333
 31
0.0
  0
LINE
  5
5E
  8
0
  6
BYBLOCK
 62
     9
 10
12597.117826
 20
149080.0
 30
0.0
 11
12597.117826
 21
148682.416667
 31
0.0
  0
SOLID
  5
5F
  8
0
  6
BYBLOCK
 62
     9
 10
12593.784493
 20
148020.0
 30
0.0
 11
12600.451159
 21
148020.0
 31
0.0
 12
12597.117826
 22
148000.0
 32
0.0
 13
12597.117826
 23
148000.0
 33
0.0
  0
SOLID
  5
60
  8
0
  6
BYBLOCK
 62
     9
 10
12593.784493
 20
149080.0
 30
0.0
 11
12600.451159
 21
149080.0
 31
0.0
 12
12597.117826
 22
149100.0
 32
0.0
 13
12597.117826
 23
149100.0
 33
0.0
  0
TEXT
  5
61
  8
0
  6
BYBLOCK
 62
    11
 10
12614.617826
 20
148424.583333
 30
0.0
 40
35.0
  1
1100-1250
 50
90.0
  0
POINT
  5
62
  8
DEFPOINTS
  6
BYBLOCK
 62
     0
 10
12000.0
 20
148000.0
 30
0.0
  0
POINT
  5
63
  8
DEFPOINTS
  6
BYBLOCK
 62
     0
 10
12076.5
 20
149100.0
 30
0.0
  0
POINT
  5
64
  8
DEFPOINTS
  6
BYBLOCK
 62
     0
 10
12597.117826
 20
149100.0
 30
0.0
  0
ENDBLK
  5
66
  8
0
  0
BLOCK
  8
0
  2
*D5
 70
     1
 10
0.0
 20
0.0
 30
0.0
  3
*D5
  1

  0
LINE
  5
4D
  8
0
  6
BYBLOCK
 62
     9
 10
12010.0
 20
148000.0
 30
0.0
 11
12552.800469
 21
148000.0
 31
0.0
  0
LINE
  5
4E
  8
0
  6
BYBLOCK
 62
     9
 10
12086.5
 20
149100.0
 30
0.0
 11
12552.800469
 21
149100.0
 31
0.0
  0
LINE
  5
4F
  8
0
  6
BYBLOCK
 62
     9
 10
12551.800469
 20
148020.0
 30
0.0
 11
12551.800469
 21
148496.333333
 31
0.0
  0
LINE
  5
50
  8
0
  6
BYBLOCK
 62
     9
 10
12551.800469
 20
149080.0
 30
0.0
 11
12551.800469
 21
148603.666667
 31
0.0
  0
SOLID
  5
51
  8
0
  6
BYBLOCK
 62
     9
 10
12548.467135
 20
148020.0
 30
0.0
 11
12555.133802
 21
148020.0
 31
0.0
 12
12551.800469
 22
148000.0
 32
0.0
 13
12551.800469
 23
148000.0
 33
0.0
  0
SOLID
  5
52
  8
0
  6
BYBLOCK
 62
     9
 10
12548.467135
 20
149080.0
 30
0.0
 11
12555.133802
 21
149080.0
 31
0.0
 12
12551.800469
 22
149100.0
 32
0.0
 13
12551.800469
 23
149100.0
 33
0.0
  0
TEXT
  5
53
  8
0
  6
BYBLOCK
 62
    11
 10
12569.300469
 20
148503.333333
 30
0.0
 40
35.0
  1
1100
 50
90.0
  0
POINT
  5
54
  8
DEFPOINTS
  6
BYBLOCK
 62
     0
 10
12000.0
 20
148000.0
 30
0.0
  0
POINT
  5
55
  8
DEFPOINTS
  6
BYBLOCK
 62
     0
 10
12076.5
 20
149100.0
 30
0.0
  0
POINT
  5
56
  8
DEFPOINTS
  6
BYBLOCK
 62
     0
 10
12551.800469
 20
149100.0
 30
0.0
  0
ENDBLK
  5
58
  8
0
  0
BLOCK
  8
0
  2
*D6
 70
     1
 10
0.0
 20
0.0
 30
0.0
  3
*D6
  1

  0
LINE
  5
3F
  8
0
  6
BYBLOCK
 62
     9
 10
12010.0
 20
148000.0
 30
0.0
 11
12509.114516
 21
148000.0
 31
0.0
  0
LINE
  5
40
  8
0
  6
BYBLOCK
 62
     9
 10
12360.0
 20
148800.0
 30
0.0
 11
12509.114516
 21
148800.0
 31
0.0
  0
LINE
  5
41
  8
0
  6
BYBLOCK
 62
     9
 10
12508.114516
 20
148020.0
 30
0.0
 11
12508.114516
 21
148285.083333
 31
0.0
  0
LINE
  5
42
  8
0
  6
BYBLOCK
 62
     9
 10
12508.114516
 20
148780.0
 30
0.0
 11
12508.114516
 21
148514.916667
 31
0.0
  0
SOLID
  5
43
  8
0
  6
BYBLOCK
 62
     9
 10
12504.781183
 20
148020.0
 30
0.0
 11
12511.447849
 21
148020.0
 31
0.0
 12
12508.114516
 22
148000.0
 32
0.0
 13
12508.114516
 23
148000.0
 33
0.0
  0
SOLID
  5
44
  8
0
  6
BYBLOCK
 62
     9
 10
12504.781183
 20
148780.0
 30
0.0
 11
12511.447849
 21
148780.0
 31
0.0
 12
12508.114516
 22
148800.0
 32
0.0
 13
12508.114516
 23
148800.0
 33
0.0
  0
TEXT
  5
45
  8
0
  6
BYBLOCK
 62
    11
 10
12525.614516
 20
148292.083333
 30
0.0
 40
35.0
  1
700-850
 50
90.0
  0
POINT
  5
46
  8
DEFPOINTS
  6
BYBLOCK
 62
     0
 10
12000.0
 20
148000.0
 30
0.0
  0
POINT
  5
47
  8
DEFPOINTS
  6
BYBLOCK
 62
     0
 10
12350.0
 20
148800.0
 30
0.0
  0
POINT
  5
48
  8
DEFPOINTS
  6
BYBLOCK
 62
     0
 10
12508.114516
 20
148800.0
 30
0.0
  0
ENDBLK
  5
4A
  8
0
  0
BLOCK
  8
0
  2
*D7
 70
     1
 10
0.0
 20
0.0
 30
0.0
  3
*D7
  1

  0
LINE
  5
31
  8
0
  6
BYBLOCK
 62
     9
 10
12010.0
 20
148000.0
 30
0.0
 11
12426.635416
 21
148000.0
 31
0.0
  0
LINE
  5
32
  8
0
  6
BYBLOCK
 62
     9
 10
12090.0
 20
148400.0
 30
0.0
 11
12426.635416
 21
148400.0
 31
0.0
  0
LINE
  5
33
  8
0
  6
BYBLOCK
 62
     9
 10
12425.635416
 20
148020.0
 30
0.0
 11
12425.635416
 21
148085.083333
 31
0.0
  0
LINE
  5
34
  8
0
  6
BYBLOCK
 62
     9
 10
12425.635416
 20
148380.0
 30
0.0
 11
12425.635416
 21
148314.916667
 31
0.0
  0
SOLID
  5
35
  8
0
  6
BYBLOCK
 62
     9
 10
12422.302083
 20
148020.0
 30
0.0
 11
12428.968749
 21
148020.0
 31
0.0
 12
12425.635416
 22
148000.0
 32
0.0
 13
12425.635416
 23
148000.0
 33
0.0
  0
SOLID
  5
36
  8
0
  6
BYBLOCK
 62
     9
 10
12422.302083
 20
148380.0
 30
0.0
 11
12428.968749
 21
148380.0
 31
0.0
 12
12425.635416
 22
148400.0
 32
0.0
 13
12425.635416
 23
148400.0
 33
0.0
  0
TEXT
  5
37
  8
0
  6
BYBLOCK
 62
    11
 10
12443.135416
 20
148092.083333
 30
0.0
 40
35.0
  1
300-450
 50
90.0
  0
POINT
  5
38
  8
DEFPOINTS
  6
BYBLOCK
 62
     0
 10
12000.0
 20
148000.0
 30
0.0
  0
POINT
  5
39
  8
DEFPOINTS
  6
BYBLOCK
 62
     0
 10
12080.0
 20
148400.0
 30
0.0
  0
POINT
  5
3A
  8
DEFPOINTS
  6
BYBLOCK
 62
     0
 10
12425.635416
 20
148400.0
 30
0.0
  0
ENDBLK
  5
3C
  8
0
  0
BLOCK
  8
0
  2
*D8
 70
     1
 10
0.0
 20
0.0
 30
0.0
  3
*D8
  1

  0
LINE
  5
BD
  8
0
  6
BYBLOCK
 62
     9
 10
12010.0
 20
148000.0
 30
0.0
 11
12382.949464
 21
148000.0
 31
0.0
  0
LINE
  5
BE
  8
0
  6
BYBLOCK
 62
     9
 10
12090.0
 20
148400.0
 30
0.0
 11
12382.949464
 21
148400.0
 31
0.0
  0
LINE
  5
BF
  8
0
  6
BYBLOCK
 62
     9
 10
12381.949464
 20
148020.0
 30
0.0
 11
12381.949464
 21
148152.166667
 31
0.0
  0
LINE
  5
C0
  8
0
  6
BYBLOCK
 62
     9
 10
12381.949464
 20
148380.0
 30
0.0
 11
12381.949464
 21
148247.833333
 31
0.0
  0
SOLID
  5
C1
  8
0
  6
BYBLOCK
 62
     9
 10
12378.61613
 20
148020.0
 30
0.0
 11
12385.282797
 21
148020.0
 31
0.0
 12
12381.949464
 22
148000.0
 32
0.0
 13
12381.949464
 23
148000.0
 33
0.0
  0
SOLID
  5
C2
  8
0
  6
BYBLOCK
 62
     9
 10
12378.61613
 20
148380.0
 30
0.0
 11
12385.282797
 21
148380.0
 31
0.0
 12
12381.949464
 22
148400.0
 32
0.0
 13
12381.949464
 23
148400.0
 33
0.0
  0
TEXT
  5
C3
  8
0
  6
BYBLOCK
 62
    11
 10
12399.449464
 20
148159.166667
 30
0.0
 40
35.0
  1
400
 50
90.0
  0
POINT
  5
C4
  8
DEFPOINTS
  6
BYBLOCK
 62
     0
 10
12000.0
 20
148000.0
 30
0.0
  0
POINT
  5
C5
  8
DEFPOINTS
  6
BYBLOCK
 62
     0
 10
12080.0
 20
148400.0
 30
0.0
  0
POINT
  5
C6
  8
DEFPOINTS
  6
BYBLOCK
 62
     0
 10
12381.949464
 20
148400.0
 30
0.0
  0
ENDBLK
  5
C8
  8
0
  0
BLOCK
  8
0
  2
*D9
 70
     1
 10
0.0
 20
0.0
 30
0.0
  3
*D9
  1

  0
LINE
  5
22
  8
0
  6
BYBLOCK
 62
     9
 10
12010.0
 20
148000.0
 30
0.0
 11
12467.059968
 21
148000.0
 31
0.0
  0
LINE
  5
23
  8
0
  6
BYBLOCK
 62
     9
 10
12360.0
 20
148800.0
 30
0.0
 11
12467.059968
 21
148800.0
 31
0.0
  0
LINE
  5
24
  8
0
  6
BYBLOCK
 62
     9
 10
12466.059968
 20
148020.0
 30
0.0
 11
12466.059968
 21
148352.166667
 31
0.0
  0
LINE
  5
25
  8
0
  6
BYBLOCK
 62
     9
 10
12466.059968
 20
148780.0
 30
0.0
 11
12466.059968
 21
148447.833333
 31
0.0
  0
SOLID
  5
26
  8
0
  6
BYBLOCK
 62
     9
 10
12462.726635
 20
148020.0
 30
0.0
 11
12469.393301
 21
148020.0
 31
0.0
 12
12466.059968
 22
148000.0
 32
0.0
 13
12466.059968
 23
148000.0
 33
0.0
  0
SOLID
  5
27
  8
0
  6
BYBLOCK
 62
     9
 10
12462.726635
 20
148780.0
 30
0.0
 11
12469.393301
 21
148780.0
 31
0.0
 12
12466.059968
 22
148800.0
 32
0.0
 13
12466.059968
 23
148800.0
 33
0.0
  0
TEXT
  5
28
  8
0
  6
BYBLOCK
 62
    11
 10
12483.559968
 20
148359.166667
 30
0.0
 40
35.0
  1
800
 50
90.0
  0
POINT
  5
29
  8
DEFPOINTS
  6
BYBLOCK
 62
     0
 10
12000.0
 20
148000.0
 30
0.0
  0
POINT
  5
2B
  8
DEFPOINTS
  6
BYBLOCK
 62
     0
 10
12350.0
 20
148800.0
 30
0.0
  0
POINT
  5
2C
  8
DEFPOINTS
  6
BYBLOCK
 62
     0
 10
12466.059968
 20
148800.0
 30
0.0
  0
ENDBLK
  5
2E
  8
0
  0
BLOCK
  8
0
  2
*D10
 70
     1
 10
0.0
 20
0.0
 30
0.0
  3
*D10
  1

  0
LINE
  5
AF
  8
0
  6
BYBLOCK
 62
     9
 10
11650.0
 20
148762.47345
 30
0.0
 11
11650.0
 21
148935.137457
 31
0.0
  0
LINE
  5
B0
  8
0
  6
BYBLOCK
 62
     9
 10
12350.0
 20
148762.47345
 30
0.0
 11
12350.0
 21
148935.137457
 31
0.0
  0
LINE
  5
B1
  8
0
  6
BYBLOCK
 62
     9
 10
11670.0
 20
148934.137457
 30
0.0
 11
11952.166667
 21
148934.137457
 31
0.0
  0
LINE
  5
B2
  8
0
  6
BYBLOCK
 62
     9
 10
12330.0
 20
148934.137457
 30
0.0
 11
12047.833333
 21
148934.137457
 31
0.0
  0
SOLID
  5
B3
  8
0
  6
BYBLOCK
 62
     9
 10
11670.0
 20
148937.47079
 30
0.0
 11
11670.0
 21
148930.804123
 31
0.0
 12
11650.0
 22
148934.137457
 32
0.0
 13
11650.0
 23
148934.137457
 33
0.0
  0
SOLID
  5
B4
  8
0
  6
BYBLOCK
 62
     9
 10
12330.0
 20
148937.47079
 30
0.0
 11
12330.0
 21
148930.804123
 31
0.0
 12
12350.0
 22
148934.137457
 32
0.0
 13
12350.0
 23
148934.137457
 33
0.0
  0
TEXT
  5
B5
  8
0
  6
BYBLOCK
 62
    11
 10
11959.166667
 20
148916.637457
 30
0.0
 40
35.0
  1
700
  0
POINT
  5
B6
  8
DEFPOINTS
  6
BYBLOCK
 62
     0
 10
11650.0
 20
148752.47345
 30
0.0
  0
POINT
  5
B7
  8
DEFPOINTS
  6
BYBLOCK
 62
     0
 10
12350.0
 20
148752.47345
 30
0.0
  0
POINT
  5
B8
  8
DEFPOINTS
  6
BYBLOCK
 62
     0
 10
12350.0
 20
148934.137457
 30
0.0
  0
ENDBLK
  5
BA
  8
0
  0
BLOCK
  8
0
  2
*D11
 70
     1
 10
0.0
 20
0.0
 30
0.0
  3
*D11
  1

  0
LINE
  5
A1
  8
0
  6
BYBLOCK
 62
     9
 10
12270.0
 20
148835.0
 30
0.0
 11
12383.222908
 21
148835.0
 31
0.0
  0
LINE
  5
A2
  8
0
  6
BYBLOCK
 62
     9
 10
12045.0
 20
148550.0
 30
0.0
 11
12383.222908
 21
148550.0
 31
0.0
  0
LINE
  5
A3
  8
0
  6
BYBLOCK
 62
     9
 10
12382.222908
 20
148815.0
 30
0.0
 11
12382.222908
 21
148746.166667
 31
0.0
  0
LINE
  5
A4
  8
0
  6
BYBLOCK
 62
     9
 10
12382.222908
 20
148570.0
 30
0.0
 11
12382.222908
 21
148638.833333
 31
0.0
  0
SOLID
  5
A5
  8
0
  6
BYBLOCK
 62
     9
 10
12378.889575
 20
148815.0
 30
0.0
 11
12385.556242
 21
148815.0
 31
0.0
 12
12382.222908
 22
148835.0
 32
0.0
 13
12382.222908
 23
148835.0
 33
0.0
  0
SOLID
  5
A6
  8
0
  6
BYBLOCK
 62
     9
 10
12378.889575
 20
148570.0
 30
0.0
 11
12385.556242
 21
148570.0
 31
0.0
 12
12382.222908
 22
148550.0
 32
0.0
 13
12382.222908
 23
148550.0
 33
0.0
  0
TEXT
  5
A7
  8
0
  6
BYBLOCK
 62
    11
 10
12399.722908
 20
148645.833333
 30
0.0
 40
35.0
  1
285
 50
90.0
  0
POINT
  5
A8
  8
DEFPOINTS
  6
BYBLOCK
 62
     0
 10
12260.0
 20
148835.0
 30
0.0
  0
POINT
  5
A9
  8
DEFPOINTS
  6
BYBLOCK
 62
     0
 10
12035.0
 20
148550.0
 30
0.0
  0
POINT
  5
AA
  8
DEFPOINTS
  6
BYBLOCK
 62
     0
 10
12382.222908
 20
148550.0
 30
0.0
  0
ENDBLK
  5
AC
  8
0
  0
BLOCK
  8
0
  2
*D12
 70
     1
 10
0.0
 20
0.0
 30
0.0
  3
*D12
  1

  0
LINE
  5
93
  8
0
  6
BYBLOCK
 62
     9
 10
11750.0
 20
148855.0
 30
0.0
 11
11750.0
 21
148892.553231
 31
0.0
  0
LINE
  5
94
  8
0
  6
BYBLOCK
 62
     9
 10
12250.0
 20
148855.0
 30
0.0
 11
12250.0
 21
148892.553231
 31
0.0
  0
LINE
  5
95
  8
0
  6
BYBLOCK
 62
     9
 10
11770.0
 20
148891.553231
 30
0.0
 11
11952.166667
 21
148891.553231
 31
0.0
  0
LINE
  5
96
  8
0
  6
BYBLOCK
 62
     9
 10
12230.0
 20
148891.553231
 30
0.0
 11
12047.833333
 21
148891.553231
 31
0.0
  0
SOLID
  5
97
  8
0
  6
BYBLOCK
 62
     9
 10
11770.0
 20
148894.886565
 30
0.0
 11
11770.0
 21
148888.219898
 31
0.0
 12
11750.0
 22
148891.553231
 32
0.0
 13
11750.0
 23
148891.553231
 33
0.0
  0
SOLID
  5
98
  8
0
  6
BYBLOCK
 62
     9
 10
12230.0
 20
148894.886565
 30
0.0
 11
12230.0
 21
148888.219898
 31
0.0
 12
12250.0
 22
148891.553231
 32
0.0
 13
12250.0
 23
148891.553231
 33
0.0
  0
TEXT
  5
99
  8
0
  6
BYBLOCK
 62
    11
 10
11959.166667
 20
148874.053231
 30
0.0
 40
35.0
  1
500
  0
POINT
  5
9A
  8
DEFPOINTS
  6
BYBLOCK
 62
     0
 10
11750.0
 20
148845.0
 30
0.0
  0
POINT
  5
9B
  8
DEFPOINTS
  6
BYBLOCK
 62
     0
 10
12250.0
 20
148845.0
 30
0.0
  0
POINT
  5
9C
  8
DEFPOINTS
  6
BYBLOCK
 62
     0
 10
12250.0
 20
148891.553231
 30
0.0
  0
ENDBLK
  5
9E
  8
0
  0
BLOCK
  8
0
  2
*D13
 70
     1
 10
0.0
 20
0.0
 30
0.0
  3
*D13
  1

  0
LINE
  5
84
  8
0
  6
BYBLOCK
 62
     9
 10
12000.0
 20
148532.588246
 30
0.0
 11
12000.0
 21
148466.268479
 31
0.0
  0
LINE
  5
85
  8
0
  6
BYBLOCK
 62
     9
 10
12025.0
 20
148530.0
 30
0.0
 11
12025.0
 21
148466.268479
 31
0.0
  0
LINE
  5
86
  8
0
  6
BYBLOCK
 62
     9
 10
11980.0
 20
148467.268479
 30
0.0
 11
11960.0
 21
148467.268479
 31
0.0
  0
LINE
  5
87
  8
0
  6
BYBLOCK
 62
     9
 10
12045.0
 20
148467.268479
 30
0.0
 11
12065.0
 21
148467.268479
 31
0.0
  0
TEXT
  5
88
  8
0
  6
BYBLOCK
 62
    11
 10
12073.790781
 20
148449.768479
 30
0.0
 40
35.0
  1
25
  0
LINE
  5
89
  8
0
  6
BYBLOCK
 62
     9
 10
12000.0
 20
148467.268479
 30
0.0
 11
12025.0
 21
148467.268479
 31
0.0
  0
SOLID
  5
8A
  8
0
  6
BYBLOCK
 62
     9
 10
11980.0
 20
148470.601812
 30
0.0
 11
11980.0
 21
148463.935146
 31
0.0
 12
12000.0
 22
148467.268479
 32
0.0
 13
12000.0
 23
148467.268479
 33
0.0
  0
SOLID
  5
8B
  8
0
  6
BYBLOCK
 62
     9
 10
12045.0
 20
148470.601812
 30
0.0
 11
12045.0
 21
148463.935146
 31
0.0
 12
12025.0
 22
148467.268479
 32
0.0
 13
12025.0
 23
148467.268479
 33
0.0
  0
POINT
  5
8C
  8
DEFPOINTS
  6
BYBLOCK
 62
     0
 10
12000.0
 20
148542.588246
 30
0.0
  0
POINT
  5
8D
  8
DEFPOINTS
  6
BYBLOCK
 62
     0
 10
12025.0
 20
148540.0
 30
0.0
  0
POINT
  5
8E
  8
DEFPOINTS
  6
BYBLOCK
 62
     0
 10
12025.0
 20
148467.268479
 30
0.0
  0
ENDBLK
  5
90
  8
0
  0
ENDSEC
  0
SECTION
  2
ENTITIES
  0
DIMENSION
  5
20
  8
TEAM-MAS
  2
*D9
 10
466.059968
 20
800.0
 30
0.0
 11
466.059968
 21
400.0
 31
0.0
 12
-12000.0
 22
-148000.0
 32
0.0
 13
0.0
 23
0.0
 33
0.0
 14
350.0
 24
800.0
 34
0.0
 50
90.0
1001
ACAD
1000
DSTYLE
1002
{
1070
    40
1040
1.0
1002
}
  0
DIMENSION
  5
2F
  8
TEAM-MAS
  2
*D7
 10
425.635416
 20
400.0
 30
0.0
 11
425.635416
 21
200.0
 31
0.0
 12
-12000.0
 22
-148000.0
 32
0.0
  1
300-450
 13
0.0
 23
0.0
 33
0.0
 14
80.0
 24
400.0
 34
0.0
 50
90.0
1001
ACAD
1000
DSTYLE
1002
{
1070
    40
1040
1.0
1002
}
  0
DIMENSION
  5
3D
  8
TEAM-MAS
  2
*D6
 10
508.114516
 20
800.0
 30
0.0
 11
508.114516
 21
400.0
 31
0.0
 12
-12000.0
 22
-148000.0
 32
0.0
  1
700-850
 13
0.0
 23
0.0
 33
0.0
 14
350.0
 24
800.0
 34
0.0
 50
90.0
1001
ACAD
1000
DSTYLE
1002
{
1070
    40
1040
1.0
1002
}
  0
DIMENSION
  5
4B
  8
TEAM-MAS
  2
*D5
 10
551.800469
 20
1100.0
 30
0.0
 11
551.800469
 21
550.0
 31
0.0
 12
-12000.0
 22
-148000.0
 32
0.0
 13
0.0
 23
0.0
 33
0.0
 14
76.5
 24
1100.0
 34
0.0
 50
90.0
1001
ACAD
1000
DSTYLE
1002
{
1070
    40
1040
1.0
1002
}
  0
DIMENSION
  5
59
  8
TEAM-MAS
  2
*D4
 10
597.117826
 20
1100.0
 30
0.0
 11
597.117826
 21
550.0
 31
0.0
 12
-12000.0
 22
-148000.0
 32
0.0
  1
1100-1250
 13
0.0
 23
0.0
 33
0.0
 14
76.5
 24
1100.0
 34
0.0
 50
90.0
1001
ACAD
1000
DSTYLE
1002
{
1070
    40
1040
1.0
1002
}
  0
DIMENSION
  5
67
  8
TEAM-MAS
  2
*D2
 10
425.908861
 20
800.0
 30
0.0
 11
425.908861
 21
695.0
 31
0.0
 12
-12000.0
 22
-148000.0
 32
0.0
 13
268.68513
 23
590.0
 33
0.0
 14
350.0
 24
800.0
 34
0.0
 50
90.0
1001
ACAD
1000
DSTYLE
1002
{
1070
    40
1040
1.0
1002
}
  0
DIMENSION
  5
75
  8
TEAM-MAS
  2
*D0
 10
425.908861
 20
800.0
 30
0.0
 11
425.908861
 21
904.412625
 31
0.0
 12
-12000.0
 22
-148000.0
 32
0.0
 70
   128
 13
333.923048
 23
860.0
 33
0.0
 14
350.0
 24
800.0
 34
0.0
 50
90.0
1001
ACAD
1000
DSTYLE
1002
{
1070
    40
1040
1.0
1002
}
  0
DIMENSION
  5
82
  8
TEAM-MAS
  2
*D13
 10
25.0
 20
467.268479
 30
0.0
 11
102.957448
 21
467.268479
 31
0.0
 12
-12000.0
 22
-148000.0
 32
0.0
 70
   128
 13
0.0
 23
542.588246
 33
0.0
 14
25.0
 24
540.0
 34
0.0
1001
ACAD
1000
DSTYLE
1002
{
1070
    78
1070
     0
1070
    40
1040
1.0
1002
}
  0
DIMENSION
  5
91
  8
TEAM-MAS
  2
*D12
 10
250.0
 20
891.553231
 30
0.0
 11
0.0
 21
891.553231
 31
0.0
 12
-12000.0
 22
-148000.0
 32
0.0
 13
-250.0
 23
845.0
 33
0.0
 14
250.0
 24
845.0
 34
0.0
1001
ACAD
1000
DSTYLE
1002
{
1070
    40
1040
1.0
1002
}
  0
DIMENSION
  5
9F
  8
TEAM-MAS
  2
*D11
 10
382.222908
 20
550.0
 30
0.0
 11
382.222908
 21
692.5
 31
0.0
 12
-12000.0
 22
-148000.0
 32
0.0
 13
260.0
 23
835.0
 33
0.0
 14
35.0
 24
550.0
 34
0.0
 50
90.0
1001
ACAD
1000
DSTYLE
1002
{
1070
    78
1070
     0
1070
    40
1040
1.0
1002
}
  0
DIMENSION
  5
AD
  8
TEAM-MAS
  2
*D10
 10
350.0
 20
934.137457
 30
0.0
 11
0.0
 21
934.137457
 31
0.0
 12
-12000.0
 22
-148000.0
 32
0.0
 13
-350.0
 23
752.47345
 33
0.0
 14
350.0
 24
752.47345
 34
0.0
1001
ACAD
1000
DSTYLE
1002
{
1070
    40
1040
1.0
1002
}
  0
DIMENSION
  5
BB
  8
TEAM-MAS
  2
*D8
 10
381.949464
 20
400.0
 30
0.0
 11
381.949464
 21
200.0
 31
0.0
 12
-12000.0
 22
-148000.0
 32
0.0
 13
0.0
 23
0.0
 33
0.0
 14
80.0
 24
400.0
 34
0.0
 50
90.0
1001
ACAD
1000
DSTYLE
1002
{
1070
    40
1040
1.0
1002
}
  0
DIMENSION
  5
C9
  8
TEAM-MAS
  2
*D3
 10
76.5
 20
1014.255467
 30
0.0
 11
0.0
 21
1014.255467
 31
0.0
 12
-12000.0
 22
-148000.0
 32
0.0
 70
   128
 13
-76.5
 23
1100.0
 33
0.0
 14
76.5
 24
1100.0
 34
0.0
1001
ACAD
1000
DSTYLE
1002
{
1070
    40
1040
1.0
1002
}
  0
DIMENSION
  5
D7
  8
TEAM-MAS
  2
*D1
 10
382.222908
 20
835.0
 30
0.0
 11
382.222908
 21
922.971887
 31
0.0
 12
-12000.0
 22
-148000.0
 32
0.0
 70
   128
 13
333.923048
 23
860.0
 33
0.0
 14
260.0
 24
835.0
 34
0.0
 50
90.0
1001
ACAD
1000
DSTYLE
1002
{
1070
    40
1040
1.0
1002
}
  0
LINE
  5
E6
  8
TEAM-BODY
 10
324.972393
 20
860.0
 30
0.0
 11
-324.972393
 21
860.0
 31
0.0
  0
LINE
  5
E8
  8
TEAM-BODY
 10
-305.92869
 20
590.0
 30
0.0
 11
305.92869
 21
590.0
 31
0.0
  0
LINE
  5
E9
  8
TEAM-BODY
 10
0.0
 20
552.171284
 30
0.0
 11
281.548034
 21
573.303972
 31
0.0
  0
TEXT
  5
EA
  8
TEAM-TXT
 10
-100.90955
 20
620.173131
 30
0.0
 40
30.0
  1
team 431002
 41
0.8
 51
15.0
  7
TEAM
  0
LINE
  5
ED
  8
TEAM-BODY
 10
350.0
 20
752.47345
 30
0.0
 11
-350.0
 21
752.47345
 31
0.0
  0
CIRCLE
  5
EE
  8
TEAM-COLD
 10
76.5
 20
1100.0
 30
0.0
 40
15.0
  0
LINE
  5
F0
  8
TEAM-AXE
 10
56.5
 20
1100.0
 30
0.0
 11
96.5
 21
1100.0
 31
0.0
  0
LINE
  5
F3
  8
TEAM-AXE
 10
50.0
 20
400.0
 30
0.0
 11
110.0
 21
400.0
 31
0.0
  0
CIRCLE
  5
F4
  8
TEAM-KAN
 10
80.0
 20
400.0
 30
0.0
 40
20.0
  0
LINE
  5
F6
  8
TEAM-BODY
 10
350.0
 20
800.0
 30
0.0
 11
-350.0
 21
800.0
 31
0.0
  0
CIRCLE
  5
F7
  8
TEAM-INSP
 10
0.0
 20
0.0
 30
0.0
 40
10.0
  0
ARC
  5
F9
  8
TEAM-BODY
 10
-324.972393
 20
850.0
 30
0.0
 40
10.0
 50
90.0
 51
173.661257
  0
LINE
  5
FA
  8
TEAM-BODY
 10
-340.588179
 20
800.0
 30
0.0
 11
-334.911258
 21
851.104064
 31
0.0
  0
LINE
  5
FB
  8
TEAM-BODY
 10
-322.6
 20
752.47345
 30
0.0
 11
-308.890459
 21
600.802015
 31
0.0
  0
ARC
  5
FC
  8
TEAM-BODY
 10
-278.986
 20
603.194372
 30
0.0
 40
30.0
 50
184.573921
 51
265.100908
  0
LINE
  5
FD
  8
TEAM-BODY
 10
-281.548034
 20
573.303972
 30
0.0
 11
0.0
 21
552.171284
 31
0.0
  0
LINE
  5
FE
  8
TEAM-AXE
 10
25.0
 20
560.0
 30
0.0
 11
25.0
 21
540.0
 31
0.0
  0
LINE
  5
FF
  8
TEAM-AXE
 10
35.0
 20
550.0
 30
0.0
 11
15.0
 21
550.0
 31
0.0
  0
CIRCLE
  5
100
  8
TEAM-HIDE
 10
25.0
 20
550.0
 30
0.0
 40
5.0
  0
LINE
  5
103
  8
TEAM-BODY
 10
-21.0
 20
552.171284
 30
0.0
 11
-21.0
 21
542.588246
 31
0.0
  0
LINE
  5
104
  8
TEAM-BODY
 10
21.0
 20
552.171284
 30
0.0
 11
21.0
 21
542.588246
 31
0.0
  0
LINE
  5
105
  8
TEAM-BODY
 10
-21.0
 20
542.588246
 30
0.0
 11
21.0
 21
542.588246
 31
0.0
  0
LINE
  5
106
  8
TEAM-KAN
 10
0.0
 20
542.588246
 30
0.0
 11
0.0
 21
365.980383
 31
0.0
  0
LINE
  5
107
  8
TEAM-BODY
 10
-350.0
 20
800.0
 30
0.0
 11
-350.0
 21
694.130182
 31
0.0
  0
LINE
  5
108
  8
TEAM-BODY
 10
-350.0
 20
694.130182
 30
0.0
 11
-330.0
 21
694.130182
 31
0.0
  0
LINE
  5
109
  8
TEAM-BODY
 10
-330.0
 20
752.47345
 30
0.0
 11
-330.0
 21
694.130182
 31
0.0
  0
LINE
  5
10A
  8
TEAM-AXE
 10
76.5
 20
1080.0
 30
0.0
 11
76.5
 21
1120.0
 31
0.0
  0
CIRCLE
  5
10B
  8
TEAM-WARM
 10
-76.5
 20
1100.0
 30
0.0
 40
15.0
  0
LINE
  5
10D
  8
TEAM-AXE
 10
-96.5
 20
1100.0
 30
0.0
 11
-56.5
 21
1100.0
 31
0.0
  0
LINE
  5
10E
  8
TEAM-AXE
 10
-76.5
 20
1080.0
 30
0.0
 11
-76.5
 21
1120.0
 31
0.0
  0
LINE
  5
10F
  8
TEAM-KAN
 10
80.0
 20
370.0
 30
0.0
 11
80.0
 21
365.980383
 31
0.0
  0
LINE
  5
110
  8
TEAM-AXE
 10
80.0
 20
370.0
 30
0.0
 11
80.0
 21
430.0
 31
0.0
  0
ARC
  5
111
  8
TEAM-KAN
 10
40.0
 20
365.980383
 30
0.0
 40
40.0
 50
180.0
 51
0.0
  0
LINE
  5
112
  8
TEAM-HIDE
 10
-80.0
 20
370.0
 30
0.0
 11
-80.0
 21
365.980383
 31
0.0
  0
LINE
  5
113
  8
TEAM-AXE
 10
-80.0
 20
370.0
 30
0.0
 11
-80.0
 21
430.0
 31
0.0
  0
CIRCLE
  5
114
  8
TEAM-HIDE
 10
-80.0
 20
400.0
 30
0.0
 40
20.0
  0
LINE
  5
115
  8
TEAM-AXE
 10
-240.0
 20
835.0
 30
0.0
 11
-260.0
 21
835.0
 31
0.0
  0
CIRCLE
  5
116
  8
TEAM-HIDE
 10
-250.0
 20
835.0
 30
0.0
 40
5.0
  0
LINE
  5
117
  8
TEAM-AXE
 10
-250.0
 20
845.0
 30
0.0
 11
-250.0
 21
825.0
 31
0.0
  0
LINE
  5
118
  8
TEAM-AXE
 10
-110.0
 20
400.0
 30
0.0
 11
-50.0
 21
400.0
 31
0.0
  0
ARC
  5
119
  8
TEAM-HIDE
 10
-40.0
 20
365.980383
 30
0.0
 40
40.0
 50
180.0
 51
0.0
  0
ARC
  5
11A
  8
TEAM-BODY
 10
324.972393
 20
850.0
 30
0.0
 40
10.0
 50
6.338743
 51
90.0
  0
LINE
  5
11B
  8
TEAM-BODY
 10
340.588179
 20
800.0
 30
0.0
 11
334.911258
 21
851.104064
 31
0.0
  0
LINE
  5
11C
  8
TEAM-BODY
 10
308.890459
 20
600.802015
 30
0.0
 11
322.6
 21
752.47345
 31
0.0
  0
ARC
  5
11D
  8
TEAM-BODY
 10
278.986
 20
603.194372
 30
0.0
 40
30.0
 50
274.899092
 51
355.426079
  0
LINE
  5
11E
  8
TEAM-BODY
 10
350.0
 20
694.130182
 30
0.0
 11
350.0
 21
800.0
 31
0.0
  0
LINE
  5
11F
  8
TEAM-BODY
 10
330.0
 20
694.130182
 30
0.0
 11
350.0
 21
694.130182
 31
0.0
  0
LINE
  5
120
  8
TEAM-BODY
 10
330.0
 20
694.130182
 30
0.0
 11
330.0
 21
752.47345
 31
0.0
  0
LINE
  5
121
  8
TEAM-AXE
 10
250.0
 20
845.0
 30
0.0
 11
250.0
 21
825.0
 31
0.0
  0
LINE
  5
122
  8
TEAM-AXE
 10
260.0
 20
835.0
 30
0.0
 11
240.0
 21
835.0
 31
0.0
  0
CIRCLE
  5
123
  8
TEAM-HIDE
 10
250.0
 20
835.0
 30
0.0
 40
5.0
  0
ENDSEC
  0
EOF
