  0
SECTION
  2
HEADER
  9
$ACADVER
  1
AC1009
  9
$INSBASE
 10
0.0
 20
0.0
 30
0.0
  9
$EXTMIN
 10
-277.083595
 20
-510.007269
 30
0.0
  9
$EXTMAX
 10
506.554606
 20
135.955059
 30
0.000005
  9
$LIMMIN
 10
-277.083595
 20
-510.007269
  9
$LIMMAX
 10
506.554606
 20
135.955059
  9
$ORTHOMODE
 70
     1
  9
$REGENMODE
 70
     1
  9
$FILLMODE
 70
     1
  9
$QTEXTMODE
 70
     0
  9
$MIRRTEXT
 70
     0
  9
$DRAGMODE
 70
     2
  9
$LTSCALE
 40
50.0
  9
$OSMODE
 70
     0
  9
$ATTMODE
 70
     1
  9
$TEXTSIZE
 40
200.0
  9
$TRACEWID
 40
1.0
  9
$TEXTSTYLE
  7
STANDARD
  9
$CLAYER
  8
TEAM-MAS
  9
$CELTYPE
  6
BYLAYER
  9
$CECOLOR
 62
   256
  9
$DIMSCALE
 40
0.0
  9
$DIMASZ
 40
20.0
  9
$DIMEXO
 40
10.0
  9
$DIMDLI
 40
1.0
  9
$DIMRND
 40
0.0
  9
$DIMDLE
 40
0.0
  9
$DIMEXE
 40
1.0
  9
$DIMTP
 40
0.0
  9
$DIMTM
 40
0.0
  9
$DIMTXT
 40
35.0
  9
$DIMCEN
 40
1.0
  9
$DIMTSZ
 40
0.0
  9
$DIMTOL
 70
     0
  9
$DIMLIM
 70
     0
  9
$DIMTIH
 70
     0
  9
$DIMTOH
 70
     0
  9
$DIMSE1
 70
     0
  9
$DIMSE2
 70
     0
  9
$DIMTAD
 70
     0
  9
$DIMZIN
 70
     0
  9
$DIMBLK
  1

  9
$DIMASO
 70
     1
  9
$DIMSHO
 70
     0
  9
$DIMPOST
  1

  9
$DIMAPOST
  1

  9
$DIMALT
 70
     0
  9
$DIMALTD
 70
     2
  9
$DIMALTF
 40
25.4
  9
$DIMLFAC
 40
1.0
  9
$DIMTOFL
 70
     0
  9
$DIMTVP
 40
0.0
  9
$DIMTIX
 70
     0
  9
$DIMSOXD
 70
     0
  9
$DIMSAH
 70
     0
  9
$DIMBLK1
  1

  9
$DIMBLK2
  1

  9
$DIMSTYLE
  2
TEAM
  9
$DIMCLRD
 70
     9
  9
$DIMCLRE
 70
     9
  9
$DIMCLRT
 70
    11
  9
$DIMTFAC
 40
1.0
  9
$DIMGAP
 40
7.0
  9
$LUNITS
 70
     2
  9
$LUPREC
 70
     1
  9
$SKETCHINC
 40
1.0
  9
$FILLETRAD
 40
50.0
  9
$AUNITS
 70
     0
  9
$AUPREC
 70
     0
  9
$MENU
  1
ROPLANS
  9
$ELEVATION
 40
0.0
  9
$PELEVATION
 40
0.0
  9
$THICKNESS
 40
0.0
  9
$LIMCHECK
 70
     0
  9
$BLIPMODE
 70
     1
  9
$CHAMFERA
 40
0.0
  9
$CHAMFERB
 40
0.0
  9
$SKPOLY
 70
     0
  9
$TDCREATE
 40
2450392.957851
  9
$TDUPDATE
 40
2456272.033233
  9
$TDINDWG
 40
2.315654
  9
$TDUSRTIMER
 40
2.315654
  9
$USRTIMER
 70
     1
  9
$ANGBASE
 50
0.0
  9
$ANGDIR
 70
     0
  9
$PDMODE
 70
     0
  9
$PDSIZE
 40
0.0
  9
$PLINEWID
 40
0.0
  9
$COORDS
 70
     2
  9
$SPLFRAME
 70
     0
  9
$SPLINETYPE
 70
     6
  9
$SPLINESEGS
 70
     8
  9
$ATTDIA
 70
     0
  9
$ATTREQ
 70
     0
  9
$HANDLING
 70
     1
  9
$HANDSEED
  5
DC
  9
$SURFTAB1
 70
    24
  9
$SURFTAB2
 70
    24
  9
$SURFTYPE
 70
     6
  9
$SURFU
 70
     6
  9
$SURFV
 70
     6
  9
$UCSNAME
  2

  9
$UCSORG
 10
0.0
 20
0.0
 30
0.0
  9
$UCSXDIR
 10
1.0
 20
0.0
 30
0.0
  9
$UCSYDIR
 10
0.0
 20
1.0
 30
0.0
  9
$PUCSNAME
  2

  9
$PUCSORG
 10
0.0
 20
0.0
 30
0.0
  9
$PUCSXDIR
 10
1.0
 20
0.0
 30
0.0
  9
$PUCSYDIR
 10
0.0
 20
1.0
 30
0.0
  9
$USERI1
 70
     0
  9
$USERI2
 70
     0
  9
$USERI3
 70
     0
  9
$USERI4
 70
     0
  9
$USERI5
 70
     0
  9
$USERR1
 40
0.0
  9
$USERR2
 40
0.0
  9
$USERR3
 40
0.0
  9
$USERR4
 40
0.0
  9
$USERR5
 40
0.0
  9
$WORLDVIEW
 70
     1
  9
$SHADEDGE
 70
     0
  9
$SHADEDIF
 70
    70
  9
$TILEMODE
 70
     1
  9
$MAXACTVP
 70
    16
  9
$PLIMCHECK
 70
     0
  9
$PEXTMIN
 10
-0.805942
 20
0.005011
 30
0.0
  9
$PEXTMAX
 10
20.250094
 20
11.356329
 30
0.0
  9
$PLIMMIN
 10
0.0
 20
0.0
  9
$PLIMMAX
 10
12.0
 20
9.0
  9
$UNITMODE
 70
     0
  9
$VISRETAIN
 70
     0
  9
$PLINEGEN
 70
     0
  9
$PSLTSCALE
 70
     0
  0
ENDSEC
  0
SECTION
  2
TABLES
  0
TABLE
  2
VPORT
 70
     2
  0
VPORT
  2
*ACTIVE
 70
     0
 10
0.0
 20
0.0
 11
1.0
 21
1.0
 12
114.735505
 22
-187.026105
 13
0.0
 23
0.0
 14
1.0
 24
1.0
 15
50.0
 25
50.0
 16
0.0
 26
0.0
 36
1.0
 17
0.0
 27
0.0
 37
0.0
 40
650.029247
 41
1.911765
 42
50.0
 43
0.0
 44
0.0
 50
0.0
 51
0.0
 71
     0
 72
   100
 73
     1
 74
     1
 75
     0
 76
     0
 77
     0
 78
     0
  0
ENDTAB
  0
TABLE
  2
LTYPE
 70
     2
  0
LTYPE
  2
CONTINUOUS
 70
     0
  3
Solid Line
 72
    65
 73
     0
 40
0.0
  0
LTYPE
  2
31
 70
     0
  3

 72
    65
 73
     4
 40
2.1
 49
1.5
 49
-0.3
 49
0.0
 49
-0.3
  0
ENDTAB
  0
TABLE
  2
LAYER
 70
    10
  0
LAYER
  2
0
 70
     0
 62
     7
  6
CONTINUOUS
  0
LAYER
  2
DEFPOINTS
 70
     0
 62
     7
  6
CONTINUOUS
  0
LAYER
  2
TEAM-BODY
 70
     0
 62
     2
  6
CONTINUOUS
  0
LAYER
  2
TEAM-AXE
 70
     0
 62
    10
  6
31
  0
LAYER
  2
TEAM-MAS
 70
     0
 62
     9
  6
CONTINUOUS
  0
LAYER
  2
TEAM-TXT
 70
     0
 62
    11
  6
CONTINUOUS
  0
LAYER
  2
TEAM-DET1
 70
     0
 62
     4
  6
CONTINUOUS
  0
LAYER
  2
TEAM-COLD
 70
     0
 62
     3
  6
CONTINUOUS
  0
LAYER
  2
TEAM-WARM
 70
     0
 62
     1
  6
CONTINUOUS
  0
LAYER
  2
TEAM-INSP
 70
     0
 62
     5
  6
CONTINUOUS
  0
ENDTAB
  0
TABLE
  2
STYLE
 70
     2
  0
STYLE
  2
STANDARD
 70
     0
 40
0.0
 41
1.0
 50
0.0
 71
     0
 42
200.0
  3
txt
  4

  0
STYLE
  2
TEAM
 70
     0
 40
0.0
 41
0.8
 50
15.0
 71
     0
 42
7.0
  3
ROMANS.shx
  4

  0
ENDTAB
  0
TABLE
  2
VIEW
 70
     0
  0
ENDTAB
  0
TABLE
  2
UCS
 70
     0
  0
ENDTAB
  0
TABLE
  2
APPID
 70
     1
  0
APPID
  2
ACAD
 70
     0
  0
ENDTAB
  0
TABLE
  2
DIMSTYLE
 70
     1
  0
DIMSTYLE
  2
TEAM
 70
     0
  3

  4

  5

  6

  7

 40
0.0
 41
20.0
 42
10.0
 43
1.0
 44
1.0
 45
0.0
 46
0.0
 47
0.0
 48
0.0
140
35.0
141
1.0
142
0.0
143
25.4
144
1.0
145
0.0
146
1.0
147
7.0
 71
     0
 72
     0
 73
     0
 74
     0
 75
     0
 76
     0
 77
     0
 78
     0
170
     0
171
     2
172
     0
173
     0
174
     0
175
     0
176
     9
177
     9
178
    11
  0
ENDTAB
  0
ENDSEC
  0
SECTION
  2
BLOCKS
  0
BLOCK
  8
0
  2
$MODEL_SPACE
 70
     0
 10
0.0
 20
0.0
 30
0.0
  3
$MODEL_SPACE
  1

  0
ENDBLK
  5
D5
  8
0
  0
BLOCK
 67
     1
  8
0
  2
$PAPER_SPACE
 70
     0
 10
0.0
 20
0.0
 30
0.0
  3
$PAPER_SPACE
  1

  0
ENDBLK
  5
D3
 67
     1
  8
0
  0
BLOCK
  8
0
  2
*D0
 70
     1
 10
0.0
 20
0.0
 30
0.0
  3
*D0
  1

  0
LINE
  5
5B
  8
0
  6
BYBLOCK
 62
     9
 10
8467.0
 20
152000.0
 30
0.0
 11
8490.039799
 21
152000.0
 31
0.0
  0
LINE
  5
5C
  8
0
  6
BYBLOCK
 62
     9
 10
8102.0
 20
151490.0
 30
0.0
 11
8490.039799
 21
151490.0
 31
0.0
  0
LINE
  5
5D
  8
0
  6
BYBLOCK
 62
     9
 10
8489.039799
 20
151980.0
 30
0.0
 11
8489.039799
 21
151789.916667
 31
0.0
  0
LINE
  5
5E
  8
0
  6
BYBLOCK
 62
     9
 10
8489.039799
 20
151510.0
 30
0.0
 11
8489.039799
 21
151700.083333
 31
0.0
  0
SOLID
  5
5F
  8
0
  6
BYBLOCK
 62
     9
 10
8485.706466
 20
151980.0
 30
0.0
 11
8492.373133
 21
151980.0
 31
0.0
 12
8489.039799
 22
152000.0
 32
0.0
 13
8489.039799
 23
152000.0
 33
0.0
  0
SOLID
  5
60
  8
0
  6
BYBLOCK
 62
     9
 10
8485.706466
 20
151510.0
 30
0.0
 11
8492.373133
 21
151510.0
 31
0.0
 12
8489.039799
 22
151490.0
 32
0.0
 13
8489.039799
 23
151490.0
 33
0.0
  0
TEXT
  5
61
  8
0
  6
BYBLOCK
 62
    11
 10
8506.539799
 20
151707.083333
 30
0.0
 40
35.0
  1
510
 50
90.0
  0
POINT
  5
62
  8
DEFPOINTS
  6
BYBLOCK
 62
     0
 10
8457.0
 20
152000.0
 30
0.0
  0
POINT
  5
63
  8
DEFPOINTS
  6
BYBLOCK
 62
     0
 10
8092.0
 20
151490.0
 30
0.0
  0
POINT
  5
64
  8
DEFPOINTS
  6
BYBLOCK
 62
     0
 10
8489.039799
 20
151490.0
 30
0.0
  0
ENDBLK
  5
66
  8
0
  0
BLOCK
  8
0
  2
*D1
 70
     1
 10
0.0
 20
0.0
 30
0.0
  3
*D1
  1

  0
LINE
  5
4D
  8
0
  6
BYBLOCK
 62
     9
 10
8227.0
 20
151880.0
 30
0.0
 11
8227.0
 21
152078.15216
 31
0.0
  0
LINE
  5
4E
  8
0
  6
BYBLOCK
 62
     9
 10
8457.0
 20
152010.0
 30
0.0
 11
8457.0
 21
152078.15216
 31
0.0
  0
LINE
  5
4F
  8
0
  6
BYBLOCK
 62
     9
 10
8247.0
 20
152077.15216
 30
0.0
 11
8291.25
 21
152077.15216
 31
0.0
  0
LINE
  5
50
  8
0
  6
BYBLOCK
 62
     9
 10
8437.0
 20
152077.15216
 30
0.0
 11
8392.75
 21
152077.15216
 31
0.0
  0
SOLID
  5
51
  8
0
  6
BYBLOCK
 62
     9
 10
8247.0
 20
152080.485493
 30
0.0
 11
8247.0
 21
152073.818826
 31
0.0
 12
8227.0
 22
152077.15216
 32
0.0
 13
8227.0
 23
152077.15216
 33
0.0
  0
SOLID
  5
52
  8
0
  6
BYBLOCK
 62
     9
 10
8437.0
 20
152080.485493
 30
0.0
 11
8437.0
 21
152073.818826
 31
0.0
 12
8457.0
 22
152077.15216
 32
0.0
 13
8457.0
 23
152077.15216
 33
0.0
  0
TEXT
  5
53
  8
0
  6
BYBLOCK
 62
    11
 10
8298.25
 20
152059.65216
 30
0.0
 40
35.0
  1
230
  0
POINT
  5
54
  8
DEFPOINTS
  6
BYBLOCK
 62
     0
 10
8227.0
 20
151870.0
 30
0.0
  0
POINT
  5
55
  8
DEFPOINTS
  6
BYBLOCK
 62
     0
 10
8457.0
 20
152000.0
 30
0.0
  0
POINT
  5
56
  8
DEFPOINTS
  6
BYBLOCK
 62
     0
 10
8457.0
 20
152077.15216
 30
0.0
  0
ENDBLK
  5
58
  8
0
  0
BLOCK
  8
0
  2
*D2
 70
     1
 10
0.0
 20
0.0
 30
0.0
  3
*D2
  1

  0
LINE
  5
3F
  8
0
  6
BYBLOCK
 62
     9
 10
7727.0
 20
152010.0
 30
0.0
 11
7727.0
 21
152038.937318
 31
0.0
  0
LINE
  5
40
  8
0
  6
BYBLOCK
 62
     9
 10
8000.0
 20
151910.0
 30
0.0
 11
8000.0
 21
152038.937318
 31
0.0
  0
LINE
  5
41
  8
0
  6
BYBLOCK
 62
     9
 10
7747.0
 20
152037.937318
 30
0.0
 11
7809.833333
 21
152037.937318
 31
0.0
  0
LINE
  5
42
  8
0
  6
BYBLOCK
 62
     9
 10
7980.0
 20
152037.937318
 30
0.0
 11
7917.166667
 21
152037.937318
 31
0.0
  0
SOLID
  5
43
  8
0
  6
BYBLOCK
 62
     9
 10
7747.0
 20
152041.270651
 30
0.0
 11
7747.0
 21
152034.603985
 31
0.0
 12
7727.0
 22
152037.937318
 32
0.0
 13
7727.0
 23
152037.937318
 33
0.0
  0
SOLID
  5
44
  8
0
  6
BYBLOCK
 62
     9
 10
7980.0
 20
152041.270651
 30
0.0
 11
7980.0
 21
152034.603985
 31
0.0
 12
8000.0
 22
152037.937318
 32
0.0
 13
8000.0
 23
152037.937318
 33
0.0
  0
TEXT
  5
45
  8
0
  6
BYBLOCK
 62
    11
 10
7816.833333
 20
152020.437318
 30
0.0
 40
35.0
  1
273
  0
POINT
  5
46
  8
DEFPOINTS
  6
BYBLOCK
 62
     0
 10
7727.0
 20
152000.0
 30
0.0
  0
POINT
  5
47
  8
DEFPOINTS
  6
BYBLOCK
 62
     0
 10
8000.0
 20
151900.0
 30
0.0
  0
POINT
  5
48
  8
DEFPOINTS
  6
BYBLOCK
 62
     0
 10
8000.0
 20
152037.937318
 30
0.0
  0
ENDBLK
  5
4A
  8
0
  0
BLOCK
  8
0
  2
*D3
 70
     1
 10
0.0
 20
0.0
 30
0.0
  3
*D3
  1

  0
LINE
  5
31
  8
0
  6
BYBLOCK
 62
     9
 10
7772.0
 20
151880.0
 30
0.0
 11
7772.0
 21
152078.15216
 31
0.0
  0
LINE
  5
32
  8
0
  6
BYBLOCK
 62
     9
 10
8227.0
 20
151880.0
 30
0.0
 11
8227.0
 21
152078.15216
 31
0.0
  0
LINE
  5
33
  8
0
  6
BYBLOCK
 62
     9
 10
7792.0
 20
152077.15216
 30
0.0
 11
7945.833333
 21
152077.15216
 31
0.0
  0
LINE
  5
34
  8
0
  6
BYBLOCK
 62
     9
 10
8207.0
 20
152077.15216
 30
0.0
 11
8053.166667
 21
152077.15216
 31
0.0
  0
SOLID
  5
35
  8
0
  6
BYBLOCK
 62
     9
 10
7792.0
 20
152080.485493
 30
0.0
 11
7792.0
 21
152073.818826
 31
0.0
 12
7772.0
 22
152077.15216
 32
0.0
 13
7772.0
 23
152077.15216
 33
0.0
  0
SOLID
  5
36
  8
0
  6
BYBLOCK
 62
     9
 10
8207.0
 20
152080.485493
 30
0.0
 11
8207.0
 21
152073.818826
 31
0.0
 12
8227.0
 22
152077.15216
 32
0.0
 13
8227.0
 23
152077.15216
 33
0.0
  0
TEXT
  5
37
  8
0
  6
BYBLOCK
 62
    11
 10
7952.833333
 20
152059.65216
 30
0.0
 40
35.0
  1
455
  0
POINT
  5
38
  8
DEFPOINTS
  6
BYBLOCK
 62
     0
 10
7772.0
 20
151870.0
 30
0.0
  0
POINT
  5
39
  8
DEFPOINTS
  6
BYBLOCK
 62
     0
 10
8227.0
 20
151870.0
 30
0.0
  0
POINT
  5
3A
  8
DEFPOINTS
  6
BYBLOCK
 62
     0
 10
8227.0
 20
152077.15216
 30
0.0
  0
ENDBLK
  5
3C
  8
0
  0
BLOCK
  8
0
  2
*D4
 70
     1
 10
0.0
 20
0.0
 30
0.0
  3
*D4
  1

  0
LINE
  5
22
  8
0
  6
BYBLOCK
 62
     9
 10
8457.0
 20
152010.0
 30
0.0
 11
8457.0
 21
152119.431409
 31
0.0
  0
LINE
  5
23
  8
0
  6
BYBLOCK
 62
     9
 10
7727.0
 20
152010.0
 30
0.0
 11
7727.0
 21
152119.431409
 31
0.0
  0
LINE
  5
24
  8
0
  6
BYBLOCK
 62
     9
 10
8437.0
 20
152118.431409
 30
0.0
 11
8142.75
 21
152118.431409
 31
0.0
  0
LINE
  5
25
  8
0
  6
BYBLOCK
 62
     9
 10
7747.0
 20
152118.431409
 30
0.0
 11
8041.25
 21
152118.431409
 31
0.0
  0
SOLID
  5
26
  8
0
  6
BYBLOCK
 62
     9
 10
8437.0
 20
152121.764743
 30
0.0
 11
8437.0
 21
152115.098076
 31
0.0
 12
8457.0
 22
152118.431409
 32
0.0
 13
8457.0
 23
152118.431409
 33
0.0
  0
SOLID
  5
27
  8
0
  6
BYBLOCK
 62
     9
 10
7747.0
 20
152121.764743
 30
0.0
 11
7747.0
 21
152115.098076
 31
0.0
 12
7727.0
 22
152118.431409
 32
0.0
 13
7727.0
 23
152118.431409
 33
0.0
  0
TEXT
  5
28
  8
0
  6
BYBLOCK
 62
    11
 10
8048.25
 20
152100.931409
 30
0.0
 40
35.0
  1
730
  0
POINT
  5
29
  8
DEFPOINTS
  6
BYBLOCK
 62
     0
 10
8457.0
 20
152000.0
 30
0.0
  0
POINT
  5
2B
  8
DEFPOINTS
  6
BYBLOCK
 62
     0
 10
7727.0
 20
152000.0
 30
0.0
  0
POINT
  5
2C
  8
DEFPOINTS
  6
BYBLOCK
 62
     0
 10
7727.0
 20
152118.431409
 30
0.0
  0
ENDBLK
  5
2E
  8
0
  0
ENDSEC
  0
SECTION
  2
ENTITIES
  0
DIMENSION
  5
20
  8
TEAM-MAS
  2
*D4
 10
-273.0
 20
118.431409
 30
0.0
 11
92.0
 21
118.431409
 31
0.0
 12
-8000.0
 22
-152000.0
 32
0.0
 13
457.0
 23
0.0
 33
0.0
 14
-273.0
 24
0.0
 34
0.0
1001
ACAD
1000
DSTYLE
1002
{
1070
    40
1040
1.0
1002
}
  0
DIMENSION
  5
2F
  8
TEAM-MAS
  2
*D3
 10
227.0
 20
77.15216
 30
0.0
 11
-0.5
 21
77.15216
 31
0.0
 12
-8000.0
 22
-152000.0
 32
0.0
 13
-228.0
 23
-130.0
 33
0.0
 14
227.0
 24
-130.0
 34
0.0
1001
ACAD
1000
DSTYLE
1002
{
1070
    40
1040
1.0
1002
}
  0
DIMENSION
  5
3D
  8
TEAM-MAS
  2
*D2
 10
0.0
 20
37.937318
 30
0.0
 11
-136.5
 21
37.937318
 31
0.0
 12
-8000.0
 22
-152000.0
 32
0.0
 13
-273.0
 23
0.0
 33
0.0
 14
0.0
 24
-100.0
 34
0.0
1001
ACAD
1000
DSTYLE
1002
{
1070
    40
1040
1.0
1002
}
  0
DIMENSION
  5
4B
  8
TEAM-MAS
  2
*D1
 10
457.0
 20
77.15216
 30
0.0
 11
342.0
 21
77.15216
 31
0.0
 12
-8000.0
 22
-152000.0
 32
0.0
 13
227.0
 23
-130.0
 33
0.0
 14
457.0
 24
0.0
 34
0.0
1001
ACAD
1000
DSTYLE
1002
{
1070
    40
1040
1.0
1002
}
  0
DIMENSION
  5
59
  8
TEAM-MAS
  2
*D0
 10
489.039799
 20
-510.0
 30
0.0
 11
489.039799
 21
-255.0
 31
0.0
 12
-8000.0
 22
-152000.0
 32
0.0
 13
457.0
 23
0.0
 33
0.0
 14
92.0
 24
-510.0
 34
0.0
 50
270.0
1001
ACAD
1000
DSTYLE
1002
{
1070
    40
1040
1.0
1002
}
  0
TEXT
  5
67
  8
TEAM-TXT
 10
-93.814939
 20
-404.543638
 30
0.0
 40
30.0
  1
team 431005
 41
0.8
 51
15.0
  7
TEAM
  0
LINE
  5
6A
  8
TEAM-BODY
 10
69.282032
 20
-100.0
 30
0.0
 11
197.0
 21
-100.0
 31
0.0
  0
LINE
  5
6C
  8
TEAM-DET1
 10
54.772256
 20
-115.0
 30
0.0
 11
177.0
 21
-115.0
 31
0.0
  0
LINE
  5
6E
  8
TEAM-BODY
 10
457.0
 20
-10.0
 30
0.0
 11
-273.0
 21
-10.0
 31
0.0
  0
ARC
  5
6F
  8
TEAM-BODY
 10
99.5
 20
1116.797768
 30
0.0
 40
1626.797768
 50
258.169622
 51
281.830378
  0
ARC
  5
70
  8
TEAM-DET1
 10
-11.05
 20
660.945324
 30
0.0
 40
1100.0
 50
261.023576
 51
280.12217
  0
ARC
  5
71
  8
TEAM-BODY
 10
-11.05
 20
630.945324
 30
0.0
 40
1100.0
 50
259.937657
 51
281.211968
  0
CIRCLE
  5
72
  8
TEAM-COLD
 10
76.5
 20
0.0
 30
0.0
 40
15.0
  0
LINE
  5
74
  8
TEAM-AXE
 10
96.5
 20
0.0
 30
0.0
 11
56.5
 21
0.0
 31
0.0
  0
LINE
  5
77
  8
TEAM-BODY
 10
457.0
 20
0.0
 30
0.0
 11
-273.0
 21
0.0
 31
0.0
  0
ARC
  5
78
  8
TEAM-DET1
 10
54.772256
 20
-105.0
 30
0.0
 40
10.0
 50
174.784091
 51
270.0
  0
ARC
  5
79
  8
TEAM-DET1
 10
-54.772256
 20
-105.0
 30
0.0
 40
10.0
 50
270.0
 51
5.215909
  0
ARC
  5
7A
  8
TEAM-DET1
 10
0.0
 20
-100.0
 30
0.0
 40
45.0
 50
354.784091
 51
185.215909
  0
LINE
  5
7B
  8
TEAM-DET1
 10
-54.772256
 20
-115.0
 30
0.0
 11
-178.0
 21
-115.0
 31
0.0
  0
ARC
  5
7C
  8
TEAM-BODY
 10
-69.282032
 20
-90.0
 30
0.0
 40
10.0
 50
270.0
 51
351.786789
  0
ARC
  5
7D
  8
TEAM-BODY
 10
69.282032
 20
-90.0
 30
0.0
 40
10.0
 50
188.213211
 51
270.0
  0
ARC
  5
7E
  8
TEAM-BODY
 10
0.0
 20
-100.0
 30
0.0
 40
60.0
 50
8.213211
 51
171.786789
  0
LINE
  5
7F
  8
TEAM-BODY
 10
-69.282032
 20
-100.0
 30
0.0
 11
-198.0
 21
-100.0
 31
0.0
  0
LINE
  5
80
  8
TEAM-AXE
 10
-31.0
 20
-100.0
 30
0.0
 11
31.0
 21
-100.0
 31
0.0
  0
LINE
  5
81
  8
TEAM-AXE
 10
0.0
 20
-131.0
 30
0.0
 11
0.0
 21
-69.0
 31
0.0
  0
CIRCLE
  5
82
  8
TEAM-BODY
 10
0.0
 20
-100.0
 30
0.0
 40
26.0
  0
CIRCLE
  5
83
  8
TEAM-DET1
 10
0.0
 20
-100.0
 30
0.0
 40
21.0
  0
ARC
  5
84
  8
TEAM-DET1
 10
-178.0
 20
-145.0
 30
0.0
 40
30.0
 50
90.0
 51
180.0
  0
LINE
  5
85
  8
TEAM-DET1
 10
-208.0
 20
-145.0
 30
0.0
 11
-208.0
 21
-395.949987
 31
0.0
  0
ARC
  5
86
  8
TEAM-BODY
 10
-198.0
 20
-130.0
 30
0.0
 40
30.0
 50
90.0
 51
180.0
  0
LINE
  5
87
  8
TEAM-BODY
 10
-228.0
 20
-130.0
 30
0.0
 11
-228.0
 21
-422.596179
 31
0.0
  0
ARC
  5
88
  8
TEAM-BODY
 10
-228.996589
 20
-428.237513
 30
0.0
 40
47.473704
 50
202.043262
 51
263.92837
  0
ARC
  5
89
  8
TEAM-BODY
 10
-198.0
 20
-422.596179
 30
0.0
 40
30.0
 50
180.0
 51
259.937657
  0
ARC
  5
8A
  8
TEAM-DET1
 10
-178.0
 20
-395.949987
 30
0.0
 40
30.0
 50
180.0
 51
261.023576
  0
CIRCLE
  5
8B
  8
TEAM-WARM
 10
-76.5
 20
0.0
 30
0.0
 40
15.0
  0
CIRCLE
  5
8D
  8
TEAM-INSP
 10
0.0
 20
0.0
 30
0.0
 40
10.0
  0
LINE
  5
8F
  8
TEAM-AXE
 10
-56.5
 20
0.0
 30
0.0
 11
-96.5
 21
0.0
 31
0.0
  0
LINE
  5
90
  8
TEAM-AXE
 10
-76.5
 20
-20.0
 30
0.0
 11
-76.5
 21
20.0
 31
0.0
  0
LINE
  5
91
  8
TEAM-AXE
 10
76.5
 20
-20.0
 30
0.0
 11
76.5
 21
20.0
 31
0.0
  0
LINE
  5
92
  8
TEAM-BODY
 10
-273.0
 20
0.0
 30
0.0
 11
-273.0
 21
-446.054706
 31
0.0
  0
ARC
  5
93
  8
TEAM-DET1
 10
412.0
 20
-429.864753
 30
0.0
 40
30.0
 50
266.756873
 51
360.0
  0
LINE
  5
94
  8
TEAM-DET1
 10
442.0
 20
-65.374379
 30
0.0
 11
442.0
 21
-429.864753
 31
0.0
  0
LINE
  5
95
  8
TEAM-DET1
 10
202.833178
 20
-448.060694
 30
0.0
 11
410.302809
 21
-459.816707
 31
0.0
  0
ARC
  5
96
  8
TEAM-DET1
 10
412.0
 20
-65.374379
 30
0.0
 40
30.0
 50
360.0
 51
107.067128
  0
LINE
  5
97
  8
TEAM-DET1
 10
197.0
 20
-100.0
 30
0.0
 11
403.195242
 21
-36.695532
 31
0.0
  0
ARC
  5
98
  8
TEAM-DET1
 10
177.0
 20
-145.0
 30
0.0
 40
30.0
 50
0.0
 51
90.0
  0
LINE
  5
99
  8
TEAM-DET1
 10
207.0
 20
-145.0
 30
0.0
 11
207.0
 21
-392.400392
 31
0.0
  0
ARC
  5
9A
  8
TEAM-BODY
 10
197.0
 20
-130.0
 30
0.0
 40
30.0
 50
0.0
 51
90.0
  0
LINE
  5
9B
  8
TEAM-BODY
 10
227.0
 20
-130.0
 30
0.0
 11
227.0
 21
-418.633257
 31
0.0
  0
ARC
  5
9C
  8
TEAM-BODY
 10
197.0
 20
-418.633257
 30
0.0
 40
30.0
 50
281.211968
 51
0.0
  0
ARC
  5
9D
  8
TEAM-DET1
 10
177.0
 20
-392.400392
 30
0.0
 40
30.0
 50
280.12217
 51
360.0
  0
ARC
  5
9E
  8
TEAM-BODY
 10
427.0
 20
-446.054706
 30
0.0
 40
30.0
 50
281.571978
 51
0.0
  0
LINE
  5
9F
  8
TEAM-BODY
 10
457.0
 20
0.0
 30
0.0
 11
457.0
 21
-446.054706
 31
0.0
  0
ENDSEC
  0
EOF
