  0
SECTION
  2
HEADER
  9
$ACADVER
  1
AC1009
  9
$INSBASE
 10
0.0
 20
0.0
 30
0.0
  9
$EXTMIN
 10
-407.009487
 20
-506.182954
 30
0.0
  9
$EXTMAX
 10
361.179612
 20
94.087479
 30
0.000005
  9
$LIMMIN
 10
-407.009487
 20
-506.182954
  9
$LIMMAX
 10
361.179612
 20
94.087479
  9
$ORTHOMODE
 70
     1
  9
$REGENMODE
 70
     1
  9
$FILLMODE
 70
     1
  9
$QTEXTMODE
 70
     0
  9
$MIRRTEXT
 70
     0
  9
$DRAGMODE
 70
     2
  9
$LTSCALE
 40
50.0
  9
$OSMODE
 70
     0
  9
$ATTMODE
 70
     1
  9
$TEXTSIZE
 40
200.0
  9
$TRACEWID
 40
1.0
  9
$TEXTSTYLE
  7
STANDARD
  9
$CLAYER
  8
TEAM-MAS
  9
$CELTYPE
  6
BYLAYER
  9
$CECOLOR
 62
   256
  9
$DIMSCALE
 40
0.0
  9
$DIMASZ
 40
20.0
  9
$DIMEXO
 40
10.0
  9
$DIMDLI
 40
1.0
  9
$DIMRND
 40
0.0
  9
$DIMDLE
 40
0.0
  9
$DIMEXE
 40
1.0
  9
$DIMTP
 40
0.0
  9
$DIMTM
 40
0.0
  9
$DIMTXT
 40
35.0
  9
$DIMCEN
 40
1.0
  9
$DIMTSZ
 40
0.0
  9
$DIMTOL
 70
     0
  9
$DIMLIM
 70
     0
  9
$DIMTIH
 70
     0
  9
$DIMTOH
 70
     0
  9
$DIMSE1
 70
     0
  9
$DIMSE2
 70
     0
  9
$DIMTAD
 70
     0
  9
$DIMZIN
 70
     0
  9
$DIMBLK
  1

  9
$DIMASO
 70
     1
  9
$DIMSHO
 70
     0
  9
$DIMPOST
  1

  9
$DIMAPOST
  1

  9
$DIMALT
 70
     0
  9
$DIMALTD
 70
     2
  9
$DIMALTF
 40
25.4
  9
$DIMLFAC
 40
1.0
  9
$DIMTOFL
 70
     0
  9
$DIMTVP
 40
0.0
  9
$DIMTIX
 70
     0
  9
$DIMSOXD
 70
     0
  9
$DIMSAH
 70
     0
  9
$DIMBLK1
  1

  9
$DIMBLK2
  1

  9
$DIMSTYLE
  2
TEAM
  9
$DIMCLRD
 70
     9
  9
$DIMCLRE
 70
     9
  9
$DIMCLRT
 70
    11
  9
$DIMTFAC
 40
1.0
  9
$DIMGAP
 40
7.0
  9
$LUNITS
 70
     2
  9
$LUPREC
 70
     1
  9
$SKETCHINC
 40
1.0
  9
$FILLETRAD
 40
50.0
  9
$AUNITS
 70
     0
  9
$AUPREC
 70
     0
  9
$MENU
  1
ROPLANS
  9
$ELEVATION
 40
0.0
  9
$PELEVATION
 40
0.0
  9
$THICKNESS
 40
0.0
  9
$LIMCHECK
 70
     0
  9
$BLIPMODE
 70
     1
  9
$CHAMFERA
 40
0.0
  9
$CHAMFERB
 40
0.0
  9
$SKPOLY
 70
     0
  9
$TDCREATE
 40
2450392.957851
  9
$TDUPDATE
 40
2456272.033233
  9
$TDINDWG
 40
2.315654
  9
$TDUSRTIMER
 40
2.315654
  9
$USRTIMER
 70
     1
  9
$ANGBASE
 50
0.0
  9
$ANGDIR
 70
     0
  9
$PDMODE
 70
     0
  9
$PDSIZE
 40
0.0
  9
$PLINEWID
 40
0.0
  9
$COORDS
 70
     2
  9
$SPLFRAME
 70
     0
  9
$SPLINETYPE
 70
     6
  9
$SPLINESEGS
 70
     8
  9
$ATTDIA
 70
     0
  9
$ATTREQ
 70
     0
  9
$HANDLING
 70
     1
  9
$HANDSEED
  5
BB
  9
$SURFTAB1
 70
    24
  9
$SURFTAB2
 70
    24
  9
$SURFTYPE
 70
     6
  9
$SURFU
 70
     6
  9
$SURFV
 70
     6
  9
$UCSNAME
  2

  9
$UCSORG
 10
0.0
 20
0.0
 30
0.0
  9
$UCSXDIR
 10
1.0
 20
0.0
 30
0.0
  9
$UCSYDIR
 10
0.0
 20
1.0
 30
0.0
  9
$PUCSNAME
  2

  9
$PUCSORG
 10
0.0
 20
0.0
 30
0.0
  9
$PUCSXDIR
 10
1.0
 20
0.0
 30
0.0
  9
$PUCSYDIR
 10
0.0
 20
1.0
 30
0.0
  9
$USERI1
 70
     0
  9
$USERI2
 70
     0
  9
$USERI3
 70
     0
  9
$USERI4
 70
     0
  9
$USERI5
 70
     0
  9
$USERR1
 40
0.0
  9
$USERR2
 40
0.0
  9
$USERR3
 40
0.0
  9
$USERR4
 40
0.0
  9
$USERR5
 40
0.0
  9
$WORLDVIEW
 70
     1
  9
$SHADEDGE
 70
     0
  9
$SHADEDIF
 70
    70
  9
$TILEMODE
 70
     1
  9
$MAXACTVP
 70
    16
  9
$PLIMCHECK
 70
     0
  9
$PEXTMIN
 10
-0.805942
 20
0.005011
 30
0.0
  9
$PEXTMAX
 10
20.250094
 20
11.356329
 30
0.0
  9
$PLIMMIN
 10
0.0
 20
0.0
  9
$PLIMMAX
 10
12.0
 20
9.0
  9
$UNITMODE
 70
     0
  9
$VISRETAIN
 70
     0
  9
$PLINEGEN
 70
     0
  9
$PSLTSCALE
 70
     0
  0
ENDSEC
  0
SECTION
  2
TABLES
  0
TABLE
  2
VPORT
 70
     2
  0
VPORT
  2
*ACTIVE
 70
     0
 10
0.0
 20
0.0
 11
1.0
 21
1.0
 12
-22.914937
 22
-206.047737
 13
0.0
 23
0.0
 14
1.0
 24
1.0
 15
50.0
 25
50.0
 16
0.0
 26
0.0
 36
1.0
 17
0.0
 27
0.0
 37
0.0
 40
604.04968
 41
1.911765
 42
50.0
 43
0.0
 44
0.0
 50
0.0
 51
0.0
 71
     0
 72
   100
 73
     1
 74
     1
 75
     0
 76
     0
 77
     0
 78
     0
  0
ENDTAB
  0
TABLE
  2
LTYPE
 70
     2
  0
LTYPE
  2
CONTINUOUS
 70
     0
  3
Solid Line
 72
    65
 73
     0
 40
0.0
  0
LTYPE
  2
31
 70
     0
  3

 72
    65
 73
     4
 40
2.1
 49
1.5
 49
-0.3
 49
0.0
 49
-0.3
  0
ENDTAB
  0
TABLE
  2
LAYER
 70
    10
  0
LAYER
  2
0
 70
     0
 62
     7
  6
CONTINUOUS
  0
LAYER
  2
DEFPOINTS
 70
     0
 62
     7
  6
CONTINUOUS
  0
LAYER
  2
TEAM-BODY
 70
     0
 62
     2
  6
CONTINUOUS
  0
LAYER
  2
TEAM-AXE
 70
     0
 62
    10
  6
31
  0
LAYER
  2
TEAM-MAS
 70
     0
 62
     9
  6
CONTINUOUS
  0
LAYER
  2
TEAM-TXT
 70
     0
 62
    11
  6
CONTINUOUS
  0
LAYER
  2
TEAM-DET1
 70
     0
 62
     4
  6
CONTINUOUS
  0
LAYER
  2
TEAM-COLD
 70
     0
 62
     3
  6
CONTINUOUS
  0
LAYER
  2
TEAM-WARM
 70
     0
 62
     1
  6
CONTINUOUS
  0
LAYER
  2
TEAM-INSP
 70
     0
 62
     5
  6
CONTINUOUS
  0
ENDTAB
  0
TABLE
  2
STYLE
 70
     2
  0
STYLE
  2
STANDARD
 70
     0
 40
0.0
 41
1.0
 50
0.0
 71
     0
 42
200.0
  3
txt
  4

  0
STYLE
  2
TEAM
 70
     0
 40
0.0
 41
0.8
 50
15.0
 71
     0
 42
7.0
  3
ROMANS.shx
  4

  0
ENDTAB
  0
TABLE
  2
VIEW
 70
     0
  0
ENDTAB
  0
TABLE
  2
UCS
 70
     0
  0
ENDTAB
  0
TABLE
  2
APPID
 70
     1
  0
APPID
  2
ACAD
 70
     0
  0
ENDTAB
  0
TABLE
  2
DIMSTYLE
 70
     1
  0
DIMSTYLE
  2
TEAM
 70
     0
  3

  4

  5

  6

  7

 40
0.0
 41
20.0
 42
10.0
 43
1.0
 44
1.0
 45
0.0
 46
0.0
 47
0.0
 48
0.0
140
35.0
141
1.0
142
0.0
143
25.4
144
1.0
145
0.0
146
1.0
147
7.0
 71
     0
 72
     0
 73
     0
 74
     0
 75
     0
 76
     0
 77
     0
 78
     0
170
     0
171
     2
172
     0
173
     0
174
     0
175
     0
176
     9
177
     9
178
    11
  0
ENDTAB
  0
ENDSEC
  0
SECTION
  2
BLOCKS
  0
BLOCK
  8
0
  2
$MODEL_SPACE
 70
     0
 10
0.0
 20
0.0
 30
0.0
  3
$MODEL_SPACE
  1

  0
ENDBLK
  5
B4
  8
0
  0
BLOCK
 67
     1
  8
0
  2
$PAPER_SPACE
 70
     0
 10
0.0
 20
0.0
 30
0.0
  3
$PAPER_SPACE
  1

  0
ENDBLK
  5
B2
 67
     1
  8
0
  0
BLOCK
  8
0
  2
*D0
 70
     1
 10
0.0
 20
0.0
 30
0.0
  3
*D0
  1

  0
LINE
  5
3F
  8
0
  6
BYBLOCK
 62
     9
 10
8350.0
 20
164010.0
 30
0.0
 11
8350.0
 21
164077.583906
 31
0.0
  0
LINE
  5
40
  8
0
  6
BYBLOCK
 62
     9
 10
7650.0
 20
164010.0
 30
0.0
 11
7650.0
 21
164077.583906
 31
0.0
  0
LINE
  5
41
  8
0
  6
BYBLOCK
 62
     9
 10
8330.0
 20
164076.583906
 30
0.0
 11
8047.833333
 21
164076.583906
 31
0.0
  0
LINE
  5
42
  8
0
  6
BYBLOCK
 62
     9
 10
7670.0
 20
164076.583906
 30
0.0
 11
7952.166667
 21
164076.583906
 31
0.0
  0
SOLID
  5
43
  8
0
  6
BYBLOCK
 62
     9
 10
8330.0
 20
164079.917239
 30
0.0
 11
8330.0
 21
164073.250572
 31
0.0
 12
8350.0
 22
164076.583906
 32
0.0
 13
8350.0
 23
164076.583906
 33
0.0
  0
SOLID
  5
44
  8
0
  6
BYBLOCK
 62
     9
 10
7670.0
 20
164079.917239
 30
0.0
 11
7670.0
 21
164073.250572
 31
0.0
 12
7650.0
 22
164076.583906
 32
0.0
 13
7650.0
 23
164076.583906
 33
0.0
  0
TEXT
  5
45
  8
0
  6
BYBLOCK
 62
    11
 10
7959.166667
 20
164059.083906
 30
0.0
 40
35.0
  1
700
  0
POINT
  5
46
  8
DEFPOINTS
  6
BYBLOCK
 62
     0
 10
8350.0
 20
164000.0
 30
0.0
  0
POINT
  5
47
  8
DEFPOINTS
  6
BYBLOCK
 62
     0
 10
7650.0
 20
164000.0
 30
0.0
  0
POINT
  5
48
  8
DEFPOINTS
  6
BYBLOCK
 62
     0
 10
7650.0
 20
164076.583906
 30
0.0
  0
ENDBLK
  5
4A
  8
0
  0
BLOCK
  8
0
  2
*D1
 70
     1
 10
0.0
 20
0.0
 30
0.0
  3
*D1
  1

  0
LINE
  5
31
  8
0
  6
BYBLOCK
 62
     9
 10
7640.0
 20
164000.0
 30
0.0
 11
7609.50122
 21
164000.0
 31
0.0
  0
LINE
  5
32
  8
0
  6
BYBLOCK
 62
     9
 10
7693.846154
 20
163505.0
 30
0.0
 11
7609.50122
 21
163505.0
 31
0.0
  0
LINE
  5
33
  8
0
  6
BYBLOCK
 62
     9
 10
7610.50122
 20
163980.0
 30
0.0
 11
7610.50122
 21
163806.166667
 31
0.0
  0
LINE
  5
34
  8
0
  6
BYBLOCK
 62
     9
 10
7610.50122
 20
163525.0
 30
0.0
 11
7610.50122
 21
163698.833333
 31
0.0
  0
SOLID
  5
35
  8
0
  6
BYBLOCK
 62
     9
 10
7607.167886
 20
163980.0
 30
0.0
 11
7613.834553
 21
163980.0
 31
0.0
 12
7610.50122
 22
164000.0
 32
0.0
 13
7610.50122
 23
164000.0
 33
0.0
  0
SOLID
  5
36
  8
0
  6
BYBLOCK
 62
     9
 10
7607.167886
 20
163525.0
 30
0.0
 11
7613.834553
 21
163525.0
 31
0.0
 12
7610.50122
 22
163505.0
 32
0.0
 13
7610.50122
 23
163505.0
 33
0.0
  0
TEXT
  5
37
  8
0
  6
BYBLOCK
 62
    11
 10
7628.00122
 20
163705.833333
 30
0.0
 40
35.0
  1
495
 50
90.0
  0
POINT
  5
38
  8
DEFPOINTS
  6
BYBLOCK
 62
     0
 10
7650.0
 20
164000.0
 30
0.0
  0
POINT
  5
39
  8
DEFPOINTS
  6
BYBLOCK
 62
     0
 10
7703.846154
 20
163505.0
 30
0.0
  0
POINT
  5
3A
  8
DEFPOINTS
  6
BYBLOCK
 62
     0
 10
7610.50122
 20
163505.0
 30
0.0
  0
ENDBLK
  5
3C
  8
0
  0
BLOCK
  8
0
  2
*D2
 70
     1
 10
0.0
 20
0.0
 30
0.0
  3
*D2
  1

  0
LINE
  5
22
  8
0
  6
BYBLOCK
 62
     9
 10
8350.0
 20
164010.0
 30
0.0
 11
8350.0
 21
164038.306132
 31
0.0
  0
LINE
  5
23
  8
0
  6
BYBLOCK
 62
     9
 10
8000.0
 20
163930.0
 30
0.0
 11
8000.0
 21
164038.306132
 31
0.0
  0
LINE
  5
24
  8
0
  6
BYBLOCK
 62
     9
 10
8330.0
 20
164037.306132
 30
0.0
 11
8225.75
 21
164037.306132
 31
0.0
  0
LINE
  5
25
  8
0
  6
BYBLOCK
 62
     9
 10
8020.0
 20
164037.306132
 30
0.0
 11
8124.25
 21
164037.306132
 31
0.0
  0
SOLID
  5
26
  8
0
  6
BYBLOCK
 62
     9
 10
8330.0
 20
164040.639465
 30
0.0
 11
8330.0
 21
164033.972799
 31
0.0
 12
8350.0
 22
164037.306132
 32
0.0
 13
8350.0
 23
164037.306132
 33
0.0
  0
SOLID
  5
27
  8
0
  6
BYBLOCK
 62
     9
 10
8020.0
 20
164040.639465
 30
0.0
 11
8020.0
 21
164033.972799
 31
0.0
 12
8000.0
 22
164037.306132
 32
0.0
 13
8000.0
 23
164037.306132
 33
0.0
  0
TEXT
  5
28
  8
0
  6
BYBLOCK
 62
    11
 10
8131.25
 20
164019.806132
 30
0.0
 40
35.0
  1
350
  0
POINT
  5
29
  8
DEFPOINTS
  6
BYBLOCK
 62
     0
 10
8350.0
 20
164000.0
 30
0.0
  0
POINT
  5
2B
  8
DEFPOINTS
  6
BYBLOCK
 62
     0
 10
8000.0
 20
163920.0
 30
0.0
  0
POINT
  5
2C
  8
DEFPOINTS
  6
BYBLOCK
 62
     0
 10
8000.0
 20
164037.306132
 30
0.0
  0
ENDBLK
  5
2E
  8
0
  0
ENDSEC
  0
SECTION
  2
ENTITIES
  0
DIMENSION
  5
20
  8
TEAM-MAS
  2
*D2
 10
0.0
 20
37.306132
 30
0.0
 11
175.0
 21
37.306132
 31
0.0
 12
-8000.0
 22
-164000.0
 32
0.0
 13
350.0
 23
0.0
 33
0.0
 14
0.0
 24
-80.0
 34
0.0
1001
ACAD
1000
DSTYLE
1002
{
1070
    40
1040
1.0
1002
}
  0
DIMENSION
  5
2F
  8
TEAM-MAS
  2
*D1
 10
-389.49878
 20
-495.0
 30
0.0
 11
-389.49878
 21
-247.5
 31
0.0
 12
-8000.0
 22
-164000.0
 32
0.0
 13
-350.0
 23
0.0
 33
0.0
 14
-296.153846
 24
-495.0
 34
0.0
 50
270.0
1001
ACAD
1000
DSTYLE
1002
{
1070
    40
1040
1.0
1002
}
  0
DIMENSION
  5
3D
  8
TEAM-MAS
  2
*D0
 10
-350.0
 20
76.583906
 30
0.0
 11
0.0
 21
76.583906
 31
0.0
 12
-8000.0
 22
-164000.0
 32
0.0
 13
350.0
 23
0.0
 33
0.0
 14
-350.0
 24
0.0
 34
0.0
1001
ACAD
1000
DSTYLE
1002
{
1070
    40
1040
1.0
1002
}
  0
LINE
  5
4B
  8
TEAM-AXE
 10
96.5
 20
0.0
 30
0.0
 11
56.5
 21
0.0
 31
0.0
  0
LINE
  5
4E
  8
TEAM-AXE
 10
-76.5
 20
-20.0
 30
0.0
 11
-76.5
 21
20.0
 31
0.0
  0
LINE
  5
4F
  8
TEAM-AXE
 10
76.5
 20
-20.0
 30
0.0
 11
76.5
 21
20.0
 31
0.0
  0
CIRCLE
  5
50
  8
TEAM-COLD
 10
76.5
 20
0.0
 30
0.0
 40
15.0
  0
CIRCLE
  5
52
  8
TEAM-INSP
 10
0.0
 20
0.0
 30
0.0
 40
10.0
  0
LINE
  5
54
  8
TEAM-DET1
 10
94.700356
 20
-80.769231
 30
0.0
 11
328.461538
 21
-80.769231
 31
0.0
  0
ARC
  5
56
  8
TEAM-BODY
 10
0.0
 20
-64.615385
 30
0.0
 40
48.461538
 50
117.266044
 51
142.694799
  0
ARC
  5
58
  8
TEAM-BODY
 10
94.700356
 20
-64.615385
 30
0.0
 40
32.307692
 50
214.925351
 51
270.0
  0
LINE
  5
59
  8
TEAM-BODY
 10
-38.547203
 20
-35.244755
 30
0.0
 11
-68.211323
 21
-83.11182
 31
0.0
  0
LINE
  5
5A
  8
TEAM-BODY
 10
38.547203
 20
-35.244755
 30
0.0
 11
68.211323
 21
-83.11182
 31
0.0
  0
ARC
  5
5B
  8
TEAM-BODY
 10
0.0
 20
-64.615385
 30
0.0
 40
48.461538
 50
37.305201
 51
62.733956
  0
LINE
  5
5C
  8
TEAM-AXE
 10
-33.384615
 20
-86.153846
 30
0.0
 11
33.384615
 21
-86.153846
 31
0.0
  0
LINE
  5
5D
  8
TEAM-AXE
 10
0.0
 20
-119.538462
 30
0.0
 11
0.0
 21
-52.769231
 31
0.0
  0
CIRCLE
  5
5E
  8
TEAM-BODY
 10
0.0
 20
-86.153846
 30
0.0
 40
28.0
  0
CIRCLE
  5
5F
  8
TEAM-DET1
 10
0.0
 20
-86.153846
 30
0.0
 40
22.615385
  0
LINE
  5
60
  8
TEAM-DET1
 10
328.461538
 20
-21.538462
 30
0.0
 11
328.461538
 21
-80.769231
 31
0.0
  0
ARC
  5
61
  8
TEAM-BODY
 10
242.427218
 20
-150.769231
 30
0.0
 40
53.846154
 50
3.814075
 51
90.0
  0
LINE
  5
62
  8
TEAM-BODY
 10
296.154111
 20
-147.187438
 30
0.0
 11
321.181702
 21
-427.400768
 31
0.0
  0
LINE
  5
63
  8
TEAM-BODY
 10
350.0
 20
0.0
 30
0.0
 11
350.0
 21
-441.153846
 31
0.0
  0
ARC
  5
64
  8
TEAM-BODY
 10
289.012094
 20
-430.384615
 30
0.0
 40
32.307692
 50
270.0
 51
5.299229
  0
ARC
  5
65
  8
TEAM-BODY
 10
296.153846
 20
-441.153846
 30
0.0
 40
53.846154
 50
270.0
 51
0.0
  0
TEXT
  5
66
  8
TEAM-TXT
 10
-29.225113
 20
-409.431248
 30
0.0
 40
32.307692
  1
team 431202 
 41
0.8
 51
15.0
  7
TEAM
  0
LINE
  5
69
  8
TEAM-BODY
 10
94.700356
 20
-96.923077
 30
0.0
 11
243.251975
 21
-96.923077
 31
0.0
  0
LINE
  5
6A
  8
TEAM-DET1
 10
263.172675
 20
-115.143836
 30
0.0
 11
289.58966
 21
-410.913066
 31
0.0
  0
ARC
  5
6B
  8
TEAM-DET1
 10
269.66896
 20
-412.692308
 30
0.0
 40
20.0
 50
270.0
 51
5.103898
  0
ARC
  5
6C
  8
TEAM-DET1
 10
243.251975
 20
-116.923077
 30
0.0
 40
20.0
 50
5.103898
 51
90.0
  0
LINE
  5
6D
  8
TEAM-DET1
 10
-328.461538
 20
-80.769231
 30
0.0
 11
-328.461538
 21
-21.538462
 31
0.0
  0
LINE
  5
6E
  8
TEAM-DET1
 10
-328.461538
 20
-80.769231
 30
0.0
 11
-94.700356
 21
-80.769231
 31
0.0
  0
ARC
  5
6F
  8
TEAM-BODY
 10
-242.427218
 20
-150.769231
 30
0.0
 40
53.846154
 50
90.0
 51
176.185925
  0
LINE
  5
70
  8
TEAM-BODY
 10
-321.181702
 20
-427.400768
 30
0.0
 11
-296.154111
 21
-147.187438
 31
0.0
  0
LINE
  5
71
  8
TEAM-BODY
 10
-350.0
 20
-441.153846
 30
0.0
 11
-350.0
 21
0.0
 31
0.0
  0
ARC
  5
72
  8
TEAM-BODY
 10
-289.012094
 20
-430.384615
 30
0.0
 40
32.307692
 50
174.700771
 51
270.0
  0
ARC
  5
73
  8
TEAM-BODY
 10
-296.153846
 20
-441.153846
 30
0.0
 40
53.846154
 50
180.0
 51
270.0
  0
LINE
  5
74
  8
TEAM-BODY
 10
-243.251975
 20
-96.923077
 30
0.0
 11
-94.700356
 21
-96.923077
 31
0.0
  0
LINE
  5
75
  8
TEAM-DET1
 10
-289.58966
 20
-410.913066
 30
0.0
 11
-263.172675
 21
-115.143836
 31
0.0
  0
ARC
  5
76
  8
TEAM-DET1
 10
-269.66896
 20
-412.692308
 30
0.0
 40
20.0
 50
174.896102
 51
270.0
  0
ARC
  5
77
  8
TEAM-DET1
 10
-243.251975
 20
-116.923077
 30
0.0
 40
20.0
 50
90.0
 51
174.896102
  0
LINE
  5
78
  8
TEAM-AXE
 10
-56.5
 20
0.0
 30
0.0
 11
-96.5
 21
0.0
 31
0.0
  0
CIRCLE
  5
79
  8
TEAM-WARM
 10
-76.5
 20
0.0
 30
0.0
 40
15.0
  0
LINE
  5
7B
  8
TEAM-BODY
 10
-350.0
 20
0.0
 30
0.0
 11
350.0
 21
0.0
 31
0.0
  0
LINE
  5
7C
  8
TEAM-BODY
 10
-350.0
 20
-21.538462
 30
0.0
 11
350.0
 21
-21.538462
 31
0.0
  0
ARC
  5
7D
  8
TEAM-BODY
 10
-94.700356
 20
-64.615385
 30
0.0
 40
32.307692
 50
270.0
 51
325.074649
  0
LINE
  5
7E
  8
TEAM-BODY
 10
296.153846
 20
-495.0
 30
0.0
 11
-296.153846
 21
-495.0
 31
0.0
  0
LINE
  5
7F
  8
TEAM-BODY
 10
289.012094
 20
-462.692308
 30
0.0
 11
-289.012094
 21
-462.692308
 31
0.0
  0
LINE
  5
80
  8
TEAM-DET1
 10
269.66896
 20
-432.692308
 30
0.0
 11
-269.66896
 21
-432.692308
 31
0.0
  0
ENDSEC
  0
EOF
