  0
SECTION
  2
HEADER
  9
$ACADVER
  1
AC1009
  9
$INSBASE
 10
0.0
 20
0.0
 30
0.0
  9
$EXTMIN
 10
-350.023804
 20
-10.068496
 30
-0.000006
  9
$EXTMAX
 10
647.228984
 20
1120.02466
 30
0.0
  9
$LIMMIN
 10
-350.023804
 20
-10.068496
  9
$LIMMAX
 10
647.228984
 20
1120.02466
  9
$ORTHOMODE
 70
     1
  9
$REGENMODE
 70
     1
  9
$FILLMODE
 70
     1
  9
$QTEXTMODE
 70
     0
  9
$MIRRTEXT
 70
     0
  9
$DRAGMODE
 70
     2
  9
$LTSCALE
 40
50.0
  9
$OSMODE
 70
     0
  9
$ATTMODE
 70
     1
  9
$TEXTSIZE
 40
200.0
  9
$TRACEWID
 40
1.0
  9
$TEXTSTYLE
  7
STANDARD
  9
$CLAYER
  8
TEAM-MAS
  9
$CELTYPE
  6
BYLAYER
  9
$CECOLOR
 62
   256
  9
$DIMSCALE
 40
1.0
  9
$DIMASZ
 40
20.0
  9
$DIMEXO
 40
10.0
  9
$DIMDLI
 40
1.0
  9
$DIMRND
 40
0.0
  9
$DIMDLE
 40
0.0
  9
$DIMEXE
 40
1.0
  9
$DIMTP
 40
0.0
  9
$DIMTM
 40
0.0
  9
$DIMTXT
 40
35.0
  9
$DIMCEN
 40
1.0
  9
$DIMTSZ
 40
0.0
  9
$DIMTOL
 70
     0
  9
$DIMLIM
 70
     0
  9
$DIMTIH
 70
     0
  9
$DIMTOH
 70
     0
  9
$DIMSE1
 70
     0
  9
$DIMSE2
 70
     0
  9
$DIMTAD
 70
     0
  9
$DIMZIN
 70
     0
  9
$DIMBLK
  1

  9
$DIMASO
 70
     1
  9
$DIMSHO
 70
     0
  9
$DIMPOST
  1

  9
$DIMAPOST
  1

  9
$DIMALT
 70
     0
  9
$DIMALTD
 70
     2
  9
$DIMALTF
 40
25.4
  9
$DIMLFAC
 40
1.0
  9
$DIMTOFL
 70
     0
  9
$DIMTVP
 40
0.0
  9
$DIMTIX
 70
     0
  9
$DIMSOXD
 70
     0
  9
$DIMSAH
 70
     0
  9
$DIMBLK1
  1

  9
$DIMBLK2
  1

  9
$DIMSTYLE
  2
TEAM
  9
$DIMCLRD
 70
     9
  9
$DIMCLRE
 70
     9
  9
$DIMCLRT
 70
    11
  9
$DIMTFAC
 40
1.0
  9
$DIMGAP
 40
7.0
  9
$LUNITS
 70
     2
  9
$LUPREC
 70
     1
  9
$SKETCHINC
 40
1.0
  9
$FILLETRAD
 40
80.0
  9
$AUNITS
 70
     0
  9
$AUPREC
 70
     0
  9
$MENU
  1
ROPLANS
  9
$ELEVATION
 40
0.0
  9
$PELEVATION
 40
0.0
  9
$THICKNESS
 40
0.0
  9
$LIMCHECK
 70
     0
  9
$BLIPMODE
 70
     1
  9
$CHAMFERA
 40
0.0
  9
$CHAMFERB
 40
0.0
  9
$SKPOLY
 70
     0
  9
$TDCREATE
 40
2450392.957851
  9
$TDUPDATE
 40
2456168.939903
  9
$TDINDWG
 40
3.141088
  9
$TDUSRTIMER
 40
3.141088
  9
$USRTIMER
 70
     1
  9
$ANGBASE
 50
0.0
  9
$ANGDIR
 70
     0
  9
$PDMODE
 70
     0
  9
$PDSIZE
 40
0.0
  9
$PLINEWID
 40
0.0
  9
$COORDS
 70
     2
  9
$SPLFRAME
 70
     0
  9
$SPLINETYPE
 70
     6
  9
$SPLINESEGS
 70
     8
  9
$ATTDIA
 70
     0
  9
$ATTREQ
 70
     0
  9
$HANDLING
 70
     1
  9
$HANDSEED
  5
135
  9
$SURFTAB1
 70
    64
  9
$SURFTAB2
 70
    64
  9
$SURFTYPE
 70
     6
  9
$SURFU
 70
     6
  9
$SURFV
 70
     6
  9
$UCSNAME
  2

  9
$UCSORG
 10
0.0
 20
0.0
 30
0.0
  9
$UCSXDIR
 10
1.0
 20
0.0
 30
0.0
  9
$UCSYDIR
 10
0.0
 20
1.0
 30
0.0
  9
$PUCSNAME
  2

  9
$PUCSORG
 10
0.0
 20
0.0
 30
0.0
  9
$PUCSXDIR
 10
1.0
 20
0.0
 30
0.0
  9
$PUCSYDIR
 10
0.0
 20
1.0
 30
0.0
  9
$USERI1
 70
     0
  9
$USERI2
 70
     0
  9
$USERI3
 70
     0
  9
$USERI4
 70
     0
  9
$USERI5
 70
     0
  9
$USERR1
 40
0.0
  9
$USERR2
 40
0.0
  9
$USERR3
 40
0.0
  9
$USERR4
 40
0.0
  9
$USERR5
 40
0.0
  9
$WORLDVIEW
 70
     1
  9
$SHADEDGE
 70
     0
  9
$SHADEDIF
 70
    70
  9
$TILEMODE
 70
     1
  9
$MAXACTVP
 70
    16
  9
$PLIMCHECK
 70
     0
  9
$PEXTMIN
 10
-0.805942
 20
0.005011
 30
0.0
  9
$PEXTMAX
 10
20.250094
 20
11.356329
 30
0.0
  9
$PLIMMIN
 10
0.0
 20
0.0
  9
$PLIMMAX
 10
12.0
 20
9.0
  9
$UNITMODE
 70
     0
  9
$VISRETAIN
 70
     0
  9
$PLINEGEN
 70
     0
  9
$PSLTSCALE
 70
     0
  0
ENDSEC
  0
SECTION
  2
TABLES
  0
TABLE
  2
VPORT
 70
     2
  0
VPORT
  2
*ACTIVE
 70
     0
 10
0.0
 20
0.0
 11
1.0
 21
1.0
 12
148.60259
 22
554.978082
 13
0.0
 23
0.0
 14
1.0
 24
1.0
 15
50.0
 25
50.0
 16
0.0
 26
0.0
 36
1.0
 17
0.0
 27
0.0
 37
0.0
 40
1137.208118
 41
1.911765
 42
50.0
 43
0.0
 44
0.0
 50
0.0
 51
0.0
 71
     0
 72
   100
 73
     1
 74
     1
 75
     0
 76
     0
 77
     0
 78
     0
  0
ENDTAB
  0
TABLE
  2
LTYPE
 70
     3
  0
LTYPE
  2
CONTINUOUS
 70
     0
  3
Solid Line
 72
    65
 73
     0
 40
0.0
  0
LTYPE
  2
31
 70
     0
  3

 72
    65
 73
     4
 40
2.1
 49
1.5
 49
-0.3
 49
0.0
 49
-0.3
  0
LTYPE
  2
22
 70
     0
  3

 72
    65
 73
     2
 40
1.4
 49
1.2
 49
-0.2
  0
ENDTAB
  0
TABLE
  2
LAYER
 70
    11
  0
LAYER
  2
0
 70
     0
 62
     7
  6
CONTINUOUS
  0
LAYER
  2
DEFPOINTS
 70
     0
 62
     7
  6
CONTINUOUS
  0
LAYER
  2
TEAM-BODY
 70
     0
 62
     2
  6
CONTINUOUS
  0
LAYER
  2
TEAM-AXE
 70
     0
 62
    10
  6
31
  0
LAYER
  2
TEAM-MAS
 70
     0
 62
     9
  6
CONTINUOUS
  0
LAYER
  2
TEAM-TXT
 70
     0
 62
    11
  6
CONTINUOUS
  0
LAYER
  2
TEAM-COLD
 70
     0
 62
     3
  6
CONTINUOUS
  0
LAYER
  2
TEAM-HIDE
 70
     0
 62
     8
  6
22
  0
LAYER
  2
TEAM-KAN
 70
     0
 62
     6
  6
CONTINUOUS
  0
LAYER
  2
TEAM-WARM
 70
     0
 62
     1
  6
CONTINUOUS
  0
LAYER
  2
TEAM-INSP
 70
     0
 62
     5
  6
CONTINUOUS
  0
ENDTAB
  0
TABLE
  2
STYLE
 70
     2
  0
STYLE
  2
STANDARD
 70
     0
 40
0.0
 41
1.0
 50
0.0
 71
     0
 42
200.0
  3
txt
  4

  0
STYLE
  2
TEAM
 70
     0
 40
0.0
 41
0.8
 50
15.0
 71
     0
 42
7.0
  3
ROMANS.shx
  4

  0
ENDTAB
  0
TABLE
  2
VIEW
 70
     0
  0
ENDTAB
  0
TABLE
  2
UCS
 70
     0
  0
ENDTAB
  0
TABLE
  2
APPID
 70
     1
  0
APPID
  2
ACAD
 70
     0
  0
ENDTAB
  0
TABLE
  2
DIMSTYLE
 70
     1
  0
DIMSTYLE
  2
TEAM
 70
     0
  3

  4

  5

  6

  7

 40
1.0
 41
20.0
 42
10.0
 43
1.0
 44
1.0
 45
0.0
 46
0.0
 47
0.0
 48
0.0
140
35.0
141
1.0
142
0.0
143
25.4
144
1.0
145
0.0
146
1.0
147
7.0
 71
     0
 72
     0
 73
     0
 74
     0
 75
     0
 76
     0
 77
     0
 78
     0
170
     0
171
     2
172
     0
173
     0
174
     0
175
     0
176
     9
177
     9
178
    11
  0
ENDTAB
  0
ENDSEC
  0
SECTION
  2
BLOCKS
  0
BLOCK
  8
0
  2
$MODEL_SPACE
 70
     0
 10
0.0
 20
0.0
 30
0.0
  3
$MODEL_SPACE
  1

  0
ENDBLK
  5
12E
  8
0
  0
BLOCK
 67
     1
  8
0
  2
$PAPER_SPACE
 70
     0
 10
0.0
 20
0.0
 30
0.0
  3
$PAPER_SPACE
  1

  0
ENDBLK
  5
12C
 67
     1
  8
0
  0
BLOCK
  8
0
  2
*D0
 70
     1
 10
0.0
 20
0.0
 30
0.0
  3
*D0
  1

  0
LINE
  5
B1
  8
0
  6
BYBLOCK
 62
     9
 10
11700.0
 20
64795.18624
 30
0.0
 11
11700.0
 21
64915.765241
 31
0.0
  0
LINE
  5
B2
  8
0
  6
BYBLOCK
 62
     9
 10
12300.0
 20
64795.18624
 30
0.0
 11
12300.0
 21
64915.765241
 31
0.0
  0
LINE
  5
B3
  8
0
  6
BYBLOCK
 62
     9
 10
11720.0
 20
64914.765241
 30
0.0
 11
11952.166667
 21
64914.765241
 31
0.0
  0
LINE
  5
B4
  8
0
  6
BYBLOCK
 62
     9
 10
12280.0
 20
64914.765241
 30
0.0
 11
12047.833333
 21
64914.765241
 31
0.0
  0
SOLID
  5
B5
  8
0
  6
BYBLOCK
 62
     9
 10
11720.0
 20
64918.098574
 30
0.0
 11
11720.0
 21
64911.431908
 31
0.0
 12
11700.0
 22
64914.765241
 32
0.0
 13
11700.0
 23
64914.765241
 33
0.0
  0
SOLID
  5
B6
  8
0
  6
BYBLOCK
 62
     9
 10
12280.0
 20
64918.098574
 30
0.0
 11
12280.0
 21
64911.431908
 31
0.0
 12
12300.0
 22
64914.765241
 32
0.0
 13
12300.0
 23
64914.765241
 33
0.0
  0
TEXT
  5
B7
  8
0
  6
BYBLOCK
 62
    11
 10
11959.166667
 20
64897.265241
 30
0.0
 40
35.0
  1
600
  0
POINT
  5
B8
  8
DEFPOINTS
  6
BYBLOCK
 62
     0
 10
11700.0
 20
64785.18624
 30
0.0
  0
POINT
  5
B9
  8
DEFPOINTS
  6
BYBLOCK
 62
     0
 10
12300.0
 20
64785.18624
 30
0.0
  0
POINT
  5
BA
  8
DEFPOINTS
  6
BYBLOCK
 62
     0
 10
12300.0
 20
64914.765241
 30
0.0
  0
ENDBLK
  5
BC
  8
0
  0
BLOCK
  8
0
  2
*D1
 70
     1
 10
0.0
 20
0.0
 30
0.0
  3
*D1
  1

  0
LINE
  5
A3
  8
0
  6
BYBLOCK
 62
     9
 10
11650.0
 20
64810.0
 30
0.0
 11
11650.0
 21
64960.820951
 31
0.0
  0
LINE
  5
A4
  8
0
  6
BYBLOCK
 62
     9
 10
12350.0
 20
64810.0
 30
0.0
 11
12350.0
 21
64960.820951
 31
0.0
  0
LINE
  5
A5
  8
0
  6
BYBLOCK
 62
     9
 10
11670.0
 20
64959.820951
 30
0.0
 11
11952.166667
 21
64959.820951
 31
0.0
  0
LINE
  5
A6
  8
0
  6
BYBLOCK
 62
     9
 10
12330.0
 20
64959.820951
 30
0.0
 11
12047.833333
 21
64959.820951
 31
0.0
  0
SOLID
  5
A7
  8
0
  6
BYBLOCK
 62
     9
 10
11670.0
 20
64963.154285
 30
0.0
 11
11670.0
 21
64956.487618
 31
0.0
 12
11650.0
 22
64959.820951
 32
0.0
 13
11650.0
 23
64959.820951
 33
0.0
  0
SOLID
  5
A8
  8
0
  6
BYBLOCK
 62
     9
 10
12330.0
 20
64963.154285
 30
0.0
 11
12330.0
 21
64956.487618
 31
0.0
 12
12350.0
 22
64959.820951
 32
0.0
 13
12350.0
 23
64959.820951
 33
0.0
  0
TEXT
  5
A9
  8
0
  6
BYBLOCK
 62
    11
 10
11959.166667
 20
64942.320951
 30
0.0
 40
35.0
  1
700
  0
POINT
  5
AA
  8
DEFPOINTS
  6
BYBLOCK
 62
     0
 10
11650.0
 20
64800.0
 30
0.0
  0
POINT
  5
AB
  8
DEFPOINTS
  6
BYBLOCK
 62
     0
 10
12350.0
 20
64800.0
 30
0.0
  0
POINT
  5
AC
  8
DEFPOINTS
  6
BYBLOCK
 62
     0
 10
12350.0
 20
64959.820951
 30
0.0
  0
ENDBLK
  5
AE
  8
0
  0
BLOCK
  8
0
  2
*D2
 70
     1
 10
0.0
 20
0.0
 30
0.0
  3
*D2
  1

  0
LINE
  5
95
  8
0
  6
BYBLOCK
 62
     9
 10
11923.5
 20
65090.0
 30
0.0
 11
11923.5
 21
65009.847841
 31
0.0
  0
LINE
  5
96
  8
0
  6
BYBLOCK
 62
     9
 10
12076.5
 20
65090.0
 30
0.0
 11
12076.5
 21
65009.847841
 31
0.0
  0
LINE
  5
97
  8
0
  6
BYBLOCK
 62
     9
 10
11943.5
 20
65010.847841
 30
0.0
 11
11952.166667
 21
65010.847841
 31
0.0
  0
LINE
  5
98
  8
0
  6
BYBLOCK
 62
     9
 10
12056.5
 20
65010.847841
 30
0.0
 11
12047.833333
 21
65010.847841
 31
0.0
  0
TEXT
  5
99
  8
0
  6
BYBLOCK
 62
    11
 10
11959.166667
 20
64993.347841
 30
0.0
 40
35.0
  1
153
  0
SOLID
  5
9A
  8
0
  6
BYBLOCK
 62
     9
 10
11943.5
 20
65014.181175
 30
0.0
 11
11943.5
 21
65007.514508
 31
0.0
 12
11923.5
 22
65010.847841
 32
0.0
 13
11923.5
 23
65010.847841
 33
0.0
  0
SOLID
  5
9B
  8
0
  6
BYBLOCK
 62
     9
 10
12056.5
 20
65014.181175
 30
0.0
 11
12056.5
 21
65007.514508
 31
0.0
 12
12076.5
 22
65010.847841
 32
0.0
 13
12076.5
 23
65010.847841
 33
0.0
  0
POINT
  5
9C
  8
DEFPOINTS
  6
BYBLOCK
 62
     0
 10
11923.5
 20
65100.0
 30
0.0
  0
POINT
  5
9D
  8
DEFPOINTS
  6
BYBLOCK
 62
     0
 10
12076.5
 20
65100.0
 30
0.0
  0
POINT
  5
9E
  8
DEFPOINTS
  6
BYBLOCK
 62
     0
 10
12076.5
 20
65010.847841
 30
0.0
  0
ENDBLK
  5
A0
  8
0
  0
BLOCK
  8
0
  2
*D3
 70
     1
 10
0.0
 20
0.0
 30
0.0
  3
*D3
  1

  0
LINE
  5
69
  8
0
  6
BYBLOCK
 62
     9
 10
12010.0
 20
64000.0
 30
0.0
 11
12435.565035
 21
64000.0
 31
0.0
  0
LINE
  5
6A
  8
0
  6
BYBLOCK
 62
     9
 10
12090.0
 20
64400.0
 30
0.0
 11
12435.565035
 21
64400.0
 31
0.0
  0
LINE
  5
6B
  8
0
  6
BYBLOCK
 62
     9
 10
12434.565035
 20
64020.0
 30
0.0
 11
12434.565035
 21
64085.083333
 31
0.0
  0
LINE
  5
6C
  8
0
  6
BYBLOCK
 62
     9
 10
12434.565035
 20
64380.0
 30
0.0
 11
12434.565035
 21
64314.916667
 31
0.0
  0
SOLID
  5
6D
  8
0
  6
BYBLOCK
 62
     9
 10
12431.231702
 20
64020.0
 30
0.0
 11
12437.898368
 21
64020.0
 31
0.0
 12
12434.565035
 22
64000.0
 32
0.0
 13
12434.565035
 23
64000.0
 33
0.0
  0
SOLID
  5
6E
  8
0
  6
BYBLOCK
 62
     9
 10
12431.231702
 20
64380.0
 30
0.0
 11
12437.898368
 21
64380.0
 31
0.0
 12
12434.565035
 22
64400.0
 32
0.0
 13
12434.565035
 23
64400.0
 33
0.0
  0
TEXT
  5
6F
  8
0
  6
BYBLOCK
 62
    11
 10
12452.065035
 20
64092.083333
 30
0.0
 40
35.0
  1
300-450
 50
90.0
  0
POINT
  5
70
  8
DEFPOINTS
  6
BYBLOCK
 62
     0
 10
12000.0
 20
64000.0
 30
0.0
  0
POINT
  5
71
  8
DEFPOINTS
  6
BYBLOCK
 62
     0
 10
12080.0
 20
64400.0
 30
0.0
  0
POINT
  5
72
  8
DEFPOINTS
  6
BYBLOCK
 62
     0
 10
12434.565035
 20
64400.0
 30
0.0
  0
ENDBLK
  5
74
  8
0
  0
BLOCK
  8
0
  2
*D4
 70
     1
 10
0.0
 20
0.0
 30
0.0
  3
*D4
  1

  0
LINE
  5
5B
  8
0
  6
BYBLOCK
 62
     9
 10
12010.0
 20
64000.0
 30
0.0
 11
12388.855322
 21
64000.0
 31
0.0
  0
LINE
  5
5C
  8
0
  6
BYBLOCK
 62
     9
 10
12090.0
 20
64400.0
 30
0.0
 11
12388.855322
 21
64400.0
 31
0.0
  0
LINE
  5
5D
  8
0
  6
BYBLOCK
 62
     9
 10
12387.855322
 20
64020.0
 30
0.0
 11
12387.855322
 21
64152.166667
 31
0.0
  0
LINE
  5
5E
  8
0
  6
BYBLOCK
 62
     9
 10
12387.855322
 20
64380.0
 30
0.0
 11
12387.855322
 21
64247.833333
 31
0.0
  0
SOLID
  5
5F
  8
0
  6
BYBLOCK
 62
     9
 10
12384.521988
 20
64020.0
 30
0.0
 11
12391.188655
 21
64020.0
 31
0.0
 12
12387.855322
 22
64000.0
 32
0.0
 13
12387.855322
 23
64000.0
 33
0.0
  0
SOLID
  5
60
  8
0
  6
BYBLOCK
 62
     9
 10
12384.521988
 20
64380.0
 30
0.0
 11
12391.188655
 21
64380.0
 31
0.0
 12
12387.855322
 22
64400.0
 32
0.0
 13
12387.855322
 23
64400.0
 33
0.0
  0
TEXT
  5
61
  8
0
  6
BYBLOCK
 62
    11
 10
12405.355322
 20
64159.166667
 30
0.0
 40
35.0
  1
400
 50
90.0
  0
POINT
  5
62
  8
DEFPOINTS
  6
BYBLOCK
 62
     0
 10
12000.0
 20
64000.0
 30
0.0
  0
POINT
  5
63
  8
DEFPOINTS
  6
BYBLOCK
 62
     0
 10
12080.0
 20
64400.0
 30
0.0
  0
POINT
  5
64
  8
DEFPOINTS
  6
BYBLOCK
 62
     0
 10
12387.855322
 20
64400.0
 30
0.0
  0
ENDBLK
  5
66
  8
0
  0
BLOCK
  8
0
  2
*D5
 70
     1
 10
0.0
 20
0.0
 30
0.0
  3
*D5
  1

  0
LINE
  5
79
  8
0
  6
BYBLOCK
 62
     9
 10
12010.0
 20
64505.0
 30
0.0
 11
12435.565035
 21
64505.0
 31
0.0
  0
LINE
  5
7A
  8
0
  6
BYBLOCK
 62
     9
 10
12360.0
 20
64800.0
 30
0.0
 11
12435.565035
 21
64800.0
 31
0.0
  0
LINE
  5
7B
  8
0
  6
BYBLOCK
 62
     9
 10
12434.565035
 20
64525.0
 30
0.0
 11
12434.565035
 21
64598.833333
 31
0.0
  0
LINE
  5
7C
  8
0
  6
BYBLOCK
 62
     9
 10
12434.565035
 20
64780.0
 30
0.0
 11
12434.565035
 21
64706.166667
 31
0.0
  0
SOLID
  5
7D
  8
0
  6
BYBLOCK
 62
     9
 10
12431.231702
 20
64525.0
 30
0.0
 11
12437.898368
 21
64525.0
 31
0.0
 12
12434.565035
 22
64505.0
 32
0.0
 13
12434.565035
 23
64505.0
 33
0.0
  0
SOLID
  5
7E
  8
0
  6
BYBLOCK
 62
     9
 10
12431.231702
 20
64780.0
 30
0.0
 11
12437.898368
 21
64780.0
 31
0.0
 12
12434.565035
 22
64800.0
 32
0.0
 13
12434.565035
 23
64800.0
 33
0.0
  0
TEXT
  5
7F
  8
0
  6
BYBLOCK
 62
    11
 10
12452.065035
 20
64605.833333
 30
0.0
 40
35.0
  1
295
 50
90.0
  0
POINT
  5
80
  8
DEFPOINTS
  6
BYBLOCK
 62
     0
 10
12000.0
 20
64505.0
 30
0.0
  0
POINT
  5
81
  8
DEFPOINTS
  6
BYBLOCK
 62
     0
 10
12350.0
 20
64800.0
 30
0.0
  0
POINT
  5
82
  8
DEFPOINTS
  6
BYBLOCK
 62
     0
 10
12434.565035
 20
64800.0
 30
0.0
  0
ENDBLK
  5
84
  8
0
  0
BLOCK
  8
0
  2
*D6
 70
     1
 10
0.0
 20
0.0
 30
0.0
  3
*D6
  1

  0
LINE
  5
4D
  8
0
  6
BYBLOCK
 62
     9
 10
12010.0
 20
64000.0
 30
0.0
 11
12630.710064
 21
64000.0
 31
0.0
  0
LINE
  5
4E
  8
0
  6
BYBLOCK
 62
     9
 10
12086.5
 20
65100.0
 30
0.0
 11
12630.710064
 21
65100.0
 31
0.0
  0
LINE
  5
4F
  8
0
  6
BYBLOCK
 62
     9
 10
12629.710064
 20
64020.0
 30
0.0
 11
12629.710064
 21
64417.583333
 31
0.0
  0
LINE
  5
50
  8
0
  6
BYBLOCK
 62
     9
 10
12629.710064
 20
65080.0
 30
0.0
 11
12629.710064
 21
64682.416667
 31
0.0
  0
SOLID
  5
51
  8
0
  6
BYBLOCK
 62
     9
 10
12626.376731
 20
64020.0
 30
0.0
 11
12633.043397
 21
64020.0
 31
0.0
 12
12629.710064
 22
64000.0
 32
0.0
 13
12629.710064
 23
64000.0
 33
0.0
  0
SOLID
  5
52
  8
0
  6
BYBLOCK
 62
     9
 10
12626.376731
 20
65080.0
 30
0.0
 11
12633.043397
 21
65080.0
 31
0.0
 12
12629.710064
 22
65100.0
 32
0.0
 13
12629.710064
 23
65100.0
 33
0.0
  0
TEXT
  5
53
  8
0
  6
BYBLOCK
 62
    11
 10
12647.210064
 20
64424.583333
 30
0.0
 40
35.0
  1
1100-1250
 50
90.0
  0
POINT
  5
54
  8
DEFPOINTS
  6
BYBLOCK
 62
     0
 10
12000.0
 20
64000.0
 30
0.0
  0
POINT
  5
55
  8
DEFPOINTS
  6
BYBLOCK
 62
     0
 10
12076.5
 20
65100.0
 30
0.0
  0
POINT
  5
56
  8
DEFPOINTS
  6
BYBLOCK
 62
     0
 10
12629.710064
 20
65100.0
 30
0.0
  0
ENDBLK
  5
58
  8
0
  0
BLOCK
  8
0
  2
*D7
 70
     1
 10
0.0
 20
0.0
 30
0.0
  3
*D7
  1

  0
LINE
  5
3F
  8
0
  6
BYBLOCK
 62
     9
 10
12010.0
 20
64000.0
 30
0.0
 11
12582.33898
 21
64000.0
 31
0.0
  0
LINE
  5
40
  8
0
  6
BYBLOCK
 62
     9
 10
12086.5
 20
65100.0
 30
0.0
 11
12582.33898
 21
65100.0
 31
0.0
  0
LINE
  5
41
  8
0
  6
BYBLOCK
 62
     9
 10
12581.33898
 20
64020.0
 30
0.0
 11
12581.33898
 21
64496.333333
 31
0.0
  0
LINE
  5
42
  8
0
  6
BYBLOCK
 62
     9
 10
12581.33898
 20
65080.0
 30
0.0
 11
12581.33898
 21
64603.666667
 31
0.0
  0
SOLID
  5
43
  8
0
  6
BYBLOCK
 62
     9
 10
12578.005646
 20
64020.0
 30
0.0
 11
12584.672313
 21
64020.0
 31
0.0
 12
12581.33898
 22
64000.0
 32
0.0
 13
12581.33898
 23
64000.0
 33
0.0
  0
SOLID
  5
44
  8
0
  6
BYBLOCK
 62
     9
 10
12578.005646
 20
65080.0
 30
0.0
 11
12584.672313
 21
65080.0
 31
0.0
 12
12581.33898
 22
65100.0
 32
0.0
 13
12581.33898
 23
65100.0
 33
0.0
  0
TEXT
  5
45
  8
0
  6
BYBLOCK
 62
    11
 10
12598.83898
 20
64503.333333
 30
0.0
 40
35.0
  1
1100
 50
90.0
  0
POINT
  5
46
  8
DEFPOINTS
  6
BYBLOCK
 62
     0
 10
12000.0
 20
64000.0
 30
0.0
  0
POINT
  5
47
  8
DEFPOINTS
  6
BYBLOCK
 62
     0
 10
12076.5
 20
65100.0
 30
0.0
  0
POINT
  5
48
  8
DEFPOINTS
  6
BYBLOCK
 62
     0
 10
12581.33898
 20
65100.0
 30
0.0
  0
ENDBLK
  5
4A
  8
0
  0
BLOCK
  8
0
  2
*D8
 70
     1
 10
0.0
 20
0.0
 30
0.0
  3
*D8
  1

  0
LINE
  5
31
  8
0
  6
BYBLOCK
 62
     9
 10
12010.0
 20
64000.0
 30
0.0
 11
12533.967896
 21
64000.0
 31
0.0
  0
LINE
  5
32
  8
0
  6
BYBLOCK
 62
     9
 10
12360.0
 20
64800.0
 30
0.0
 11
12533.967896
 21
64800.0
 31
0.0
  0
LINE
  5
33
  8
0
  6
BYBLOCK
 62
     9
 10
12532.967896
 20
64020.0
 30
0.0
 11
12532.967896
 21
64285.083333
 31
0.0
  0
LINE
  5
34
  8
0
  6
BYBLOCK
 62
     9
 10
12532.967896
 20
64780.0
 30
0.0
 11
12532.967896
 21
64514.916667
 31
0.0
  0
SOLID
  5
35
  8
0
  6
BYBLOCK
 62
     9
 10
12529.634562
 20
64020.0
 30
0.0
 11
12536.301229
 21
64020.0
 31
0.0
 12
12532.967896
 22
64000.0
 32
0.0
 13
12532.967896
 23
64000.0
 33
0.0
  0
SOLID
  5
36
  8
0
  6
BYBLOCK
 62
     9
 10
12529.634562
 20
64780.0
 30
0.0
 11
12536.301229
 21
64780.0
 31
0.0
 12
12532.967896
 22
64800.0
 32
0.0
 13
12532.967896
 23
64800.0
 33
0.0
  0
TEXT
  5
37
  8
0
  6
BYBLOCK
 62
    11
 10
12550.467896
 20
64292.083333
 30
0.0
 40
35.0
  1
700-850
 50
90.0
  0
POINT
  5
38
  8
DEFPOINTS
  6
BYBLOCK
 62
     0
 10
12000.0
 20
64000.0
 30
0.0
  0
POINT
  5
39
  8
DEFPOINTS
  6
BYBLOCK
 62
     0
 10
12350.0
 20
64800.0
 30
0.0
  0
POINT
  5
3A
  8
DEFPOINTS
  6
BYBLOCK
 62
     0
 10
12532.967896
 20
64800.0
 30
0.0
  0
ENDBLK
  5
3C
  8
0
  0
BLOCK
  8
0
  2
*D9
 70
     1
 10
0.0
 20
0.0
 30
0.0
  3
*D9
  1

  0
LINE
  5
22
  8
0
  6
BYBLOCK
 62
     9
 10
12010.0
 20
64000.0
 30
0.0
 11
12483.936119
 21
64000.0
 31
0.0
  0
LINE
  5
23
  8
0
  6
BYBLOCK
 62
     9
 10
12360.0
 20
64800.0
 30
0.0
 11
12483.936119
 21
64800.0
 31
0.0
  0
LINE
  5
24
  8
0
  6
BYBLOCK
 62
     9
 10
12482.936119
 20
64020.0
 30
0.0
 11
12482.936119
 21
64352.166667
 31
0.0
  0
LINE
  5
25
  8
0
  6
BYBLOCK
 62
     9
 10
12482.936119
 20
64780.0
 30
0.0
 11
12482.936119
 21
64447.833333
 31
0.0
  0
SOLID
  5
26
  8
0
  6
BYBLOCK
 62
     9
 10
12479.602786
 20
64020.0
 30
0.0
 11
12486.269453
 21
64020.0
 31
0.0
 12
12482.936119
 22
64000.0
 32
0.0
 13
12482.936119
 23
64000.0
 33
0.0
  0
SOLID
  5
27
  8
0
  6
BYBLOCK
 62
     9
 10
12479.602786
 20
64780.0
 30
0.0
 11
12486.269453
 21
64780.0
 31
0.0
 12
12482.936119
 22
64800.0
 32
0.0
 13
12482.936119
 23
64800.0
 33
0.0
  0
TEXT
  5
28
  8
0
  6
BYBLOCK
 62
    11
 10
12500.436119
 20
64359.166667
 30
0.0
 40
35.0
  1
800
 50
90.0
  0
POINT
  5
29
  8
DEFPOINTS
  6
BYBLOCK
 62
     0
 10
12000.0
 20
64000.0
 30
0.0
  0
POINT
  5
2B
  8
DEFPOINTS
  6
BYBLOCK
 62
     0
 10
12350.0
 20
64800.0
 30
0.0
  0
POINT
  5
2C
  8
DEFPOINTS
  6
BYBLOCK
 62
     0
 10
12482.936119
 20
64800.0
 30
0.0
  0
ENDBLK
  5
2E
  8
0
  0
BLOCK
  8
0
  2
*D10
 70
     1
 10
0.0
 20
0.0
 30
0.0
  3
*D10
  1

  0
LINE
  5
87
  8
0
  6
BYBLOCK
 62
     9
 10
12320.0
 20
64785.18624
 30
0.0
 11
12388.57415
 21
64785.18624
 31
0.0
  0
LINE
  5
88
  8
0
  6
BYBLOCK
 62
     9
 10
12045.0
 20
64481.19
 30
0.0
 11
12388.57415
 21
64481.19
 31
0.0
  0
LINE
  5
89
  8
0
  6
BYBLOCK
 62
     9
 10
12387.57415
 20
64765.18624
 30
0.0
 11
12387.57415
 21
64682.34312
 31
0.0
  0
LINE
  5
8A
  8
0
  6
BYBLOCK
 62
     9
 10
12387.57415
 20
64501.19
 30
0.0
 11
12387.57415
 21
64580.84312
 31
0.0
  0
TEXT
  5
8B
  8
0
  6
BYBLOCK
 62
    11
 10
12405.07415
 20
64587.84312
 30
0.0
 40
35.0
  1
304
 50
90.0
  0
SOLID
  5
8C
  8
0
  6
BYBLOCK
 62
     9
 10
12384.240817
 20
64765.18624
 30
0.0
 11
12390.907484
 21
64765.18624
 31
0.0
 12
12387.57415
 22
64785.18624
 32
0.0
 13
12387.57415
 23
64785.18624
 33
0.0
  0
SOLID
  5
8D
  8
0
  6
BYBLOCK
 62
     9
 10
12384.240817
 20
64501.19
 30
0.0
 11
12390.907484
 21
64501.19
 31
0.0
 12
12387.57415
 22
64481.19
 32
0.0
 13
12387.57415
 23
64481.19
 33
0.0
  0
POINT
  5
8E
  8
DEFPOINTS
  6
BYBLOCK
 62
     0
 10
12310.0
 20
64785.18624
 30
0.0
  0
POINT
  5
8F
  8
DEFPOINTS
  6
BYBLOCK
 62
     0
 10
12035.0
 20
64481.19
 30
0.0
  0
POINT
  5
90
  8
DEFPOINTS
  6
BYBLOCK
 62
     0
 10
12387.57415
 20
64481.19
 30
0.0
  0
ENDBLK
  5
92
  8
0
  0
ENDSEC
  0
SECTION
  2
ENTITIES
  0
DIMENSION
  5
20
  8
TEAM-MAS
  2
*D9
 10
482.936119
 20
800.0
 30
0.0
 11
482.936119
 21
400.0
 31
0.0
 12
-12000.0
 22
-64000.0
 32
0.0
 13
0.0
 23
0.0
 33
0.0
 14
350.0
 24
800.0
 34
0.0
 50
90.0
1001
ACAD
1000
DSTYLE
1002
{
1070
    40
1040
1.0
1002
}
  0
DIMENSION
  5
2F
  8
TEAM-MAS
  2
*D8
 10
532.967896
 20
800.0
 30
0.0
 11
532.967896
 21
400.0
 31
0.0
 12
-12000.0
 22
-64000.0
 32
0.0
  1
700-850
 13
0.0
 23
0.0
 33
0.0
 14
350.0
 24
800.0
 34
0.0
 50
90.0
1001
ACAD
1000
DSTYLE
1002
{
1070
    40
1040
1.0
1002
}
  0
DIMENSION
  5
3D
  8
TEAM-MAS
  2
*D7
 10
581.33898
 20
1100.0
 30
0.0
 11
581.33898
 21
550.0
 31
0.0
 12
-12000.0
 22
-64000.0
 32
0.0
 13
0.0
 23
0.0
 33
0.0
 14
76.5
 24
1100.0
 34
0.0
 50
90.0
1001
ACAD
1000
DSTYLE
1002
{
1070
    40
1040
1.0
1002
}
  0
DIMENSION
  5
4B
  8
TEAM-MAS
  2
*D6
 10
629.710064
 20
1100.0
 30
0.0
 11
629.710064
 21
550.0
 31
0.0
 12
-12000.0
 22
-64000.0
 32
0.0
  1
1100-1250
 13
0.0
 23
0.0
 33
0.0
 14
76.5
 24
1100.0
 34
0.0
 50
90.0
1001
ACAD
1000
DSTYLE
1002
{
1070
    40
1040
1.0
1002
}
  0
DIMENSION
  5
59
  8
TEAM-MAS
  2
*D4
 10
387.855322
 20
400.0
 30
0.0
 11
387.855322
 21
200.0
 31
0.0
 12
-12000.0
 22
-64000.0
 32
0.0
 13
0.0
 23
0.0
 33
0.0
 14
80.0
 24
400.0
 34
0.0
 50
90.0
1001
ACAD
1000
DSTYLE
1002
{
1070
    40
1040
1.0
1002
}
  0
DIMENSION
  5
67
  8
TEAM-MAS
  2
*D3
 10
434.565035
 20
400.0
 30
0.0
 11
434.565035
 21
200.0
 31
0.0
 12
-12000.0
 22
-64000.0
 32
0.0
  1
300-450
 13
0.0
 23
0.0
 33
0.0
 14
80.0
 24
400.0
 34
0.0
 50
90.0
1001
ACAD
1000
DSTYLE
1002
{
1070
    40
1040
1.0
1002
}
  0
CIRCLE
  5
75
  8
TEAM-INSP
 10
0.0
 20
0.0
 30
0.0
 40
10.0
  0
DIMENSION
  5
77
  8
TEAM-MAS
  2
*D5
 10
434.565035
 20
800.0
 30
0.0
 11
434.565035
 21
652.5
 31
0.0
 12
-12000.0
 22
-64000.0
 32
0.0
 13
0.0
 23
505.0
 33
0.0
 14
350.0
 24
800.0
 34
0.0
 50
90.0
1001
ACAD
1000
DSTYLE
1002
{
1070
    40
1040
1.0
1002
}
  0
DIMENSION
  5
85
  8
TEAM-MAS
  2
*D10
 10
387.57415
 20
481.19
 30
0.0
 11
387.57415
 21
631.59312
 31
0.0
 12
-12000.0
 22
-64000.0
 32
0.0
 70
   128
 13
310.0
 23
785.18624
 33
0.0
 14
35.0
 24
481.19
 34
0.0
 50
90.0
1001
ACAD
1000
DSTYLE
1002
{
1070
    40
1040
1.0
1002
}
  0
DIMENSION
  5
93
  8
TEAM-MAS
  2
*D2
 10
76.5
 20
1010.847841
 30
0.0
 11
0.0
 21
1010.847841
 31
0.0
 12
-12000.0
 22
-64000.0
 32
0.0
 70
   128
 13
-76.5
 23
1100.0
 33
0.0
 14
76.5
 24
1100.0
 34
0.0
1001
ACAD
1000
DSTYLE
1002
{
1070
    40
1040
1.0
1002
}
  0
DIMENSION
  5
A1
  8
TEAM-MAS
  2
*D1
 10
350.0
 20
959.820951
 30
0.0
 11
0.0
 21
959.820951
 31
0.0
 12
-12000.0
 22
-64000.0
 32
0.0
 13
-350.0
 23
800.0
 33
0.0
 14
350.0
 24
800.0
 34
0.0
1001
ACAD
1000
DSTYLE
1002
{
1070
    40
1040
1.0
1002
}
  0
DIMENSION
  5
AF
  8
TEAM-MAS
  2
*D0
 10
300.0
 20
914.765241
 30
0.0
 11
0.0
 21
914.765241
 31
0.0
 12
-12000.0
 22
-64000.0
 32
0.0
 13
-300.0
 23
785.18624
 33
0.0
 14
300.0
 24
785.18624
 34
0.0
1001
ACAD
1000
DSTYLE
1002
{
1070
    40
1040
1.0
1002
}
  0
LINE
  5
BD
  8
TEAM-AXE
 10
0.0
 20
800.0
 30
0.0
 11
0.0
 21
433.990192
 31
0.0
  0
LINE
  5
C0
  8
TEAM-AXE
 10
300.0
 20
795.18624
 30
0.0
 11
300.0
 21
775.18624
 31
0.0
  0
LINE
  5
C1
  8
TEAM-AXE
 10
310.0
 20
785.18624
 30
0.0
 11
290.0
 21
785.18624
 31
0.0
  0
CIRCLE
  5
C2
  8
TEAM-HIDE
 10
300.0
 20
785.18624
 30
0.0
 40
5.0
  0
LINE
  5
C5
  8
TEAM-AXE
 10
-300.0
 20
795.18624
 30
0.0
 11
-300.0
 21
775.18624
 31
0.0
  0
LINE
  5
C6
  8
TEAM-AXE
 10
-290.0
 20
785.18624
 30
0.0
 11
-310.0
 21
785.18624
 31
0.0
  0
CIRCLE
  5
C7
  8
TEAM-HIDE
 10
-300.0
 20
785.18624
 30
0.0
 40
5.0
  0
CIRCLE
  5
C8
  8
TEAM-HIDE
 10
25.0
 20
481.19
 30
0.0
 40
5.0
  0
LINE
  5
C9
  8
TEAM-AXE
 10
35.0
 20
481.19
 30
0.0
 11
15.0
 21
481.19
 31
0.0
  0
LINE
  5
CA
  8
TEAM-AXE
 10
25.0
 20
491.19
 30
0.0
 11
25.0
 21
471.19
 31
0.0
  0
LINE
  5
CB
  8
TEAM-KAN
 10
0.0
 20
460.0
 30
0.0
 11
0.0
 21
365.980383
 31
0.0
  0
LINE
  5
CD
  8
TEAM-BODY
 10
-21.0
 20
505.0
 30
0.0
 11
-21.0
 21
460.0
 31
0.0
  0
LINE
  5
CF
  8
TEAM-BODY
 10
21.0
 20
505.0
 30
0.0
 11
21.0
 21
460.0
 31
0.0
  0
LINE
  5
D0
  8
TEAM-BODY
 10
-21.0
 20
460.0
 30
0.0
 11
21.0
 21
460.0
 31
0.0
  0
LINE
  5
D1
  8
TEAM-HIDE
 10
50.0
 20
800.0
 30
0.0
 11
50.0
 21
505.0
 31
0.0
  0
LINE
  5
D2
  8
TEAM-HIDE
 10
-50.0
 20
800.0
 30
0.0
 11
-50.0
 21
505.0
 31
0.0
  0
TEXT
  5
D3
  8
TEAM-TXT
 10
20.56633
 20
549.29514
 30
0.0
 40
30.0
  1
team 431202
 41
0.8
 51
15.0
  7
TEAM
  0
LINE
  5
D6
  8
TEAM-BODY
 10
-330.0
 20
770.0
 30
0.0
 11
-316.554258
 21
528.814469
 31
0.0
  0
ARC
  5
D7
  8
TEAM-BODY
 10
-287.198863
 20
535.0
 30
0.0
 40
30.0
 50
191.898839
 51
270.0
  0
LINE
  5
D8
  8
TEAM-BODY
 10
287.198863
 20
505.0
 30
0.0
 11
-287.198863
 21
505.0
 31
0.0
  0
LINE
  5
D9
  8
TEAM-BODY
 10
316.554258
 20
528.814469
 30
0.0
 11
330.0
 21
770.0
 31
0.0
  0
ARC
  5
DA
  8
TEAM-BODY
 10
287.198863
 20
535.0
 30
0.0
 40
30.0
 50
270.0
 51
348.101161
  0
LINE
  5
DB
  8
TEAM-BODY
 10
350.0
 20
770.0
 30
0.0
 11
350.0
 21
800.0
 31
0.0
  0
LINE
  5
DC
  8
TEAM-BODY
 10
-350.0
 20
800.0
 30
0.0
 11
-350.0
 21
770.0
 31
0.0
  0
LINE
  5
DD
  8
TEAM-BODY
 10
350.0
 20
800.0
 30
0.0
 11
-350.0
 21
800.0
 31
0.0
  0
LINE
  5
DE
  8
TEAM-BODY
 10
350.0
 20
770.0
 30
0.0
 11
-350.0
 21
770.0
 31
0.0
  0
CIRCLE
  5
DF
  8
TEAM-KAN
 10
80.0
 20
400.0
 30
0.0
 40
20.0
  0
LINE
  5
E0
  8
TEAM-AXE
 10
50.0
 20
400.0
 30
0.0
 11
110.0
 21
400.0
 31
0.0
  0
LINE
  5
E1
  8
TEAM-AXE
 10
80.0
 20
370.0
 30
0.0
 11
80.0
 21
430.0
 31
0.0
  0
LINE
  5
E2
  8
TEAM-KAN
 10
80.0
 20
370.0
 30
0.0
 11
80.0
 21
365.980383
 31
0.0
  0
ARC
  5
E3
  8
TEAM-KAN
 10
40.0
 20
365.980383
 30
0.0
 40
40.0
 50
180.0
 51
0.0
  0
CIRCLE
  5
E4
  8
TEAM-HIDE
 10
-80.0
 20
400.0
 30
0.0
 40
20.0
  0
LINE
  5
E5
  8
TEAM-AXE
 10
-80.0
 20
370.0
 30
0.0
 11
-80.0
 21
430.0
 31
0.0
  0
LINE
  5
E6
  8
TEAM-HIDE
 10
-80.0
 20
370.0
 30
0.0
 11
-80.0
 21
365.980383
 31
0.0
  0
LINE
  5
E7
  8
TEAM-AXE
 10
-110.0
 20
400.0
 30
0.0
 11
-50.0
 21
400.0
 31
0.0
  0
ARC
  5
E8
  8
TEAM-HIDE
 10
-40.0
 20
365.980383
 30
0.0
 40
40.0
 50
180.0
 51
0.0
  0
LINE
  5
E9
  8
TEAM-AXE
 10
56.5
 20
1100.0
 30
0.0
 11
96.5
 21
1100.0
 31
0.0
  0
CIRCLE
  5
EA
  8
TEAM-COLD
 10
76.5
 20
1100.0
 30
0.0
 40
15.0
  0
LINE
  5
EC
  8
TEAM-AXE
 10
76.5
 20
1080.0
 30
0.0
 11
76.5
 21
1120.0
 31
0.0
  0
LINE
  5
ED
  8
TEAM-AXE
 10
-76.5
 20
1080.0
 30
0.0
 11
-76.5
 21
1120.0
 31
0.0
  0
LINE
  5
EE
  8
TEAM-AXE
 10
-96.5
 20
1100.0
 30
0.0
 11
-56.5
 21
1100.0
 31
0.0
  0
CIRCLE
  5
EF
  8
TEAM-WARM
 10
-76.5
 20
1100.0
 30
0.0
 40
15.0
  0
ENDSEC
  0
EOF
