  0
SECTION
  2
HEADER
  9
$ACADVER
  1
AC1009
  9
$INSBASE
 10
0.0
 20
0.0
 30
0.0
  9
$EXTMIN
 10
-803.277703
 20
-648.724153
 30
0.0
  9
$EXTMAX
 10
425.088194
 20
99.169701
 30
0.000005
  9
$LIMMIN
 10
-803.277703
 20
-648.724153
  9
$LIMMAX
 10
425.088194
 20
99.169701
  9
$ORTHOMODE
 70
     1
  9
$REGENMODE
 70
     1
  9
$FILLMODE
 70
     1
  9
$QTEXTMODE
 70
     0
  9
$MIRRTEXT
 70
     0
  9
$DRAGMODE
 70
     2
  9
$LTSCALE
 40
50.0
  9
$OSMODE
 70
     0
  9
$ATTMODE
 70
     1
  9
$TEXTSIZE
 40
200.0
  9
$TRACEWID
 40
1.0
  9
$TEXTSTYLE
  7
STANDARD
  9
$CLAYER
  8
TEAM-MAS
  9
$CELTYPE
  6
BYLAYER
  9
$CECOLOR
 62
   256
  9
$DIMSCALE
 40
0.0
  9
$DIMASZ
 40
20.0
  9
$DIMEXO
 40
10.0
  9
$DIMDLI
 40
1.0
  9
$DIMRND
 40
0.0
  9
$DIMDLE
 40
0.0
  9
$DIMEXE
 40
1.0
  9
$DIMTP
 40
0.0
  9
$DIMTM
 40
0.0
  9
$DIMTXT
 40
35.0
  9
$DIMCEN
 40
1.0
  9
$DIMTSZ
 40
0.0
  9
$DIMTOL
 70
     0
  9
$DIMLIM
 70
     0
  9
$DIMTIH
 70
     0
  9
$DIMTOH
 70
     0
  9
$DIMSE1
 70
     0
  9
$DIMSE2
 70
     0
  9
$DIMTAD
 70
     0
  9
$DIMZIN
 70
     0
  9
$DIMBLK
  1

  9
$DIMASO
 70
     1
  9
$DIMSHO
 70
     0
  9
$DIMPOST
  1

  9
$DIMAPOST
  1

  9
$DIMALT
 70
     0
  9
$DIMALTD
 70
     2
  9
$DIMALTF
 40
25.4
  9
$DIMLFAC
 40
1.0
  9
$DIMTOFL
 70
     0
  9
$DIMTVP
 40
0.0
  9
$DIMTIX
 70
     0
  9
$DIMSOXD
 70
     0
  9
$DIMSAH
 70
     0
  9
$DIMBLK1
  1

  9
$DIMBLK2
  1

  9
$DIMSTYLE
  2
TEAM
  9
$DIMCLRD
 70
     9
  9
$DIMCLRE
 70
     9
  9
$DIMCLRT
 70
    11
  9
$DIMTFAC
 40
1.0
  9
$DIMGAP
 40
7.0
  9
$LUNITS
 70
     2
  9
$LUPREC
 70
     1
  9
$SKETCHINC
 40
1.0
  9
$FILLETRAD
 40
50.0
  9
$AUNITS
 70
     0
  9
$AUPREC
 70
     0
  9
$MENU
  1
ROPLANS
  9
$ELEVATION
 40
0.0
  9
$PELEVATION
 40
0.0
  9
$THICKNESS
 40
0.0
  9
$LIMCHECK
 70
     0
  9
$BLIPMODE
 70
     1
  9
$CHAMFERA
 40
0.0
  9
$CHAMFERB
 40
0.0
  9
$SKPOLY
 70
     0
  9
$TDCREATE
 40
2450392.957851
  9
$TDUPDATE
 40
2456272.033233
  9
$TDINDWG
 40
2.315654
  9
$TDUSRTIMER
 40
2.315654
  9
$USRTIMER
 70
     1
  9
$ANGBASE
 50
0.0
  9
$ANGDIR
 70
     0
  9
$PDMODE
 70
     0
  9
$PDSIZE
 40
0.0
  9
$PLINEWID
 40
0.0
  9
$COORDS
 70
     2
  9
$SPLFRAME
 70
     0
  9
$SPLINETYPE
 70
     6
  9
$SPLINESEGS
 70
     8
  9
$ATTDIA
 70
     0
  9
$ATTREQ
 70
     0
  9
$HANDLING
 70
     1
  9
$HANDSEED
  5
14A
  9
$SURFTAB1
 70
    24
  9
$SURFTAB2
 70
    24
  9
$SURFTYPE
 70
     6
  9
$SURFU
 70
     6
  9
$SURFV
 70
     6
  9
$UCSNAME
  2

  9
$UCSORG
 10
0.0
 20
0.0
 30
0.0
  9
$UCSXDIR
 10
1.0
 20
0.0
 30
0.0
  9
$UCSYDIR
 10
0.0
 20
1.0
 30
0.0
  9
$PUCSNAME
  2

  9
$PUCSORG
 10
0.0
 20
0.0
 30
0.0
  9
$PUCSXDIR
 10
1.0
 20
0.0
 30
0.0
  9
$PUCSYDIR
 10
0.0
 20
1.0
 30
0.0
  9
$USERI1
 70
     0
  9
$USERI2
 70
     0
  9
$USERI3
 70
     0
  9
$USERI4
 70
     0
  9
$USERI5
 70
     0
  9
$USERR1
 40
0.0
  9
$USERR2
 40
0.0
  9
$USERR3
 40
0.0
  9
$USERR4
 40
0.0
  9
$USERR5
 40
0.0
  9
$WORLDVIEW
 70
     1
  9
$SHADEDGE
 70
     0
  9
$SHADEDIF
 70
    70
  9
$TILEMODE
 70
     1
  9
$MAXACTVP
 70
    16
  9
$PLIMCHECK
 70
     0
  9
$PEXTMIN
 10
-0.805942
 20
0.005011
 30
0.0
  9
$PEXTMAX
 10
20.250094
 20
11.356329
 30
0.0
  9
$PLIMMIN
 10
0.0
 20
0.0
  9
$PLIMMAX
 10
12.0
 20
9.0
  9
$UNITMODE
 70
     0
  9
$VISRETAIN
 70
     0
  9
$PLINEGEN
 70
     0
  9
$PSLTSCALE
 70
     0
  0
ENDSEC
  0
SECTION
  2
TABLES
  0
TABLE
  2
VPORT
 70
     2
  0
VPORT
  2
*ACTIVE
 70
     0
 10
0.0
 20
0.0
 11
1.0
 21
1.0
 12
-189.094754
 22
-274.777226
 13
0.0
 23
0.0
 14
1.0
 24
1.0
 15
50.0
 25
50.0
 16
0.0
 26
0.0
 36
1.0
 17
0.0
 27
0.0
 37
0.0
 40
752.602524
 41
1.911765
 42
50.0
 43
0.0
 44
0.0
 50
0.0
 51
0.0
 71
     0
 72
   100
 73
     1
 74
     1
 75
     0
 76
     0
 77
     0
 78
     0
  0
ENDTAB
  0
TABLE
  2
LTYPE
 70
     2
  0
LTYPE
  2
CONTINUOUS
 70
     0
  3
Solid Line
 72
    65
 73
     0
 40
0.0
  0
LTYPE
  2
31
 70
     0
  3

 72
    65
 73
     4
 40
2.1
 49
1.5
 49
-0.3
 49
0.0
 49
-0.3
  0
ENDTAB
  0
TABLE
  2
LAYER
 70
    11
  0
LAYER
  2
0
 70
     0
 62
     7
  6
CONTINUOUS
  0
LAYER
  2
DEFPOINTS
 70
     0
 62
     7
  6
CONTINUOUS
  0
LAYER
  2
TEAM-BODY
 70
     0
 62
     2
  6
CONTINUOUS
  0
LAYER
  2
TEAM-AXE
 70
     0
 62
    10
  6
31
  0
LAYER
  2
TEAM-MAS
 70
     0
 62
     9
  6
CONTINUOUS
  0
LAYER
  2
TEAM-TXT
 70
     0
 62
    11
  6
CONTINUOUS
  0
LAYER
  2
TEAM-DET1
 70
     0
 62
     4
  6
CONTINUOUS
  0
LAYER
  2
TEAM-COLD
 70
     0
 62
     3
  6
CONTINUOUS
  0
LAYER
  2
TEAM-WARM
 70
     0
 62
     1
  6
CONTINUOUS
  0
LAYER
  2
TEAM-INSP
 70
     0
 62
     5
  6
CONTINUOUS
  0
LAYER
  2
07930000BE00
 70
     0
 62
     7
  6
CONTINUOUS
  0
ENDTAB
  0
TABLE
  2
STYLE
 70
     2
  0
STYLE
  2
STANDARD
 70
     0
 40
0.0
 41
1.0
 50
0.0
 71
     0
 42
200.0
  3
txt
  4

  0
STYLE
  2
TEAM
 70
     0
 40
0.0
 41
0.8
 50
15.0
 71
     0
 42
7.0
  3
ROMANS.shx
  4

  0
ENDTAB
  0
TABLE
  2
VIEW
 70
     0
  0
ENDTAB
  0
TABLE
  2
UCS
 70
     0
  0
ENDTAB
  0
TABLE
  2
APPID
 70
     1
  0
APPID
  2
ACAD
 70
     0
  0
ENDTAB
  0
TABLE
  2
DIMSTYLE
 70
     1
  0
DIMSTYLE
  2
TEAM
 70
     0
  3

  4

  5

  6

  7

 40
0.0
 41
20.0
 42
10.0
 43
1.0
 44
1.0
 45
0.0
 46
0.0
 47
0.0
 48
0.0
140
35.0
141
1.0
142
0.0
143
25.4
144
1.0
145
0.0
146
1.0
147
7.0
 71
     0
 72
     0
 73
     0
 74
     0
 75
     0
 76
     0
 77
     0
 78
     0
170
     0
171
     2
172
     0
173
     0
174
     0
175
     0
176
     9
177
     9
178
    11
  0
ENDTAB
  0
ENDSEC
  0
SECTION
  2
BLOCKS
  0
BLOCK
  8
0
  2
$MODEL_SPACE
 70
     0
 10
0.0
 20
0.0
 30
0.0
  3
$MODEL_SPACE
  1

  0
ENDBLK
  5
143
  8
0
  0
BLOCK
 67
     1
  8
0
  2
$PAPER_SPACE
 70
     0
 10
0.0
 20
0.0
 30
0.0
  3
$PAPER_SPACE
  1

  0
ENDBLK
  5
141
 67
     1
  8
0
  0
BLOCK
  8
0
  2
*D0
 70
     1
 10
0.0
 20
0.0
 30
0.0
  3
*D0
  1

  0
LINE
  5
3F
  8
0
  6
BYBLOCK
 62
     9
 10
12425.0
 20
187440.0
 30
0.0
 11
12425.0
 21
187387.983181
 31
0.0
  0
LINE
  5
40
  8
0
  6
BYBLOCK
 62
     9
 10
12090.0
 20
187570.0
 30
0.0
 11
12090.0
 21
187387.983181
 31
0.0
  0
LINE
  5
41
  8
0
  6
BYBLOCK
 62
     9
 10
12405.0
 20
187388.983181
 30
0.0
 11
12311.166667
 21
187388.983181
 31
0.0
  0
LINE
  5
42
  8
0
  6
BYBLOCK
 62
     9
 10
12110.0
 20
187388.983181
 30
0.0
 11
12203.833333
 21
187388.983181
 31
0.0
  0
SOLID
  5
43
  8
0
  6
BYBLOCK
 62
     9
 10
12405.0
 20
187392.316515
 30
0.0
 11
12405.0
 21
187385.649848
 31
0.0
 12
12425.0
 22
187388.983181
 32
0.0
 13
12425.0
 23
187388.983181
 33
0.0
  0
SOLID
  5
44
  8
0
  6
BYBLOCK
 62
     9
 10
12110.0
 20
187392.316515
 30
0.0
 11
12110.0
 21
187385.649848
 31
0.0
 12
12090.0
 22
187388.983181
 32
0.0
 13
12090.0
 23
187388.983181
 33
0.0
  0
TEXT
  5
45
  8
0
  6
BYBLOCK
 62
    11
 10
12210.833333
 20
187371.483181
 30
0.0
 40
35.0
  1
335
  0
POINT
  5
46
  8
DEFPOINTS
  6
BYBLOCK
 62
     0
 10
12425.0
 20
187450.0
 30
0.0
  0
POINT
  5
47
  8
DEFPOINTS
  6
BYBLOCK
 62
     0
 10
12090.0
 20
187580.0
 30
0.0
  0
POINT
  5
48
  8
DEFPOINTS
  6
BYBLOCK
 62
     0
 10
12090.0
 20
187388.983181
 30
0.0
  0
ENDBLK
  5
4A
  8
0
  0
BLOCK
  8
0
  2
*D1
 70
     1
 10
0.0
 20
0.0
 30
0.0
  3
*D1
  1

  0
LINE
  5
C3
  8
0
  6
BYBLOCK
 62
     9
 10
12090.0
 20
187570.0
 30
0.0
 11
12090.0
 21
187387.983181
 31
0.0
  0
LINE
  5
C4
  8
0
  6
BYBLOCK
 62
     9
 10
12000.0
 20
187849.997819
 30
0.0
 11
12000.0
 21
187387.983181
 31
0.0
  0
LINE
  5
C5
  8
0
  6
BYBLOCK
 62
     9
 10
12070.0
 20
187388.983181
 30
0.0
 11
12020.0
 21
187388.983181
 31
0.0
  0
TEXT
  5
C6
  8
0
  6
BYBLOCK
 62
    11
 10
12013.685721
 20
187401.33159
 30
0.0
 40
35.0
  1
90
  0
SOLID
  5
C7
  8
0
  6
BYBLOCK
 62
     9
 10
12070.0
 20
187392.316515
 30
0.0
 11
12070.0
 21
187385.649848
 31
0.0
 12
12090.0
 22
187388.983181
 32
0.0
 13
12090.0
 23
187388.983181
 33
0.0
  0
SOLID
  5
C8
  8
0
  6
BYBLOCK
 62
     9
 10
12020.0
 20
187392.316515
 30
0.0
 11
12020.0
 21
187385.649848
 31
0.0
 12
12000.0
 22
187388.983181
 32
0.0
 13
12000.0
 23
187388.983181
 33
0.0
  0
POINT
  5
C9
  8
DEFPOINTS
  6
BYBLOCK
 62
     0
 10
12090.0
 20
187580.0
 30
0.0
  0
POINT
  5
CA
  8
DEFPOINTS
  6
BYBLOCK
 62
     0
 10
12000.0
 20
187859.997819
 30
0.0
  0
POINT
  5
CB
  8
DEFPOINTS
  6
BYBLOCK
 62
     0
 10
12000.0
 20
187388.983181
 30
0.0
  0
ENDBLK
  5
CD
  8
0
  0
BLOCK
  8
0
  2
*D2
 70
     1
 10
0.0
 20
0.0
 30
0.0
  3
*D2
  1

  0
LINE
  5
B4
  8
0
  6
BYBLOCK
 62
     9
 10
11375.0
 20
187570.0
 30
0.0
 11
11375.0
 21
187387.883181
 31
0.0
  0
LINE
  5
B5
  8
0
  6
BYBLOCK
 62
     9
 10
11325.0
 20
187440.0
 30
0.0
 11
11325.0
 21
187387.883181
 31
0.0
  0
LINE
  5
B6
  8
0
  6
BYBLOCK
 62
     9
 10
11395.0
 20
187388.883181
 30
0.0
 11
11415.0
 21
187388.883181
 31
0.0
  0
LINE
  5
B7
  8
0
  6
BYBLOCK
 62
     9
 10
11305.0
 20
187388.883181
 30
0.0
 11
11285.0
 21
187388.883181
 31
0.0
  0
TEXT
  5
B8
  8
0
  6
BYBLOCK
 62
    11
 10
11395.270807
 20
187403.789109
 30
0.0
 40
35.0
  1
50
  0
LINE
  5
B9
  8
0
  6
BYBLOCK
 62
     9
 10
11375.0
 20
187388.883181
 30
0.0
 11
11325.0
 21
187388.883181
 31
0.0
  0
SOLID
  5
BA
  8
0
  6
BYBLOCK
 62
     9
 10
11395.0
 20
187392.216515
 30
0.0
 11
11395.0
 21
187385.549848
 31
0.0
 12
11375.0
 22
187388.883181
 32
0.0
 13
11375.0
 23
187388.883181
 33
0.0
  0
SOLID
  5
BB
  8
0
  6
BYBLOCK
 62
     9
 10
11305.0
 20
187392.216515
 30
0.0
 11
11305.0
 21
187385.549848
 31
0.0
 12
11325.0
 22
187388.883181
 32
0.0
 13
11325.0
 23
187388.883181
 33
0.0
  0
POINT
  5
BC
  8
DEFPOINTS
  6
BYBLOCK
 62
     0
 10
11375.0
 20
187580.0
 30
0.0
  0
POINT
  5
BD
  8
DEFPOINTS
  6
BYBLOCK
 62
     0
 10
11325.0
 20
187450.0
 30
0.0
  0
POINT
  5
BE
  8
DEFPOINTS
  6
BYBLOCK
 62
     0
 10
11325.0
 20
187388.883181
 30
0.0
  0
ENDBLK
  5
C0
  8
0
  0
BLOCK
  8
0
  2
*D3
 70
     1
 10
0.0
 20
0.0
 30
0.0
  3
*D3
  1

  0
LINE
  5
A5
  8
0
  6
BYBLOCK
 62
     9
 10
11315.0
 20
187450.0
 30
0.0
 11
11257.538561
 21
187450.0
 31
0.0
  0
LINE
  5
A6
  8
0
  6
BYBLOCK
 62
     9
 10
11445.0
 20
187500.0
 30
0.0
 11
11257.538561
 21
187500.0
 31
0.0
  0
LINE
  5
A7
  8
0
  6
BYBLOCK
 62
     9
 10
11258.538561
 20
187430.0
 30
0.0
 11
11258.538561
 21
187410.0
 31
0.0
  0
LINE
  5
A8
  8
0
  6
BYBLOCK
 62
     9
 10
11258.538561
 20
187520.0
 30
0.0
 11
11258.538561
 21
187540.0
 31
0.0
  0
TEXT
  5
A9
  8
0
  6
BYBLOCK
 62
    11
 10
11275.66782
 20
187351.327414
 30
0.0
 40
35.0
  1
50
 50
90.0
  0
LINE
  5
AA
  8
0
  6
BYBLOCK
 62
     9
 10
11258.538561
 20
187450.0
 30
0.0
 11
11258.538561
 21
187500.0
 31
0.0
  0
SOLID
  5
AB
  8
0
  6
BYBLOCK
 62
     9
 10
11255.205228
 20
187430.0
 30
0.0
 11
11261.871895
 21
187430.0
 31
0.0
 12
11258.538561
 22
187450.0
 32
0.0
 13
11258.538561
 23
187450.0
 33
0.0
  0
SOLID
  5
AC
  8
0
  6
BYBLOCK
 62
     9
 10
11255.205228
 20
187520.0
 30
0.0
 11
11261.871895
 21
187520.0
 31
0.0
 12
11258.538561
 22
187500.0
 32
0.0
 13
11258.538561
 23
187500.0
 33
0.0
  0
POINT
  5
AD
  8
DEFPOINTS
  6
BYBLOCK
 62
     0
 10
11325.0
 20
187450.0
 30
0.0
  0
POINT
  5
AE
  8
DEFPOINTS
  6
BYBLOCK
 62
     0
 10
11455.0
 20
187500.0
 30
0.0
  0
POINT
  5
AF
  8
DEFPOINTS
  6
BYBLOCK
 62
     0
 10
11258.538561
 20
187500.0
 30
0.0
  0
ENDBLK
  5
B1
  8
0
  0
BLOCK
  8
0
  2
*D4
 70
     1
 10
0.0
 20
0.0
 30
0.0
  3
*D4
  1

  0
LINE
  5
96
  8
0
  6
BYBLOCK
 62
     9
 10
11445.0
 20
187950.0
 30
0.0
 11
11257.438561
 21
187950.0
 31
0.0
  0
LINE
  5
97
  8
0
  6
BYBLOCK
 62
     9
 10
11315.0
 20
188000.0
 30
0.0
 11
11257.438561
 21
188000.0
 31
0.0
  0
LINE
  5
98
  8
0
  6
BYBLOCK
 62
     9
 10
11258.438561
 20
187930.0
 30
0.0
 11
11258.438561
 21
187910.0
 31
0.0
  0
LINE
  5
99
  8
0
  6
BYBLOCK
 62
     9
 10
11258.438561
 20
188020.0
 30
0.0
 11
11258.438561
 21
188040.0
 31
0.0
  0
TEXT
  5
9A
  8
0
  6
BYBLOCK
 62
    11
 10
11273.833025
 20
188046.61903
 30
0.0
 40
35.0
  1
50
 50
90.0
  0
LINE
  5
9B
  8
0
  6
BYBLOCK
 62
     9
 10
11258.438561
 20
187950.0
 30
0.0
 11
11258.438561
 21
188000.0
 31
0.0
  0
SOLID
  5
9C
  8
0
  6
BYBLOCK
 62
     9
 10
11255.105228
 20
187930.0
 30
0.0
 11
11261.771895
 21
187930.0
 31
0.0
 12
11258.438561
 22
187950.0
 32
0.0
 13
11258.438561
 23
187950.0
 33
0.0
  0
SOLID
  5
9D
  8
0
  6
BYBLOCK
 62
     9
 10
11255.105228
 20
188020.0
 30
0.0
 11
11261.771895
 21
188020.0
 31
0.0
 12
11258.438561
 22
188000.0
 32
0.0
 13
11258.438561
 23
188000.0
 33
0.0
  0
POINT
  5
9E
  8
DEFPOINTS
  6
BYBLOCK
 62
     0
 10
11455.0
 20
187950.0
 30
0.0
  0
POINT
  5
9F
  8
DEFPOINTS
  6
BYBLOCK
 62
     0
 10
11325.0
 20
188000.0
 30
0.0
  0
POINT
  5
A0
  8
DEFPOINTS
  6
BYBLOCK
 62
     0
 10
11258.438561
 20
188000.0
 30
0.0
  0
ENDBLK
  5
A2
  8
0
  0
BLOCK
  8
0
  2
*D5
 70
     1
 10
0.0
 20
0.0
 30
0.0
  3
*D5
  1

  0
LINE
  5
88
  8
0
  6
BYBLOCK
 62
     9
 10
11445.0
 20
187500.0
 30
0.0
 11
11257.438561
 21
187500.0
 31
0.0
  0
LINE
  5
89
  8
0
  6
BYBLOCK
 62
     9
 10
11445.0
 20
187950.0
 30
0.0
 11
11257.438561
 21
187950.0
 31
0.0
  0
LINE
  5
8A
  8
0
  6
BYBLOCK
 62
     9
 10
11258.438561
 20
187520.0
 30
0.0
 11
11258.438561
 21
187674.25
 31
0.0
  0
LINE
  5
8B
  8
0
  6
BYBLOCK
 62
     9
 10
11258.438561
 20
187930.0
 30
0.0
 11
11258.438561
 21
187775.75
 31
0.0
  0
SOLID
  5
8C
  8
0
  6
BYBLOCK
 62
     9
 10
11255.105228
 20
187520.0
 30
0.0
 11
11261.771895
 21
187520.0
 31
0.0
 12
11258.438561
 22
187500.0
 32
0.0
 13
11258.438561
 23
187500.0
 33
0.0
  0
SOLID
  5
8D
  8
0
  6
BYBLOCK
 62
     9
 10
11255.105228
 20
187930.0
 30
0.0
 11
11261.771895
 21
187930.0
 31
0.0
 12
11258.438561
 22
187950.0
 32
0.0
 13
11258.438561
 23
187950.0
 33
0.0
  0
TEXT
  5
8E
  8
0
  6
BYBLOCK
 62
    11
 10
11275.938561
 20
187681.25
 30
0.0
 40
35.0
  1
450
 50
90.0
  0
POINT
  5
8F
  8
DEFPOINTS
  6
BYBLOCK
 62
     0
 10
11455.0
 20
187500.0
 30
0.0
  0
POINT
  5
90
  8
DEFPOINTS
  6
BYBLOCK
 62
     0
 10
11455.0
 20
187950.0
 30
0.0
  0
POINT
  5
91
  8
DEFPOINTS
  6
BYBLOCK
 62
     0
 10
11258.438561
 20
187950.0
 30
0.0
  0
ENDBLK
  5
93
  8
0
  0
BLOCK
  8
0
  2
*D6
 70
     1
 10
0.0
 20
0.0
 30
0.0
  3
*D6
  1

  0
LINE
  5
7A
  8
0
  6
BYBLOCK
 62
     9
 10
11315.0
 20
188000.0
 30
0.0
 11
11213.270399
 21
188000.0
 31
0.0
  0
LINE
  5
7B
  8
0
  6
BYBLOCK
 62
     9
 10
11315.0
 20
187450.0
 30
0.0
 11
11213.270399
 21
187450.0
 31
0.0
  0
LINE
  5
7C
  8
0
  6
BYBLOCK
 62
     9
 10
11214.270399
 20
187980.0
 30
0.0
 11
11214.270399
 21
187775.75
 31
0.0
  0
LINE
  5
7D
  8
0
  6
BYBLOCK
 62
     9
 10
11214.270399
 20
187470.0
 30
0.0
 11
11214.270399
 21
187674.25
 31
0.0
  0
SOLID
  5
7E
  8
0
  6
BYBLOCK
 62
     9
 10
11210.937065
 20
187980.0
 30
0.0
 11
11217.603732
 21
187980.0
 31
0.0
 12
11214.270399
 22
188000.0
 32
0.0
 13
11214.270399
 23
188000.0
 33
0.0
  0
SOLID
  5
7F
  8
0
  6
BYBLOCK
 62
     9
 10
11210.937065
 20
187470.0
 30
0.0
 11
11217.603732
 21
187470.0
 31
0.0
 12
11214.270399
 22
187450.0
 32
0.0
 13
11214.270399
 23
187450.0
 33
0.0
  0
TEXT
  5
80
  8
0
  6
BYBLOCK
 62
    11
 10
11231.770399
 20
187681.25
 30
0.0
 40
35.0
  1
550
 50
90.0
  0
POINT
  5
81
  8
DEFPOINTS
  6
BYBLOCK
 62
     0
 10
11325.0
 20
188000.0
 30
0.0
  0
POINT
  5
82
  8
DEFPOINTS
  6
BYBLOCK
 62
     0
 10
11325.0
 20
187450.0
 30
0.0
  0
POINT
  5
83
  8
DEFPOINTS
  6
BYBLOCK
 62
     0
 10
11214.270399
 20
187450.0
 30
0.0
  0
ENDBLK
  5
85
  8
0
  0
BLOCK
  8
0
  2
*D7
 70
     1
 10
0.0
 20
0.0
 30
0.0
  3
*D7
  1

  0
LINE
  5
6C
  8
0
  6
BYBLOCK
 62
     9
 10
12000.0
 20
187849.997819
 30
0.0
 11
12000.0
 21
187387.883181
 31
0.0
  0
LINE
  5
6D
  8
0
  6
BYBLOCK
 62
     9
 10
11375.0
 20
187570.0
 30
0.0
 11
11375.0
 21
187387.883181
 31
0.0
  0
LINE
  5
6E
  8
0
  6
BYBLOCK
 62
     9
 10
11980.0
 20
187388.883181
 30
0.0
 11
11741.166667
 21
187388.883181
 31
0.0
  0
LINE
  5
6F
  8
0
  6
BYBLOCK
 62
     9
 10
11395.0
 20
187388.883181
 30
0.0
 11
11633.833333
 21
187388.883181
 31
0.0
  0
SOLID
  5
70
  8
0
  6
BYBLOCK
 62
     9
 10
11980.0
 20
187392.216515
 30
0.0
 11
11980.0
 21
187385.549848
 31
0.0
 12
12000.0
 22
187388.883181
 32
0.0
 13
12000.0
 23
187388.883181
 33
0.0
  0
SOLID
  5
71
  8
0
  6
BYBLOCK
 62
     9
 10
11395.0
 20
187392.216515
 30
0.0
 11
11395.0
 21
187385.549848
 31
0.0
 12
11375.0
 22
187388.883181
 32
0.0
 13
11375.0
 23
187388.883181
 33
0.0
  0
TEXT
  5
72
  8
0
  6
BYBLOCK
 62
    11
 10
11640.833333
 20
187371.383181
 30
0.0
 40
35.0
  1
625
  0
POINT
  5
73
  8
DEFPOINTS
  6
BYBLOCK
 62
     0
 10
12000.0
 20
187859.997819
 30
0.0
  0
POINT
  5
74
  8
DEFPOINTS
  6
BYBLOCK
 62
     0
 10
11375.0
 20
187580.0
 30
0.0
  0
POINT
  5
75
  8
DEFPOINTS
  6
BYBLOCK
 62
     0
 10
11375.0
 20
187388.883181
 30
0.0
  0
ENDBLK
  5
77
  8
0
  0
BLOCK
  8
0
  2
*D8
 70
     1
 10
0.0
 20
0.0
 30
0.0
  3
*D8
  1

  0
LINE
  5
5F
  8
0
  6
BYBLOCK
 62
     9
 10
11990.0
 20
187859.997819
 30
0.0
 11
11859.777944
 21
187859.997819
 31
0.0
  0
LINE
  5
60
  8
0
  6
BYBLOCK
 62
     9
 10
11844.085244
 20
187950.0
 30
0.0
 11
11861.777944
 21
187950.0
 31
0.0
  0
LINE
  5
61
  8
0
  6
BYBLOCK
 62
     9
 10
11860.777944
 20
187879.997819
 30
0.0
 11
11860.777944
 21
187930.0
 31
0.0
  0
TEXT
  5
62
  8
0
  6
BYBLOCK
 62
    11
 10
11878.277944
 20
187786.415281
 30
0.0
 40
35.0
  1
90
 50
90.0
  0
SOLID
  5
63
  8
0
  6
BYBLOCK
 62
     9
 10
11857.44461
 20
187879.997819
 30
0.0
 11
11864.111277
 21
187879.997819
 31
0.0
 12
11860.777944
 22
187859.997819
 32
0.0
 13
11860.777944
 23
187859.997819
 33
0.0
  0
SOLID
  5
64
  8
0
  6
BYBLOCK
 62
     9
 10
11857.44461
 20
187930.0
 30
0.0
 11
11864.111277
 21
187930.0
 31
0.0
 12
11860.777944
 22
187950.0
 32
0.0
 13
11860.777944
 23
187950.0
 33
0.0
  0
POINT
  5
65
  8
DEFPOINTS
  6
BYBLOCK
 62
     0
 10
12000.0
 20
187859.997819
 30
0.0
  0
POINT
  5
66
  8
DEFPOINTS
  6
BYBLOCK
 62
     0
 10
11834.085244
 20
187950.0
 30
0.0
  0
POINT
  5
67
  8
DEFPOINTS
  6
BYBLOCK
 62
     0
 10
11860.777944
 20
187950.0
 30
0.0
  0
ENDBLK
  5
69
  8
0
  0
BLOCK
  8
0
  2
*D9
 70
     1
 10
0.0
 20
0.0
 30
0.0
  3
*D9
  1

  0
LINE
  5
31
  8
0
  6
BYBLOCK
 62
     9
 10
12425.0
 20
188010.0
 30
0.0
 11
12425.0
 21
188078.690159
 31
0.0
  0
LINE
  5
32
  8
0
  6
BYBLOCK
 62
     9
 10
11325.0
 20
188010.0
 30
0.0
 11
11325.0
 21
188078.690159
 31
0.0
  0
LINE
  5
33
  8
0
  6
BYBLOCK
 62
     9
 10
12405.0
 20
188077.690159
 30
0.0
 11
11928.666667
 21
188077.690159
 31
0.0
  0
LINE
  5
34
  8
0
  6
BYBLOCK
 62
     9
 10
11345.0
 20
188077.690159
 30
0.0
 11
11821.333333
 21
188077.690159
 31
0.0
  0
SOLID
  5
35
  8
0
  6
BYBLOCK
 62
     9
 10
12405.0
 20
188081.023492
 30
0.0
 11
12405.0
 21
188074.356825
 31
0.0
 12
12425.0
 22
188077.690159
 32
0.0
 13
12425.0
 23
188077.690159
 33
0.0
  0
SOLID
  5
36
  8
0
  6
BYBLOCK
 62
     9
 10
11345.0
 20
188081.023492
 30
0.0
 11
11345.0
 21
188074.356825
 31
0.0
 12
11325.0
 22
188077.690159
 32
0.0
 13
11325.0
 23
188077.690159
 33
0.0
  0
TEXT
  5
37
  8
0
  6
BYBLOCK
 62
    11
 10
11828.333333
 20
188060.190159
 30
0.0
 40
35.0
  1
1100
  0
POINT
  5
38
  8
DEFPOINTS
  6
BYBLOCK
 62
     0
 10
12425.0
 20
188000.0
 30
0.0
  0
POINT
  5
39
  8
DEFPOINTS
  6
BYBLOCK
 62
     0
 10
11325.0
 20
188000.0
 30
0.0
  0
POINT
  5
3A
  8
DEFPOINTS
  6
BYBLOCK
 62
     0
 10
11325.0
 20
188077.690159
 30
0.0
  0
ENDBLK
  5
3C
  8
0
  0
BLOCK
  8
0
  2
*D10
 70
     1
 10
0.0
 20
0.0
 30
0.0
  3
*D10
  1

  0
LINE
  5
50
  8
0
  6
BYBLOCK
 62
     9
 10
11325.0
 20
188010.0
 30
0.0
 11
11325.0
 21
188040.546006
 31
0.0
  0
LINE
  5
51
  8
0
  6
BYBLOCK
 62
     9
 10
12000.0
 20
187869.997819
 30
0.0
 11
12000.0
 21
188040.546006
 31
0.0
  0
LINE
  5
52
  8
0
  6
BYBLOCK
 62
     9
 10
11345.0
 20
188039.546006
 30
0.0
 11
11608.833333
 21
188039.546006
 31
0.0
  0
LINE
  5
53
  8
0
  6
BYBLOCK
 62
     9
 10
11980.0
 20
188039.546006
 30
0.0
 11
11716.166667
 21
188039.546006
 31
0.0
  0
SOLID
  5
54
  8
0
  6
BYBLOCK
 62
     9
 10
11345.0
 20
188042.879339
 30
0.0
 11
11345.0
 21
188036.212673
 31
0.0
 12
11325.0
 22
188039.546006
 32
0.0
 13
11325.0
 23
188039.546006
 33
0.0
  0
SOLID
  5
55
  8
0
  6
BYBLOCK
 62
     9
 10
11980.0
 20
188042.879339
 30
0.0
 11
11980.0
 21
188036.212673
 31
0.0
 12
12000.0
 22
188039.546006
 32
0.0
 13
12000.0
 23
188039.546006
 33
0.0
  0
TEXT
  5
56
  8
0
  6
BYBLOCK
 62
    11
 10
11615.833333
 20
188022.046006
 30
0.0
 40
35.0
  1
675
  0
POINT
  5
57
  8
DEFPOINTS
  6
BYBLOCK
 62
     0
 10
11325.0
 20
188000.0
 30
0.0
  0
POINT
  5
58
  8
DEFPOINTS
  6
BYBLOCK
 62
     0
 10
12000.0
 20
187859.997819
 30
0.0
  0
POINT
  5
59
  8
DEFPOINTS
  6
BYBLOCK
 62
     0
 10
12000.0
 20
188039.546006
 30
0.0
  0
ENDBLK
  5
5B
  8
0
  0
BLOCK
  8
0
  2
*D11
 70
     1
 10
0.0
 20
0.0
 30
0.0
  3
*D11
  1

  0
LINE
  5
22
  8
0
  6
BYBLOCK
 62
     9
 10
12000.0
 20
188010.0
 30
0.0
 11
12000.0
 21
188040.546006
 31
0.0
  0
LINE
  5
23
  8
0
  6
BYBLOCK
 62
     9
 10
12425.0
 20
188010.0
 30
0.0
 11
12425.0
 21
188040.546006
 31
0.0
  0
LINE
  5
24
  8
0
  6
BYBLOCK
 62
     9
 10
12020.0
 20
188039.546006
 30
0.0
 11
12158.833333
 21
188039.546006
 31
0.0
  0
LINE
  5
25
  8
0
  6
BYBLOCK
 62
     9
 10
12405.0
 20
188039.546006
 30
0.0
 11
12266.166667
 21
188039.546006
 31
0.0
  0
SOLID
  5
26
  8
0
  6
BYBLOCK
 62
     9
 10
12020.0
 20
188042.879339
 30
0.0
 11
12020.0
 21
188036.212673
 31
0.0
 12
12000.0
 22
188039.546006
 32
0.0
 13
12000.0
 23
188039.546006
 33
0.0
  0
SOLID
  5
27
  8
0
  6
BYBLOCK
 62
     9
 10
12405.0
 20
188042.879339
 30
0.0
 11
12405.0
 21
188036.212673
 31
0.0
 12
12425.0
 22
188039.546006
 32
0.0
 13
12425.0
 23
188039.546006
 33
0.0
  0
TEXT
  5
28
  8
0
  6
BYBLOCK
 62
    11
 10
12165.833333
 20
188022.046006
 30
0.0
 40
35.0
  1
425
  0
POINT
  5
29
  8
DEFPOINTS
  6
BYBLOCK
 62
     0
 10
12000.0
 20
188000.0
 30
0.0
  0
POINT
  5
2B
  8
DEFPOINTS
  6
BYBLOCK
 62
     0
 10
12425.0
 20
188000.0
 30
0.0
  0
POINT
  5
2C
  8
DEFPOINTS
  6
BYBLOCK
 62
     0
 10
12425.0
 20
188039.546006
 30
0.0
  0
ENDBLK
  5
2E
  8
0
  0
ENDSEC
  0
SECTION
  2
ENTITIES
  0
DIMENSION
  5
20
  8
TEAM-MAS
  2
*D11
 10
425.0
 20
39.546006
 30
0.0
 11
212.5
 21
39.546006
 31
0.0
 12
-12000.0
 22
-188000.0
 32
0.0
 13
0.0
 23
0.0
 33
0.0
 14
425.0
 24
0.0
 34
0.0
  0
DIMENSION
  5
2F
  8
TEAM-MAS
  2
*D9
 10
-675.0
 20
77.690159
 30
0.0
 11
-125.0
 21
77.690159
 31
0.0
 12
-12000.0
 22
-188000.0
 32
0.0
 13
425.0
 23
0.0
 33
0.0
 14
-675.0
 24
0.0
 34
0.0
  0
DIMENSION
  5
3D
  8
TEAM-MAS
  2
*D0
 10
90.0
 20
-611.016819
 30
0.0
 11
257.5
 21
-611.016819
 31
0.0
 12
-12000.0
 22
-188000.0
 32
0.0
 13
425.0
 23
-550.0
 33
0.0
 14
90.0
 24
-420.0
 34
0.0
  0
LINE
  5
4B
  8
TEAM-BODY
 10
425.0
 20
0.0
 30
0.0
 11
-675.0
 21
0.0
 31
0.0
  0
LINE
  5
4D
  8
TEAM-BODY
 10
-675.0
 20
-550.0
 30
0.0
 11
425.0
 21
-550.0
 31
0.0
  0
DIMENSION
  5
4E
  8
TEAM-MAS
  2
*D10
 10
0.0
 20
39.546006
 30
0.0
 11
-337.5
 21
39.546006
 31
0.0
 12
-12000.0
 22
-188000.0
 32
0.0
 13
-675.0
 23
0.0
 33
0.0
 14
0.0
 24
-140.002181
 34
0.0
  0
DIMENSION
  5
5C
  8
07930000BE00
  2
*D8
 10
-139.222056
 20
-50.0
 30
0.0
 11
-139.222056
 21
-187.334719
 31
0.0
 12
-12000.0
 22
-188000.0
 32
0.0
 70
   128
 13
0.0
 23
-140.002181
 33
0.0
 14
-165.914756
 24
-50.0
 34
0.0
 50
270.0
  0
DIMENSION
  5
6A
  8
TEAM-MAS
  2
*D7
 10
-625.0
 20
-611.116819
 30
0.0
 11
-312.5
 21
-611.116819
 31
0.0
 12
-12000.0
 22
-188000.0
 32
0.0
 13
0.0
 23
-140.002181
 33
0.0
 14
-625.0
 24
-420.0
 34
0.0
  0
DIMENSION
  5
78
  8
TEAM-MAS
  2
*D6
 10
-785.729601
 20
-550.0
 30
0.0
 11
-785.729601
 21
-275.0
 31
0.0
 12
-12000.0
 22
-188000.0
 32
0.0
 13
-675.0
 23
0.0
 33
0.0
 14
-675.0
 24
-550.0
 34
0.0
 50
270.0
  0
DIMENSION
  5
86
  8
TEAM-MAS
  2
*D5
 10
-741.561439
 20
-50.0
 30
0.0
 11
-741.561439
 21
-275.0
 31
0.0
 12
-12000.0
 22
-188000.0
 32
0.0
 13
-545.0
 23
-500.0
 33
0.0
 14
-545.0
 24
-50.0
 34
0.0
 50
270.0
  0
DIMENSION
  5
94
  8
TEAM-MAS
  2
*D4
 10
-741.561439
 20
0.0
 30
0.0
 11
-743.666975
 21
72.86903
 31
0.0
 12
-12000.0
 22
-188000.0
 32
0.0
 70
   128
 13
-545.0
 23
-50.0
 33
0.0
 14
-675.0
 24
0.0
 34
0.0
 50
270.0
  0
DIMENSION
  5
A3
  8
TEAM-MAS
  2
*D3
 10
-741.461439
 20
-500.0
 30
0.0
 11
-741.83218
 21
-622.422586
 31
0.0
 12
-12000.0
 22
-188000.0
 32
0.0
 70
   128
 13
-675.0
 23
-550.0
 33
0.0
 14
-545.0
 24
-500.0
 34
0.0
 50
270.0
  0
DIMENSION
  5
B2
  8
TEAM-MAS
  2
*D2
 10
-675.0
 20
-611.116819
 30
0.0
 11
-578.479193
 21
-578.710891
 31
0.0
 12
-12000.0
 22
-188000.0
 32
0.0
 70
   128
 13
-625.0
 23
-420.0
 33
0.0
 14
-675.0
 24
-550.0
 34
0.0
  0
DIMENSION
  5
C1
  8
TEAM-MAS
  2
*D1
 10
0.0
 20
-611.016819
 30
0.0
 11
39.935721
 21
-581.16841
 31
0.0
 12
-12000.0
 22
-188000.0
 32
0.0
 70
   128
 13
90.0
 23
-420.0
 33
0.0
 14
0.0
 24
-140.002181
 34
0.0
  0
ARC
  5
CE
  8
TEAM-DET1
 10
-9.601602
 20
-147.616162
 30
0.0
 40
60.0
 50
180.0
 51
270.0
  0
LINE
  5
D0
  8
TEAM-BODY
 10
10.0
 20
-50.0
 30
0.0
 11
-545.0
 21
-50.0
 31
0.0
  0
LINE
  5
D1
  8
TEAM-BODY
 10
-545.0
 20
-500.0
 30
0.0
 11
10.0
 21
-500.0
 31
0.0
  0
LINE
  5
D2
  8
TEAM-DET1
 10
385.0
 20
-20.0
 30
0.0
 11
-635.0
 21
-20.0
 31
0.0
  0
LINE
  5
D3
  8
TEAM-DET1
 10
-635.0
 20
-530.0
 30
0.0
 11
385.0
 21
-530.0
 31
0.0
  0
LINE
  5
D4
  8
TEAM-AXE
 10
-203.5
 20
0.0
 30
0.0
 11
-163.5
 21
0.0
 31
0.0
  0
CIRCLE
  5
D7
  8
TEAM-COLD
 10
-183.5
 20
0.0
 30
0.0
 40
15.0
  0
LINE
  5
D9
  8
TEAM-AXE
 10
-183.5
 20
20.0
 30
0.0
 11
-183.5
 21
-20.0
 31
0.0
  0
CIRCLE
  5
DA
  8
TEAM-WARM
 10
-336.5
 20
0.0
 30
0.0
 40
15.0
  0
LINE
  5
DC
  8
TEAM-AXE
 10
-336.5
 20
20.0
 30
0.0
 11
-336.5
 21
-20.0
 31
0.0
  0
LINE
  5
DD
  8
TEAM-AXE
 10
-356.5
 20
0.0
 30
0.0
 11
-316.5
 21
0.0
 31
0.0
  0
LINE
  5
DE
  8
TEAM-BODY
 10
-625.0
 20
-130.0
 30
0.0
 11
-625.0
 21
-420.0
 31
0.0
  0
LINE
  5
DF
  8
TEAM-DET1
 10
-655.0
 20
-40.0
 30
0.0
 11
-655.0
 21
-510.0
 31
0.0
  0
LINE
  5
E0
  8
TEAM-BODY
 10
-675.0
 20
0.0
 30
0.0
 11
-675.0
 21
-550.0
 31
0.0
  0
ARC
  5
E1
  8
TEAM-BODY
 10
-545.0
 20
-420.0
 30
0.0
 40
80.0
 50
180.0
 51
270.0
  0
ARC
  5
E2
  8
TEAM-DET1
 10
-635.0
 20
-510.0
 30
0.0
 40
20.0
 50
180.0
 51
270.0
  0
ARC
  5
E3
  8
TEAM-BODY
 10
-545.0
 20
-130.0
 30
0.0
 40
80.0
 50
90.0
 51
180.0
  0
ARC
  5
E4
  8
TEAM-DET1
 10
-635.0
 20
-40.0
 30
0.0
 40
20.0
 50
90.0
 51
180.0
  0
TEXT
  5
E5
  8
TEAM-TXT
 10
-504.592723
 20
-464.904553
 30
0.0
 40
30.0
  1
team 433302
 41
0.8
 51
15.0
  7
TEAM
  0
LINE
  5
E8
  8
TEAM-DET1
 10
405.0
 20
-510.0
 30
0.0
 11
405.0
 21
-40.0
 31
0.0
  0
LINE
  5
E9
  8
TEAM-DET1
 10
120.270435
 20
-476.735207
 30
0.0
 11
371.466824
 21
-476.735207
 31
0.0
  0
LINE
  5
EA
  8
TEAM-DET1
 10
120.270435
 20
-446.735207
 30
0.0
 11
371.466824
 21
-446.735207
 31
0.0
  0
LINE
  5
EB
  8
TEAM-DET1
 10
120.270435
 20
-416.735207
 30
0.0
 11
371.466824
 21
-416.735207
 31
0.0
  0
LINE
  5
EC
  8
TEAM-DET1
 10
120.270435
 20
-386.735207
 30
0.0
 11
371.466824
 21
-386.735207
 31
0.0
  0
LINE
  5
ED
  8
TEAM-DET1
 10
120.270435
 20
-356.735207
 30
0.0
 11
371.466824
 21
-356.735207
 31
0.0
  0
LINE
  5
EE
  8
TEAM-DET1
 10
120.270435
 20
-326.735207
 30
0.0
 11
371.466824
 21
-326.735207
 31
0.0
  0
LINE
  5
EF
  8
TEAM-DET1
 10
120.270435
 20
-296.735207
 30
0.0
 11
371.466824
 21
-296.735207
 31
0.0
  0
LINE
  5
F0
  8
TEAM-DET1
 10
120.270435
 20
-266.735207
 30
0.0
 11
371.466824
 21
-266.735207
 31
0.0
  0
LINE
  5
F1
  8
TEAM-DET1
 10
120.270435
 20
-236.735207
 30
0.0
 11
371.466824
 21
-236.735207
 31
0.0
  0
LINE
  5
F2
  8
TEAM-DET1
 10
120.270435
 20
-206.735207
 30
0.0
 11
371.466824
 21
-206.735207
 31
0.0
  0
ARC
  5
F3
  8
TEAM-DET1
 10
385.0
 20
-510.0
 30
0.0
 40
20.0
 50
270.0
 51
0.0
  0
LINE
  5
F4
  8
TEAM-DET1
 10
120.270435
 20
-176.735207
 30
0.0
 11
371.466824
 21
-176.735207
 31
0.0
  0
LINE
  5
F5
  8
TEAM-DET1
 10
120.270435
 20
-146.735207
 30
0.0
 11
371.466824
 21
-146.735207
 31
0.0
  0
LINE
  5
F6
  8
TEAM-DET1
 10
120.270435
 20
-116.735207
 30
0.0
 11
371.466824
 21
-116.735207
 31
0.0
  0
LINE
  5
F7
  8
TEAM-DET1
 10
120.270435
 20
-86.735207
 30
0.0
 11
371.466824
 21
-86.735207
 31
0.0
  0
LINE
  5
F8
  8
TEAM-DET1
 10
120.270435
 20
-56.735207
 30
0.0
 11
371.466824
 21
-56.735207
 31
0.0
  0
ARC
  5
F9
  8
TEAM-DET1
 10
385.0
 20
-40.0
 30
0.0
 40
20.0
 50
0.0
 51
90.0
  0
CIRCLE
  5
FA
  8
TEAM-INSP
 10
0.0
 20
0.0
 30
0.0
 40
10.0
  0
CIRCLE
  5
FC
  8
TEAM-BODY
 10
0.0
 20
-140.002181
 30
0.0
 40
26.0
  0
CIRCLE
  5
FD
  8
TEAM-DET1
 10
0.0
 20
-140.002181
 30
0.0
 40
21.0
  0
LINE
  5
FE
  8
TEAM-AXE
 10
0.0
 20
-171.002181
 30
0.0
 11
0.0
 21
-109.002181
 31
0.0
  0
ARC
  5
FF
  8
TEAM-BODY
 10
10.0
 20
-130.0
 30
0.0
 40
80.0
 50
0.0
 51
90.0
  0
LINE
  5
100
  8
TEAM-DET1
 10
-69.601602
 20
-50.0
 30
0.0
 11
-69.601602
 21
-147.616162
 31
0.0
  0
LINE
  5
101
  8
TEAM-AXE
 10
-31.0
 20
-140.002181
 30
0.0
 11
31.0
 21
-140.002181
 31
0.0
  0
LINE
  5
102
  8
TEAM-DET1
 10
-9.601602
 20
-207.616162
 30
0.0
 11
90.0
 21
-207.616162
 31
0.0
  0
ARC
  5
103
  8
TEAM-BODY
 10
10.0
 20
-420.0
 30
0.0
 40
80.0
 50
270.0
 51
0.0
  0
LINE
  5
104
  8
TEAM-BODY
 10
90.0
 20
-130.0
 30
0.0
 11
90.0
 21
-420.0
 31
0.0
  0
LINE
  5
105
  8
TEAM-BODY
 10
425.0
 20
-550.0
 30
0.0
 11
425.0
 21
0.0
 31
0.0
  0
ENDSEC
  0
EOF
