  0
SECTION
  2
HEADER
  9
$ACADVER
  1
AC1009
  9
$INSBASE
 10
0.0
 20
0.0
 30
0.0
  9
$EXTMIN
 10
-250.000049
 20
-78.423133
 30
-0.000006
  9
$EXTMAX
 10
324.044483
 20
150.015168
 30
0.000006
  9
$LIMMIN
 10
-250.000049
 20
-78.423133
  9
$LIMMAX
 10
324.044483
 20
150.015168
  9
$ORTHOMODE
 70
     1
  9
$REGENMODE
 70
     1
  9
$FILLMODE
 70
     1
  9
$QTEXTMODE
 70
     0
  9
$MIRRTEXT
 70
     0
  9
$DRAGMODE
 70
     2
  9
$LTSCALE
 40
50.0
  9
$OSMODE
 70
     0
  9
$ATTMODE
 70
     1
  9
$TEXTSIZE
 40
200.0
  9
$TRACEWID
 40
1.0
  9
$TEXTSTYLE
  7
STANDARD
  9
$CLAYER
  8
TEAM-MAS
  9
$CELTYPE
  6
BYLAYER
  9
$CECOLOR
 62
   256
  9
$DIMSCALE
 40
1.0
  9
$DIMASZ
 40
20.0
  9
$DIMEXO
 40
10.0
  9
$DIMDLI
 40
1.0
  9
$DIMRND
 40
0.0
  9
$DIMDLE
 40
0.0
  9
$DIMEXE
 40
1.0
  9
$DIMTP
 40
0.0
  9
$DIMTM
 40
0.0
  9
$DIMTXT
 40
35.0
  9
$DIMCEN
 40
1.0
  9
$DIMTSZ
 40
0.0
  9
$DIMTOL
 70
     0
  9
$DIMLIM
 70
     0
  9
$DIMTIH
 70
     0
  9
$DIMTOH
 70
     0
  9
$DIMSE1
 70
     0
  9
$DIMSE2
 70
     0
  9
$DIMTAD
 70
     0
  9
$DIMZIN
 70
     0
  9
$DIMBLK
  1

  9
$DIMASO
 70
     1
  9
$DIMSHO
 70
     0
  9
$DIMPOST
  1

  9
$DIMAPOST
  1

  9
$DIMALT
 70
     0
  9
$DIMALTD
 70
     2
  9
$DIMALTF
 40
25.4
  9
$DIMLFAC
 40
1.0
  9
$DIMTOFL
 70
     0
  9
$DIMTVP
 40
0.0
  9
$DIMTIX
 70
     0
  9
$DIMSOXD
 70
     0
  9
$DIMSAH
 70
     0
  9
$DIMBLK1
  1

  9
$DIMBLK2
  1

  9
$DIMSTYLE
  2
TEAM
  9
$DIMCLRD
 70
     9
  9
$DIMCLRE
 70
     9
  9
$DIMCLRT
 70
    11
  9
$DIMTFAC
 40
1.0
  9
$DIMGAP
 40
7.0
  9
$LUNITS
 70
     2
  9
$LUPREC
 70
     1
  9
$SKETCHINC
 40
1.0
  9
$FILLETRAD
 40
50.0
  9
$AUNITS
 70
     0
  9
$AUPREC
 70
     0
  9
$MENU
  1
ROPLANS
  9
$ELEVATION
 40
0.0
  9
$PELEVATION
 40
0.0
  9
$THICKNESS
 40
0.0
  9
$LIMCHECK
 70
     0
  9
$BLIPMODE
 70
     1
  9
$CHAMFERA
 40
0.0
  9
$CHAMFERB
 40
0.0
  9
$SKPOLY
 70
     0
  9
$TDCREATE
 40
2450392.957851
  9
$TDUPDATE
 40
2456118.662559
  9
$TDINDWG
 40
5.307301
  9
$TDUSRTIMER
 40
5.307301
  9
$USRTIMER
 70
     1
  9
$ANGBASE
 50
0.0
  9
$ANGDIR
 70
     0
  9
$PDMODE
 70
     0
  9
$PDSIZE
 40
0.0
  9
$PLINEWID
 40
0.0
  9
$COORDS
 70
     2
  9
$SPLFRAME
 70
     0
  9
$SPLINETYPE
 70
     6
  9
$SPLINESEGS
 70
     8
  9
$ATTDIA
 70
     0
  9
$ATTREQ
 70
     0
  9
$HANDLING
 70
     1
  9
$HANDSEED
  5
D5
  9
$SURFTAB1
 70
    24
  9
$SURFTAB2
 70
    24
  9
$SURFTYPE
 70
     6
  9
$SURFU
 70
     6
  9
$SURFV
 70
     6
  9
$UCSNAME
  2

  9
$UCSORG
 10
0.0
 20
0.0
 30
0.0
  9
$UCSXDIR
 10
1.0
 20
0.0
 30
0.0
  9
$UCSYDIR
 10
0.0
 20
1.0
 30
0.0
  9
$PUCSNAME
  2

  9
$PUCSORG
 10
0.0
 20
0.0
 30
0.0
  9
$PUCSXDIR
 10
1.0
 20
0.0
 30
0.0
  9
$PUCSYDIR
 10
0.0
 20
1.0
 30
0.0
  9
$USERI1
 70
     0
  9
$USERI2
 70
     0
  9
$USERI3
 70
     0
  9
$USERI4
 70
     0
  9
$USERI5
 70
     0
  9
$USERR1
 40
0.0
  9
$USERR2
 40
0.0
  9
$USERR3
 40
0.0
  9
$USERR4
 40
0.0
  9
$USERR5
 40
0.0
  9
$WORLDVIEW
 70
     1
  9
$SHADEDGE
 70
     0
  9
$SHADEDIF
 70
    70
  9
$TILEMODE
 70
     1
  9
$MAXACTVP
 70
    16
  9
$PLIMCHECK
 70
     0
  9
$PEXTMIN
 10
-0.805942
 20
0.005011
 30
0.0
  9
$PEXTMAX
 10
20.250094
 20
11.356329
 30
0.0
  9
$PLIMMIN
 10
0.0
 20
0.0
  9
$PLIMMAX
 10
12.0
 20
9.0
  9
$UNITMODE
 70
     0
  9
$VISRETAIN
 70
     0
  9
$PLINEGEN
 70
     0
  9
$PSLTSCALE
 70
     0
  0
ENDSEC
  0
SECTION
  2
TABLES
  0
TABLE
  2
VPORT
 70
     2
  0
VPORT
  2
*ACTIVE
 70
     0
 10
0.0
 20
0.0
 11
1.0
 21
1.0
 12
37.022217
 22
35.796017
 13
0.0
 23
0.0
 14
1.0
 24
1.0
 15
50.0
 25
50.0
 16
0.0
 26
0.0
 36
1.0
 17
0.0
 27
0.0
 37
0.0
 40
301.258308
 41
1.911765
 42
50.0
 43
0.0
 44
0.0
 50
0.0
 51
0.0
 71
     0
 72
   100
 73
     1
 74
     1
 75
     0
 76
     0
 77
     0
 78
     0
  0
ENDTAB
  0
TABLE
  2
LTYPE
 70
     3
  0
LTYPE
  2
CONTINUOUS
 70
     0
  3
Solid Line
 72
    65
 73
     0
 40
0.0
  0
LTYPE
  2
31
 70
     0
  3

 72
    65
 73
     4
 40
2.1
 49
1.5
 49
-0.3
 49
0.0
 49
-0.3
  0
LTYPE
  2
22
 70
     0
  3

 72
    65
 73
     2
 40
1.4
 49
1.2
 49
-0.2
  0
ENDTAB
  0
TABLE
  2
LAYER
 70
     9
  0
LAYER
  2
0
 70
     0
 62
     7
  6
CONTINUOUS
  0
LAYER
  2
DEFPOINTS
 70
     0
 62
     7
  6
CONTINUOUS
  0
LAYER
  2
TEAM-AXE
 70
     0
 62
    10
  6
31
  0
LAYER
  2
TEAM-MAS
 70
     0
 62
     9
  6
CONTINUOUS
  0
LAYER
  2
TEAM-TXT
 70
     0
 62
    11
  6
CONTINUOUS
  0
LAYER
  2
TEAM-DET2
 70
     0
 62
    11
  6
CONTINUOUS
  0
LAYER
  2
TEAM-HIDE
 70
     0
 62
     8
  6
22
  0
LAYER
  2
TEAM-DET3
 70
     0
 62
    14
  6
CONTINUOUS
  0
LAYER
  2
TEAM-INSP
 70
     0
 62
     5
  6
CONTINUOUS
  0
ENDTAB
  0
TABLE
  2
STYLE
 70
     2
  0
STYLE
  2
STANDARD
 70
     0
 40
0.0
 41
1.0
 50
0.0
 71
     0
 42
200.0
  3
txt
  4

  0
STYLE
  2
TEAM
 70
     0
 40
0.0
 41
0.8
 50
15.0
 71
     0
 42
7.0
  3
ROMANS.shx
  4

  0
ENDTAB
  0
TABLE
  2
VIEW
 70
     0
  0
ENDTAB
  0
TABLE
  2
UCS
 70
     0
  0
ENDTAB
  0
TABLE
  2
APPID
 70
     1
  0
APPID
  2
ACAD
 70
     0
  0
ENDTAB
  0
TABLE
  2
DIMSTYLE
 70
     1
  0
DIMSTYLE
  2
TEAM
 70
     0
  3

  4

  5

  6

  7

 40
1.0
 41
20.0
 42
10.0
 43
1.0
 44
1.0
 45
0.0
 46
0.0
 47
0.0
 48
0.0
140
35.0
141
1.0
142
0.0
143
25.4
144
1.0
145
0.0
146
1.0
147
7.0
 71
     0
 72
     0
 73
     0
 74
     0
 75
     0
 76
     0
 77
     0
 78
     0
170
     0
171
     2
172
     0
173
     0
174
     0
175
     0
176
     9
177
     9
178
    11
  0
ENDTAB
  0
ENDSEC
  0
SECTION
  2
BLOCKS
  0
BLOCK
  8
0
  2
$MODEL_SPACE
 70
     0
 10
0.0
 20
0.0
 30
0.0
  3
$MODEL_SPACE
  1

  0
ENDBLK
  5
CE
  8
0
  0
BLOCK
 67
     1
  8
0
  2
$PAPER_SPACE
 70
     0
 10
0.0
 20
0.0
 30
0.0
  3
$PAPER_SPACE
  1

  0
ENDBLK
  5
CC
 67
     1
  8
0
  0
BLOCK
  8
0
  2
*D0
 70
     1
 10
0.0
 20
0.0
 30
0.0
  3
*D0
  1

  0
LINE
  5
32
  8
0
  6
BYBLOCK
 62
     9
 10
3750.0
 20
19989.997993
 30
0.0
 11
3750.0
 21
19938.082097
 31
0.0
  0
LINE
  5
33
  8
0
  6
BYBLOCK
 62
     9
 10
4250.0
 20
19989.997993
 30
0.0
 11
4250.0
 21
19938.082097
 31
0.0
  0
LINE
  5
34
  8
0
  6
BYBLOCK
 62
     9
 10
3770.0
 20
19939.082097
 30
0.0
 11
3952.166667
 21
19939.082097
 31
0.0
  0
LINE
  5
35
  8
0
  6
BYBLOCK
 62
     9
 10
4230.0
 20
19939.082097
 30
0.0
 11
4047.833333
 21
19939.082097
 31
0.0
  0
SOLID
  5
36
  8
0
  6
BYBLOCK
 62
     9
 10
3770.0
 20
19942.415431
 30
0.0
 11
3770.0
 21
19935.748764
 31
0.0
 12
3750.0
 22
19939.082097
 32
0.0
 13
3750.0
 23
19939.082097
 33
0.0
  0
SOLID
  5
37
  8
0
  6
BYBLOCK
 62
     9
 10
4230.0
 20
19942.415431
 30
0.0
 11
4230.0
 21
19935.748764
 31
0.0
 12
4250.0
 22
19939.082097
 32
0.0
 13
4250.0
 23
19939.082097
 33
0.0
  0
TEXT
  5
38
  8
0
  6
BYBLOCK
 62
    11
 10
3959.166667
 20
19921.582097
 30
0.0
 40
35.0
  1
500
  0
POINT
  5
39
  8
DEFPOINTS
  6
BYBLOCK
 62
     0
 10
3750.0
 20
19999.997993
 30
0.0
  0
POINT
  5
3B
  8
DEFPOINTS
  6
BYBLOCK
 62
     0
 10
4250.0
 20
19999.997993
 30
0.0
  0
POINT
  5
3C
  8
DEFPOINTS
  6
BYBLOCK
 62
     0
 10
4250.0
 20
19939.082097
 30
0.0
  0
ENDBLK
  5
3E
  8
0
  0
BLOCK
  8
0
  2
*D1
 70
     1
 10
0.0
 20
0.0
 30
0.0
  3
*D1
  1

  0
LINE
  5
5D
  8
0
  6
BYBLOCK
 62
     9
 10
4260.0
 20
19999.997993
 30
0.0
 11
4307.516621
 21
19999.997993
 31
0.0
  0
LINE
  5
5E
  8
0
  6
BYBLOCK
 62
     9
 10
4229.0
 20
20109.998122
 30
0.0
 11
4307.516621
 21
20109.998122
 31
0.0
  0
LINE
  5
5F
  8
0
  6
BYBLOCK
 62
     9
 10
4306.516621
 20
19979.997993
 30
0.0
 11
4306.516621
 21
19959.997993
 31
0.0
  0
LINE
  5
60
  8
0
  6
BYBLOCK
 62
     9
 10
4306.516621
 20
20129.998122
 30
0.0
 11
4306.516621
 21
20149.998122
 31
0.0
  0
SOLID
  5
61
  8
0
  6
BYBLOCK
 62
     9
 10
4303.183288
 20
19979.997993
 30
0.0
 11
4309.849955
 21
19979.997993
 31
0.0
 12
4306.516621
 22
19999.997993
 32
0.0
 13
4306.516621
 23
19999.997993
 33
0.0
  0
SOLID
  5
62
  8
0
  6
BYBLOCK
 62
     9
 10
4303.183288
 20
20129.998122
 30
0.0
 11
4309.849955
 21
20129.998122
 31
0.0
 12
4306.516621
 22
20109.998122
 32
0.0
 13
4306.516621
 23
20109.998122
 33
0.0
  0
TEXT
  5
63
  8
0
  6
BYBLOCK
 62
    11
 10
4324.016621
 20
20022.914724
 30
0.0
 40
35.0
  1
110
 50
90.0
  0
POINT
  5
64
  8
DEFPOINTS
  6
BYBLOCK
 62
     0
 10
4250.0
 20
19999.997993
 30
0.0
  0
POINT
  5
65
  8
DEFPOINTS
  6
BYBLOCK
 62
     0
 10
4219.0
 20
20109.998122
 30
0.0
  0
POINT
  5
66
  8
DEFPOINTS
  6
BYBLOCK
 62
     0
 10
4306.516621
 20
20109.998122
 30
0.0
  0
ENDBLK
  5
68
  8
0
  0
ENDSEC
  0
SECTION
  2
ENTITIES
  0
LINE
  5
20
  8
TEAM-DET2
 10
-250.0
 20
-0.002007
 30
0.0
 11
250.0
 21
-0.002007
 31
0.0
  0
LINE
  5
22
  8
TEAM-HIDE
 10
-220.0
 20
3.997993
 30
0.0
 11
220.0
 21
3.997993
 31
0.0
  0
LINE
  5
25
  8
TEAM-DET3
  6
CONTINUOUS
 10
-213.0
 20
69.997974
 30
0.0
 11
213.0
 21
69.998122
 31
0.0
  0
LINE
  5
27
  8
TEAM-DET3
 10
-213.0
 20
44.997993
 30
0.0
 11
213.0
 21
44.997993
 31
0.0
  0
LINE
  5
28
  8
TEAM-DET2
 10
-100.0
 20
19.997993
 30
0.0
 11
100.0
 21
19.997993
 31
0.0
  0
LINE
  5
29
  8
TEAM-DET3
 10
-100.0
 20
23.997993
 30
0.0
 11
100.0
 21
23.997993
 31
0.0
  0
LINE
  5
2A
  8
TEAM-DET3
  6
CONTINUOUS
 10
-102.49816
 20
41.49824
 30
0.0
 11
-50.50184
 21
41.49824
 31
0.0
  0
LINE
  5
2B
  8
TEAM-DET3
  6
CONTINUOUS
 10
-102.49816
 20
44.997993
 30
0.0
 11
-50.50184
 21
44.997993
 31
0.0
  0
LINE
  5
2C
  8
TEAM-HIDE
 10
-86.999257
 20
-3.000167
 30
0.0
 11
-66.000743
 21
-3.000167
 31
0.0
  0
LINE
  5
2D
  8
TEAM-DET3
  6
CONTINUOUS
 10
-63.000956
 20
-32.997973
 30
0.0
 11
-89.999044
 21
-32.997973
 31
0.0
  0
ARC
  5
2E
  8
TEAM-HIDE
 10
-76.5
 20
24.997993
 30
0.0
 40
10.5
 50
270.0
 51
180.0
  0
CIRCLE
  5
2F
  8
TEAM-HIDE
 10
-76.5
 20
24.997993
 30
0.0
 40
9.3
  0
DIMENSION
  5
30
  8
TEAM-MAS
  2
*D0
 10
250.0
 20
-60.917903
 30
0.0
 11
0.0
 21
-60.917903
 31
0.0
 12
-4000.0
 22
-20000.0
 32
0.0
 13
-250.0
 23
-0.002007
 33
0.0
 14
250.0
 24
-0.002007
 34
0.0
1001
ACAD
1000
DSTYLE
1002
{
1070
    40
1040
1.0
1002
}
  0
TEXT
  5
3F
  8
TEAM-TXT
 10
-191.075711
 20
85.553482
 30
0.0
 40
30.0
  1
team 871018
 41
0.8
 51
15.0
  7
TEAM
  0
LINE
  5
42
  8
TEAM-DET3
 10
-199.0
 20
109.998122
 30
0.0
 11
-199.0
 21
108.998122
 31
0.0
  0
LINE
  5
43
  8
TEAM-DET3
 10
-219.0
 20
108.998122
 30
0.0
 11
-199.0
 21
108.998122
 31
0.0
  0
LINE
  5
44
  8
TEAM-DET3
 10
-220.0
 20
109.998122
 30
0.0
 11
-199.0
 21
109.998122
 31
0.0
  0
LINE
  5
45
  8
TEAM-DET3
 10
-219.0
 20
108.998122
 30
0.0
 11
-219.0
 21
39.997993
 31
0.0
  0
LINE
  5
46
  8
TEAM-DET2
 10
-250.0
 20
39.997993
 30
0.0
 11
-100.0
 21
39.997993
 31
0.0
  0
LINE
  5
47
  8
TEAM-HIDE
 10
-220.0
 20
23.997993
 30
0.0
 11
-100.0
 21
23.997993
 31
0.0
  0
LINE
  5
48
  8
TEAM-DET2
 10
-250.0
 20
-0.002007
 30
0.0
 11
-250.0
 21
39.997993
 31
0.0
  0
LINE
  5
49
  8
TEAM-HIDE
 10
-220.0
 20
-0.002007
 30
0.0
 11
-220.0
 21
39.997993
 31
0.0
  0
LINE
  5
4A
  8
TEAM-DET3
 10
-213.0
 20
69.997974
 30
0.0
 11
-213.0
 21
39.997993
 31
0.0
  0
LINE
  5
4B
  8
TEAM-DET2
 10
-100.0
 20
19.997993
 30
0.0
 11
-100.0
 21
39.997993
 31
0.0
  0
LINE
  5
4C
  8
TEAM-DET3
  6
CONTINUOUS
 10
-102.49816
 20
44.997993
 30
0.0
 11
-102.49816
 21
41.49824
 31
0.0
  0
LINE
  5
4D
  8
TEAM-DET3
  6
CONTINUOUS
 10
-89.49908
 20
41.49824
 30
0.0
 11
-89.49908
 21
23.997993
 31
0.0
  0
LINE
  5
4E
  8
TEAM-HIDE
 10
-85.499363
 20
-32.997973
 30
0.0
 11
-85.499363
 21
41.49824
 31
0.0
  0
LINE
  5
4F
  8
TEAM-HIDE
 10
-86.999257
 20
-3.000167
 30
0.0
 11
-85.499363
 21
-1.500273
 31
0.0
  0
LINE
  5
50
  8
TEAM-DET3
  6
CONTINUOUS
 10
-89.999044
 20
-32.997973
 30
0.0
 11
-89.999044
 21
-22.99868
 31
0.0
  0
LINE
  5
51
  8
TEAM-HIDE
 10
-86.999257
 20
-32.997973
 30
0.0
 11
-86.999257
 21
-3.000167
 31
0.0
  0
LINE
  5
52
  8
TEAM-DET3
  6
CONTINUOUS
 10
-89.999044
 20
-22.99868
 30
0.0
 11
-89.49908
 21
-21.268803
 31
0.0
  0
LINE
  5
53
  8
TEAM-DET3
  6
CONTINUOUS
 10
-96.498584
 20
41.49824
 30
0.0
 11
-96.498584
 21
44.997993
 31
0.0
  0
LINE
  5
54
  8
TEAM-DET3
  6
CONTINUOUS
 10
-89.49908
 20
-0.002007
 30
0.0
 11
-89.49908
 21
-21.268803
 31
0.0
  0
LINE
  5
55
  8
TEAM-HIDE
 10
-89.49908
 20
23.997993
 30
0.0
 11
-89.49908
 21
-0.002007
 31
0.0
  0
LINE
  5
56
  8
TEAM-DET3
 10
-220.0
 20
109.998122
 30
0.0
 11
-220.0
 21
39.997993
 31
0.0
  0
LINE
  5
57
  8
TEAM-DET3
 10
199.0
 20
109.998122
 30
0.0
 11
199.0
 21
108.998122
 31
0.0
  0
LINE
  5
58
  8
TEAM-DET3
 10
199.0
 20
108.998122
 30
0.0
 11
219.0
 21
108.998122
 31
0.0
  0
LINE
  5
59
  8
TEAM-DET3
 10
199.0
 20
109.998122
 30
0.0
 11
220.0
 21
109.998122
 31
0.0
  0
LINE
  5
5A
  8
TEAM-DET3
 10
219.0
 20
108.998122
 30
0.0
 11
219.0
 21
39.997993
 31
0.0
  0
DIMENSION
  5
5B
  8
TEAM-MAS
  2
*D1
 10
306.516621
 20
109.998122
 30
0.0
 11
306.516621
 21
54.998057
 31
0.0
 12
-4000.0
 22
-20000.0
 32
0.0
 13
250.0
 23
-0.002007
 33
0.0
 14
219.0
 24
109.998122
 34
0.0
 50
90.0
1001
ACAD
1000
DSTYLE
1002
{
1070
    40
1040
1.0
1002
}
  0
CIRCLE
  5
69
  8
TEAM-INSP
 10
0.0
 20
0.0
 30
0.0
 40
10.0
  0
LINE
  5
6B
  8
TEAM-AXE
 10
0.0
 20
-32.864011
 30
0.0
 11
0.0
 21
74.997993
 31
0.0
  0
ARC
  5
6E
  8
TEAM-HIDE
 10
0.0
 20
49.997993
 30
0.0
 40
25.0
 50
126.869707
 51
53.130333
  0
ARC
  5
6F
  8
TEAM-HIDE
 10
0.0
 20
49.997993
 30
0.0
 40
25.0
 50
53.130333
 51
126.869707
  0
LINE
  5
70
  8
TEAM-DET3
 10
213.0
 20
69.998122
 30
0.0
 11
213.0
 21
39.997993
 31
0.0
  0
LINE
  5
71
  8
TEAM-DET2
 10
250.0
 20
-0.002007
 30
0.0
 11
250.0
 21
39.997993
 31
0.0
  0
LINE
  5
72
  8
TEAM-HIDE
 10
220.0
 20
-0.002007
 30
0.0
 11
220.0
 21
39.997993
 31
0.0
  0
LINE
  5
73
  8
TEAM-DET2
 10
100.0
 20
19.997993
 30
0.0
 11
100.0
 21
39.997993
 31
0.0
  0
LINE
  5
74
  8
TEAM-DET2
 10
250.0
 20
39.997993
 30
0.0
 11
100.0
 21
39.997993
 31
0.0
  0
LINE
  5
75
  8
TEAM-HIDE
 10
100.0
 20
23.997993
 30
0.0
 11
220.0
 21
23.997993
 31
0.0
  0
LINE
  5
76
  8
TEAM-DET3
  6
CONTINUOUS
 10
-63.50092
 20
41.49824
 30
0.0
 11
-63.50092
 21
23.997993
 31
0.0
  0
LINE
  5
77
  8
TEAM-HIDE
 10
-67.500637
 20
-32.997973
 30
0.0
 11
-67.500637
 21
41.49824
 31
0.0
  0
LINE
  5
78
  8
TEAM-HIDE
 10
-66.000743
 20
-3.000167
 30
0.0
 11
-67.500637
 21
-1.500273
 31
0.0
  0
LINE
  5
79
  8
TEAM-DET3
  6
CONTINUOUS
 10
-63.000956
 20
-32.997973
 30
0.0
 11
-63.000956
 21
-22.99868
 31
0.0
  0
LINE
  5
7A
  8
TEAM-HIDE
 10
-66.000743
 20
-32.997973
 30
0.0
 11
-66.000743
 21
-3.000167
 31
0.0
  0
LINE
  5
7B
  8
TEAM-DET3
  6
CONTINUOUS
 10
-63.000956
 20
-22.99868
 30
0.0
 11
-63.50092
 21
-21.268803
 31
0.0
  0
LINE
  5
7C
  8
TEAM-DET3
  6
CONTINUOUS
 10
-56.501416
 20
41.49824
 30
0.0
 11
-56.501416
 21
44.997993
 31
0.0
  0
LINE
  5
7D
  8
TEAM-DET3
  6
CONTINUOUS
 10
-50.50184
 20
44.997993
 30
0.0
 11
-50.50184
 21
41.49824
 31
0.0
  0
LINE
  5
7E
  8
TEAM-DET3
  6
CONTINUOUS
 10
-63.50092
 20
-0.002007
 30
0.0
 11
-63.50092
 21
-21.268803
 31
0.0
  0
LINE
  5
7F
  8
TEAM-HIDE
 10
-63.50092
 20
23.997993
 30
0.0
 11
-63.50092
 21
-0.002007
 31
0.0
  0
LINE
  5
80
  8
TEAM-DET3
  6
CONTINUOUS
 10
50.50184
 20
44.997993
 30
0.0
 11
102.49816
 21
44.997993
 31
0.0
  0
LINE
  5
81
  8
TEAM-DET3
  6
CONTINUOUS
 10
50.50184
 20
41.49824
 30
0.0
 11
102.49816
 21
41.49824
 31
0.0
  0
LINE
  5
82
  8
TEAM-DET3
  6
CONTINUOUS
 10
89.49908
 20
41.49824
 30
0.0
 11
89.49908
 21
23.997993
 31
0.0
  0
LINE
  5
83
  8
TEAM-DET3
  6
CONTINUOUS
 10
63.50092
 20
41.49824
 30
0.0
 11
63.50092
 21
23.997993
 31
0.0
  0
LINE
  5
84
  8
TEAM-HIDE
 10
67.500637
 20
-32.997973
 30
0.0
 11
67.500637
 21
41.49824
 31
0.0
  0
LINE
  5
85
  8
TEAM-HIDE
 10
85.499363
 20
-32.997973
 30
0.0
 11
85.499363
 21
41.49824
 31
0.0
  0
LINE
  5
86
  8
TEAM-DET3
  6
CONTINUOUS
 10
89.49908
 20
-0.002007
 30
0.0
 11
89.49908
 21
-21.268803
 31
0.0
  0
LINE
  5
87
  8
TEAM-DET3
  6
CONTINUOUS
 10
63.50092
 20
-0.002007
 30
0.0
 11
63.50092
 21
-21.268803
 31
0.0
  0
LINE
  5
88
  8
TEAM-HIDE
 10
86.999257
 20
-32.997973
 30
0.0
 11
86.999257
 21
-3.000167
 31
0.0
  0
LINE
  5
89
  8
TEAM-HIDE
 10
66.000743
 20
-32.997973
 30
0.0
 11
66.000743
 21
-3.000167
 31
0.0
  0
LINE
  5
8A
  8
TEAM-DET3
  6
CONTINUOUS
 10
89.999044
 20
-32.997973
 30
0.0
 11
63.000956
 21
-32.997973
 31
0.0
  0
LINE
  5
8B
  8
TEAM-DET3
  6
CONTINUOUS
 10
63.000956
 20
-22.99868
 30
0.0
 11
63.50092
 21
-21.268803
 31
0.0
  0
LINE
  5
8C
  8
TEAM-DET3
  6
CONTINUOUS
 10
63.000956
 20
-32.997973
 30
0.0
 11
63.000956
 21
-22.99868
 31
0.0
  0
LINE
  5
8D
  8
TEAM-DET3
  6
CONTINUOUS
 10
89.999044
 20
-22.99868
 30
0.0
 11
89.49908
 21
-21.268803
 31
0.0
  0
LINE
  5
8E
  8
TEAM-DET3
  6
CONTINUOUS
 10
89.999044
 20
-32.997973
 30
0.0
 11
89.999044
 21
-22.99868
 31
0.0
  0
ARC
  5
8F
  8
TEAM-HIDE
 10
76.5
 20
24.997993
 30
0.0
 40
10.5
 50
270.0
 51
180.0
  0
CIRCLE
  5
90
  8
TEAM-HIDE
 10
76.5
 20
24.997993
 30
0.0
 40
9.3
  0
LINE
  5
91
  8
TEAM-HIDE
 10
66.000743
 20
-3.000167
 30
0.0
 11
86.999257
 21
-3.000167
 31
0.0
  0
LINE
  5
92
  8
TEAM-HIDE
 10
63.50092
 20
23.997993
 30
0.0
 11
63.50092
 21
-0.002007
 31
0.0
  0
LINE
  5
93
  8
TEAM-HIDE
 10
66.000743
 20
-3.000167
 30
0.0
 11
67.500637
 21
-1.500273
 31
0.0
  0
LINE
  5
94
  8
TEAM-HIDE
 10
89.49908
 20
23.997993
 30
0.0
 11
89.49908
 21
-0.002007
 31
0.0
  0
LINE
  5
95
  8
TEAM-HIDE
 10
86.999257
 20
-3.000167
 30
0.0
 11
85.499363
 21
-1.500273
 31
0.0
  0
LINE
  5
96
  8
TEAM-DET3
  6
CONTINUOUS
 10
50.50184
 20
44.997993
 30
0.0
 11
50.50184
 21
41.49824
 31
0.0
  0
LINE
  5
97
  8
TEAM-DET3
  6
CONTINUOUS
 10
56.501416
 20
41.49824
 30
0.0
 11
56.501416
 21
44.997993
 31
0.0
  0
LINE
  5
98
  8
TEAM-DET3
  6
CONTINUOUS
 10
96.498584
 20
41.49824
 30
0.0
 11
96.498584
 21
44.997993
 31
0.0
  0
LINE
  5
99
  8
TEAM-DET3
  6
CONTINUOUS
 10
102.49816
 20
44.997993
 30
0.0
 11
102.49816
 21
41.49824
 31
0.0
  0
LINE
  5
9A
  8
TEAM-DET3
 10
220.0
 20
109.998122
 30
0.0
 11
220.0
 21
39.997993
 31
0.0
  0
CIRCLE
  5
9B
  8
TEAM-INSP
 10
0.0
 20
0.0
 30
0.0
 40
10.0
  0
ENDSEC
  0
EOF
