  0
SECTION
  2
HEADER
  9
$ACADVER
  1
AC1009
  9
$INSBASE
 10
0.0
 20
0.0
 30
0.0
  9
$EXTMIN
 10
-250.031625
 20
-60.08781
 30
-0.000006
  9
$EXTMAX
 10
432.279084
 20
1167.568956
 30
0.000006
  9
$LIMMIN
 10
-250.031625
 20
-60.08781
  9
$LIMMAX
 10
432.279084
 20
1167.568956
  9
$ORTHOMODE
 70
     1
  9
$REGENMODE
 70
     1
  9
$FILLMODE
 70
     1
  9
$QTEXTMODE
 70
     0
  9
$MIRRTEXT
 70
     0
  9
$DRAGMODE
 70
     2
  9
$LTSCALE
 40
50.0
  9
$OSMODE
 70
     0
  9
$ATTMODE
 70
     1
  9
$TEXTSIZE
 40
200.0
  9
$TRACEWID
 40
1.0
  9
$TEXTSTYLE
  7
STANDARD
  9
$CLAYER
  8
TEAM-MAS
  9
$CELTYPE
  6
BYLAYER
  9
$CECOLOR
 62
   256
  9
$DIMSCALE
 40
1.0
  9
$DIMASZ
 40
20.0
  9
$DIMEXO
 40
10.0
  9
$DIMDLI
 40
1.0
  9
$DIMRND
 40
0.0
  9
$DIMDLE
 40
0.0
  9
$DIMEXE
 40
1.0
  9
$DIMTP
 40
0.0
  9
$DIMTM
 40
0.0
  9
$DIMTXT
 40
35.0
  9
$DIMCEN
 40
1.0
  9
$DIMTSZ
 40
0.0
  9
$DIMTOL
 70
     0
  9
$DIMLIM
 70
     0
  9
$DIMTIH
 70
     0
  9
$DIMTOH
 70
     0
  9
$DIMSE1
 70
     0
  9
$DIMSE2
 70
     0
  9
$DIMTAD
 70
     0
  9
$DIMZIN
 70
     0
  9
$DIMBLK
  1

  9
$DIMASO
 70
     1
  9
$DIMSHO
 70
     0
  9
$DIMPOST
  1

  9
$DIMAPOST
  1

  9
$DIMALT
 70
     0
  9
$DIMALTD
 70
     2
  9
$DIMALTF
 40
25.4
  9
$DIMLFAC
 40
1.0
  9
$DIMTOFL
 70
     0
  9
$DIMTVP
 40
0.0
  9
$DIMTIX
 70
     0
  9
$DIMSOXD
 70
     0
  9
$DIMSAH
 70
     0
  9
$DIMBLK1
  1

  9
$DIMBLK2
  1

  9
$DIMSTYLE
  2
TEAM
  9
$DIMCLRD
 70
     9
  9
$DIMCLRE
 70
     9
  9
$DIMCLRT
 70
    11
  9
$DIMTFAC
 40
1.0
  9
$DIMGAP
 40
7.0
  9
$LUNITS
 70
     2
  9
$LUPREC
 70
     1
  9
$SKETCHINC
 40
1.0
  9
$FILLETRAD
 40
50.0
  9
$AUNITS
 70
     0
  9
$AUPREC
 70
     0
  9
$MENU
  1
ROPLANS
  9
$ELEVATION
 40
0.0
  9
$PELEVATION
 40
0.0
  9
$THICKNESS
 40
0.0
  9
$LIMCHECK
 70
     0
  9
$BLIPMODE
 70
     1
  9
$CHAMFERA
 40
0.0
  9
$CHAMFERB
 40
0.0
  9
$SKPOLY
 70
     0
  9
$TDCREATE
 40
2450392.957851
  9
$TDUPDATE
 40
2456118.662559
  9
$TDINDWG
 40
5.307301
  9
$TDUSRTIMER
 40
5.307301
  9
$USRTIMER
 70
     1
  9
$ANGBASE
 50
0.0
  9
$ANGDIR
 70
     0
  9
$PDMODE
 70
     0
  9
$PDSIZE
 40
0.0
  9
$PLINEWID
 40
0.0
  9
$COORDS
 70
     2
  9
$SPLFRAME
 70
     0
  9
$SPLINETYPE
 70
     6
  9
$SPLINESEGS
 70
     8
  9
$ATTDIA
 70
     0
  9
$ATTREQ
 70
     0
  9
$HANDLING
 70
     1
  9
$HANDSEED
  5
20D
  9
$SURFTAB1
 70
    24
  9
$SURFTAB2
 70
    24
  9
$SURFTYPE
 70
     6
  9
$SURFU
 70
     6
  9
$SURFV
 70
     6
  9
$UCSNAME
  2

  9
$UCSORG
 10
0.0
 20
0.0
 30
0.0
  9
$UCSXDIR
 10
1.0
 20
0.0
 30
0.0
  9
$UCSYDIR
 10
0.0
 20
1.0
 30
0.0
  9
$PUCSNAME
  2

  9
$PUCSORG
 10
0.0
 20
0.0
 30
0.0
  9
$PUCSXDIR
 10
1.0
 20
0.0
 30
0.0
  9
$PUCSYDIR
 10
0.0
 20
1.0
 30
0.0
  9
$USERI1
 70
     0
  9
$USERI2
 70
     0
  9
$USERI3
 70
     0
  9
$USERI4
 70
     0
  9
$USERI5
 70
     0
  9
$USERR1
 40
0.0
  9
$USERR2
 40
0.0
  9
$USERR3
 40
0.0
  9
$USERR4
 40
0.0
  9
$USERR5
 40
0.0
  9
$WORLDVIEW
 70
     1
  9
$SHADEDGE
 70
     0
  9
$SHADEDIF
 70
    70
  9
$TILEMODE
 70
     1
  9
$MAXACTVP
 70
    16
  9
$PLIMCHECK
 70
     0
  9
$PEXTMIN
 10
-0.805942
 20
0.005011
 30
0.0
  9
$PEXTMAX
 10
20.250094
 20
11.356329
 30
0.0
  9
$PLIMMIN
 10
0.0
 20
0.0
  9
$PLIMMAX
 10
12.0
 20
9.0
  9
$UNITMODE
 70
     0
  9
$VISRETAIN
 70
     0
  9
$PLINEGEN
 70
     0
  9
$PSLTSCALE
 70
     0
  0
ENDSEC
  0
SECTION
  2
TABLES
  0
TABLE
  2
VPORT
 70
     2
  0
VPORT
  2
*ACTIVE
 70
     0
 10
0.0
 20
0.0
 11
1.0
 21
1.0
 12
91.123729
 22
553.740573
 13
0.0
 23
0.0
 14
1.0
 24
1.0
 15
50.0
 25
50.0
 16
0.0
 26
0.0
 36
1.0
 17
0.0
 27
0.0
 37
0.0
 40
1235.38598
 41
1.911765
 42
50.0
 43
0.0
 44
0.0
 50
0.0
 51
0.0
 71
     0
 72
   100
 73
     1
 74
     1
 75
     0
 76
     0
 77
     0
 78
     0
  0
ENDTAB
  0
TABLE
  2
LTYPE
 70
     3
  0
LTYPE
  2
CONTINUOUS
 70
     0
  3
Solid Line
 72
    65
 73
     0
 40
0.0
  0
LTYPE
  2
31
 70
     0
  3

 72
    65
 73
     4
 40
2.1
 49
1.5
 49
-0.3
 49
0.0
 49
-0.3
  0
LTYPE
  2
22
 70
     0
  3

 72
    65
 73
     2
 40
1.4
 49
1.2
 49
-0.2
  0
ENDTAB
  0
TABLE
  2
LAYER
 70
     9
  0
LAYER
  2
0
 70
     0
 62
     7
  6
CONTINUOUS
  0
LAYER
  2
DEFPOINTS
 70
     0
 62
     7
  6
CONTINUOUS
  0
LAYER
  2
TEAM-AXE
 70
     0
 62
    10
  6
31
  0
LAYER
  2
TEAM-MAS
 70
     0
 62
     9
  6
CONTINUOUS
  0
LAYER
  2
TEAM-TXT
 70
     0
 62
    11
  6
CONTINUOUS
  0
LAYER
  2
TEAM-DET2
 70
     0
 62
    11
  6
CONTINUOUS
  0
LAYER
  2
TEAM-HIDE
 70
     0
 62
     8
  6
22
  0
LAYER
  2
TEAM-DET3
 70
     0
 62
    14
  6
CONTINUOUS
  0
LAYER
  2
TEAM-INSP
 70
     0
 62
     5
  6
CONTINUOUS
  0
ENDTAB
  0
TABLE
  2
STYLE
 70
     2
  0
STYLE
  2
STANDARD
 70
     0
 40
0.0
 41
1.0
 50
0.0
 71
     0
 42
200.0
  3
txt
  4

  0
STYLE
  2
TEAM
 70
     0
 40
0.0
 41
0.8
 50
15.0
 71
     0
 42
7.0
  3
ROMANS.shx
  4

  0
ENDTAB
  0
TABLE
  2
VIEW
 70
     0
  0
ENDTAB
  0
TABLE
  2
UCS
 70
     0
  0
ENDTAB
  0
TABLE
  2
APPID
 70
     1
  0
APPID
  2
ACAD
 70
     0
  0
ENDTAB
  0
TABLE
  2
DIMSTYLE
 70
     1
  0
DIMSTYLE
  2
TEAM
 70
     0
  3

  4

  5

  6

  7

 40
1.0
 41
20.0
 42
10.0
 43
1.0
 44
1.0
 45
0.0
 46
0.0
 47
0.0
 48
0.0
140
35.0
141
1.0
142
0.0
143
25.4
144
1.0
145
0.0
146
1.0
147
7.0
 71
     0
 72
     0
 73
     0
 74
     0
 75
     0
 76
     0
 77
     0
 78
     0
170
     0
171
     2
172
     0
173
     0
174
     0
175
     0
176
     9
177
     9
178
    11
  0
ENDTAB
  0
ENDSEC
  0
SECTION
  2
BLOCKS
  0
BLOCK
  8
0
  2
$MODEL_SPACE
 70
     0
 10
0.0
 20
0.0
 30
0.0
  3
$MODEL_SPACE
  1

  0
ENDBLK
  5
206
  8
0
  0
BLOCK
 67
     1
  8
0
  2
$PAPER_SPACE
 70
     0
 10
0.0
 20
0.0
 30
0.0
  3
$PAPER_SPACE
  1

  0
ENDBLK
  5
204
 67
     1
  8
0
  0
BLOCK
  8
0
  2
*D0
 70
     1
 10
0.0
 20
0.0
 30
0.0
  3
*D0
  1

  0
LINE
  5
1A1
  8
0
  6
BYBLOCK
 62
     9
 10
12010.0
 20
20000.0
 30
0.0
 11
12278.93925
 21
20000.0
 31
0.0
  0
LINE
  5
1A2
  8
0
  6
BYBLOCK
 62
     9
 10
12010.0
 20
20520.000016
 30
0.0
 11
12278.93925
 21
20520.000016
 31
0.0
  0
LINE
  5
1A3
  8
0
  6
BYBLOCK
 62
     9
 10
12277.93925
 20
20020.0
 30
0.0
 11
12277.93925
 21
20209.250008
 31
0.0
  0
LINE
  5
1A4
  8
0
  6
BYBLOCK
 62
     9
 10
12277.93925
 20
20500.000016
 30
0.0
 11
12277.93925
 21
20310.750008
 31
0.0
  0
SOLID
  5
1A5
  8
0
  6
BYBLOCK
 62
     9
 10
12274.605917
 20
20020.0
 30
0.0
 11
12281.272584
 21
20020.0
 31
0.0
 12
12277.93925
 22
20000.0
 32
0.0
 13
12277.93925
 23
20000.0
 33
0.0
  0
SOLID
  5
1A6
  8
0
  6
BYBLOCK
 62
     9
 10
12274.605917
 20
20500.000016
 30
0.0
 11
12281.272584
 21
20500.000016
 31
0.0
 12
12277.93925
 22
20520.000016
 32
0.0
 13
12277.93925
 23
20520.000016
 33
0.0
  0
TEXT
  5
1A7
  8
0
  6
BYBLOCK
 62
    11
 10
12295.43925
 20
20216.250008
 30
0.0
 40
35.0
  1
520
 50
90.0
  0
POINT
  5
1A8
  8
DEFPOINTS
  6
BYBLOCK
 62
     0
 10
12000.0
 20
20000.0
 30
0.0
  0
POINT
  5
1A9
  8
DEFPOINTS
  6
BYBLOCK
 62
     0
 10
12000.0
 20
20520.000016
 30
0.0
  0
POINT
  5
1AA
  8
DEFPOINTS
  6
BYBLOCK
 62
     0
 10
12277.93925
 20
20520.000016
 30
0.0
  0
ENDBLK
  5
1AC
  8
0
  0
BLOCK
  8
0
  2
*D1
 70
     1
 10
0.0
 20
0.0
 30
0.0
  3
*D1
  1

  0
LINE
  5
1AF
  8
0
  6
BYBLOCK
 62
     9
 10
12010.0
 20
20000.0
 30
0.0
 11
12324.018052
 21
20000.0
 31
0.0
  0
LINE
  5
1B0
  8
0
  6
BYBLOCK
 62
     9
 10
12150.0
 20
20800.000016
 30
0.0
 11
12324.018052
 21
20800.000016
 31
0.0
  0
LINE
  5
1B1
  8
0
  6
BYBLOCK
 62
     9
 10
12323.018052
 20
20020.0
 30
0.0
 11
12323.018052
 21
20352.166675
 31
0.0
  0
LINE
  5
1B2
  8
0
  6
BYBLOCK
 62
     9
 10
12323.018052
 20
20780.000016
 30
0.0
 11
12323.018052
 21
20447.833341
 31
0.0
  0
SOLID
  5
1B3
  8
0
  6
BYBLOCK
 62
     9
 10
12319.684719
 20
20020.0
 30
0.0
 11
12326.351386
 21
20020.0
 31
0.0
 12
12323.018052
 22
20000.0
 32
0.0
 13
12323.018052
 23
20000.0
 33
0.0
  0
SOLID
  5
1B4
  8
0
  6
BYBLOCK
 62
     9
 10
12319.684719
 20
20780.000016
 30
0.0
 11
12326.351386
 21
20780.000016
 31
0.0
 12
12323.018052
 22
20800.000016
 32
0.0
 13
12323.018052
 23
20800.000016
 33
0.0
  0
TEXT
  5
1B5
  8
0
  6
BYBLOCK
 62
    11
 10
12340.518052
 20
20359.166675
 30
0.0
 40
35.0
  1
800
 50
90.0
  0
POINT
  5
1B6
  8
DEFPOINTS
  6
BYBLOCK
 62
     0
 10
12000.0
 20
20000.0
 30
0.0
  0
POINT
  5
1B7
  8
DEFPOINTS
  6
BYBLOCK
 62
     0
 10
12140.0
 20
20800.000016
 30
0.0
  0
POINT
  5
1B8
  8
DEFPOINTS
  6
BYBLOCK
 62
     0
 10
12323.018052
 20
20800.000016
 30
0.0
  0
ENDBLK
  5
1BA
  8
0
  0
BLOCK
  8
0
  2
*D2
 70
     1
 10
0.0
 20
0.0
 30
0.0
  3
*D2
  1

  0
LINE
  5
22
  8
0
  6
BYBLOCK
 62
     9
 10
12010.0
 20
20000.0
 30
0.0
 11
12415.729899
 21
20000.0
 31
0.0
  0
LINE
  5
23
  8
0
  6
BYBLOCK
 62
     9
 10
12260.0
 20
21120.000016
 30
0.0
 11
12415.729899
 21
21120.000016
 31
0.0
  0
LINE
  5
24
  8
0
  6
BYBLOCK
 62
     9
 10
12414.729899
 20
20020.0
 30
0.0
 11
12414.729899
 21
20427.583341
 31
0.0
  0
LINE
  5
25
  8
0
  6
BYBLOCK
 62
     9
 10
12414.729899
 20
21100.000016
 30
0.0
 11
12414.729899
 21
20692.416675
 31
0.0
  0
SOLID
  5
26
  8
0
  6
BYBLOCK
 62
     9
 10
12411.396566
 20
20020.0
 30
0.0
 11
12418.063233
 21
20020.0
 31
0.0
 12
12414.729899
 22
20000.0
 32
0.0
 13
12414.729899
 23
20000.0
 33
0.0
  0
SOLID
  5
27
  8
0
  6
BYBLOCK
 62
     9
 10
12411.396566
 20
21100.000016
 30
0.0
 11
12418.063233
 21
21100.000016
 31
0.0
 12
12414.729899
 22
21120.000016
 32
0.0
 13
12414.729899
 23
21120.000016
 33
0.0
  0
TEXT
  5
28
  8
0
  6
BYBLOCK
 62
    11
 10
12432.229899
 20
20434.583341
 30
0.0
 40
35.0
  1
1120-1300
 50
90.0
  0
POINT
  5
29
  8
DEFPOINTS
  6
BYBLOCK
 62
     0
 10
12000.0
 20
20000.0
 30
0.0
  0
POINT
  5
2B
  8
DEFPOINTS
  6
BYBLOCK
 62
     0
 10
12250.0
 20
21120.000016
 30
0.0
  0
POINT
  5
2C
  8
DEFPOINTS
  6
BYBLOCK
 62
     0
 10
12414.729899
 20
21120.000016
 30
0.0
  0
ENDBLK
  5
2E
  8
0
  0
BLOCK
  8
0
  2
*D3
 70
     1
 10
0.0
 20
0.0
 30
0.0
  3
*D3
  1

  0
LINE
  5
1BD
  8
0
  6
BYBLOCK
 62
     9
 10
12010.0
 20
20000.0
 30
0.0
 11
12370.651097
 21
20000.0
 31
0.0
  0
LINE
  5
1BE
  8
0
  6
BYBLOCK
 62
     9
 10
12252.5
 20
21000.000016
 30
0.0
 11
12370.651097
 21
21000.000016
 31
0.0
  0
LINE
  5
1BF
  8
0
  6
BYBLOCK
 62
     9
 10
12369.651097
 20
20020.0
 30
0.0
 11
12369.651097
 21
20443.416675
 31
0.0
  0
LINE
  5
1C0
  8
0
  6
BYBLOCK
 62
     9
 10
12369.651097
 20
20980.000016
 30
0.0
 11
12369.651097
 21
20556.583341
 31
0.0
  0
SOLID
  5
1C1
  8
0
  6
BYBLOCK
 62
     9
 10
12366.317764
 20
20020.0
 30
0.0
 11
12372.98443
 21
20020.0
 31
0.0
 12
12369.651097
 22
20000.0
 32
0.0
 13
12369.651097
 23
20000.0
 33
0.0
  0
SOLID
  5
1C2
  8
0
  6
BYBLOCK
 62
     9
 10
12366.317764
 20
20980.000016
 30
0.0
 11
12372.98443
 21
20980.000016
 31
0.0
 12
12369.651097
 22
21000.000016
 32
0.0
 13
12369.651097
 23
21000.000016
 33
0.0
  0
TEXT
  5
1C3
  8
0
  6
BYBLOCK
 62
    11
 10
12387.151097
 20
20450.416675
 30
0.0
 40
35.0
  1
1000
 50
90.0
  0
POINT
  5
1C4
  8
DEFPOINTS
  6
BYBLOCK
 62
     0
 10
12000.0
 20
20000.0
 30
0.0
  0
POINT
  5
1C5
  8
DEFPOINTS
  6
BYBLOCK
 62
     0
 10
12242.5
 20
21000.000016
 30
0.0
  0
POINT
  5
1C6
  8
DEFPOINTS
  6
BYBLOCK
 62
     0
 10
12369.651097
 20
21000.000016
 30
0.0
  0
ENDBLK
  5
1C8
  8
0
  0
BLOCK
  8
0
  2
*D4
 70
     1
 10
0.0
 20
0.0
 30
0.0
  3
*D4
  1

  0
LINE
  5
144
  8
0
  6
BYBLOCK
 62
     9
 10
11750.0
 20
21109.997576
 30
0.0
 11
11750.0
 21
21151.037855
 31
0.0
  0
LINE
  5
145
  8
0
  6
BYBLOCK
 62
     9
 10
12250.0
 20
21109.997576
 30
0.0
 11
12250.0
 21
21151.037855
 31
0.0
  0
LINE
  5
146
  8
0
  6
BYBLOCK
 62
     9
 10
11770.0
 20
21150.037855
 30
0.0
 11
11952.166667
 21
21150.037855
 31
0.0
  0
LINE
  5
147
  8
0
  6
BYBLOCK
 62
     9
 10
12230.0
 20
21150.037855
 30
0.0
 11
12047.833333
 21
21150.037855
 31
0.0
  0
SOLID
  5
148
  8
0
  6
BYBLOCK
 62
     9
 10
11770.0
 20
21153.371188
 30
0.0
 11
11770.0
 21
21146.704521
 31
0.0
 12
11750.0
 22
21150.037855
 32
0.0
 13
11750.0
 23
21150.037855
 33
0.0
  0
SOLID
  5
149
  8
0
  6
BYBLOCK
 62
     9
 10
12230.0
 20
21153.371188
 30
0.0
 11
12230.0
 21
21146.704521
 31
0.0
 12
12250.0
 22
21150.037855
 32
0.0
 13
12250.0
 23
21150.037855
 33
0.0
  0
TEXT
  5
14A
  8
0
  6
BYBLOCK
 62
    11
 10
11959.166667
 20
21132.537855
 30
0.0
 40
35.0
  1
500
  0
POINT
  5
14B
  8
DEFPOINTS
  6
BYBLOCK
 62
     0
 10
11750.0
 20
21099.997576
 30
0.0
  0
POINT
  5
14C
  8
DEFPOINTS
  6
BYBLOCK
 62
     0
 10
12250.0
 20
21099.997576
 30
0.0
  0
POINT
  5
14D
  8
DEFPOINTS
  6
BYBLOCK
 62
     0
 10
12250.0
 20
21150.037855
 30
0.0
  0
ENDBLK
  5
14F
  8
0
  0
BLOCK
  8
0
  2
*D5
 70
     1
 10
0.0
 20
0.0
 30
0.0
  3
*D5
  1

  0
LINE
  5
152
  8
0
  6
BYBLOCK
 62
     9
 10
11860.0
 20
20810.000016
 30
0.0
 11
11860.0
 21
20858.737111
 31
0.0
  0
LINE
  5
153
  8
0
  6
BYBLOCK
 62
     9
 10
12140.0
 20
20810.000016
 30
0.0
 11
12140.0
 21
20858.737111
 31
0.0
  0
LINE
  5
154
  8
0
  6
BYBLOCK
 62
     9
 10
11880.0
 20
20857.737111
 30
0.0
 11
11899.666667
 21
20857.737111
 31
0.0
  0
LINE
  5
155
  8
0
  6
BYBLOCK
 62
     9
 10
12120.0
 20
20857.737111
 30
0.0
 11
12100.333333
 21
20857.737111
 31
0.0
  0
SOLID
  5
156
  8
0
  6
BYBLOCK
 62
     9
 10
11880.0
 20
20861.070444
 30
0.0
 11
11880.0
 21
20854.403778
 31
0.0
 12
11860.0
 22
20857.737111
 32
0.0
 13
11860.0
 23
20857.737111
 33
0.0
  0
SOLID
  5
157
  8
0
  6
BYBLOCK
 62
     9
 10
12120.0
 20
20861.070444
 30
0.0
 11
12120.0
 21
20854.403778
 31
0.0
 12
12140.0
 22
20857.737111
 32
0.0
 13
12140.0
 23
20857.737111
 33
0.0
  0
TEXT
  5
158
  8
0
  6
BYBLOCK
 62
    11
 10
11906.666667
 20
20840.237111
 30
0.0
 40
35.0
  1
50-380
  0
POINT
  5
159
  8
DEFPOINTS
  6
BYBLOCK
 62
     0
 10
11860.0
 20
20800.000016
 30
0.0
  0
POINT
  5
15A
  8
DEFPOINTS
  6
BYBLOCK
 62
     0
 10
12140.0
 20
20800.000016
 30
0.0
  0
POINT
  5
15B
  8
DEFPOINTS
  6
BYBLOCK
 62
     0
 10
12140.0
 20
20857.737111
 30
0.0
  0
ENDBLK
  5
15D
  8
0
  0
BLOCK
  8
0
  2
*D6
 70
     1
 10
0.0
 20
0.0
 30
0.0
  3
*D6
  1

  0
LINE
  5
31
  8
0
  6
BYBLOCK
 62
     9
 10
12010.0
 20
20000.0
 30
0.0
 11
12096.746369
 21
20000.0
 31
0.0
  0
LINE
  5
32
  8
0
  6
BYBLOCK
 62
     9
 10
12166.5
 20
19980.0
 30
0.0
 11
12094.746369
 21
19980.0
 31
0.0
  0
LINE
  5
33
  8
0
  6
BYBLOCK
 62
     9
 10
12095.746369
 20
20020.0
 30
0.0
 11
12095.746369
 21
20040.0
 31
0.0
  0
LINE
  5
34
  8
0
  6
BYBLOCK
 62
     9
 10
12095.746369
 20
19960.0
 30
0.0
 11
12095.746369
 21
19940.0
 31
0.0
  0
TEXT
  5
35
  8
0
  6
BYBLOCK
 62
    11
 10
12113.246369
 20
20050.798904
 30
0.0
 40
35.0
  1
0-200
 50
90.0
  0
LINE
  5
36
  8
0
  6
BYBLOCK
 62
     9
 10
12095.746369
 20
20000.0
 30
0.0
 11
12095.746369
 21
19980.0
 31
0.0
  0
SOLID
  5
37
  8
0
  6
BYBLOCK
 62
     9
 10
12092.413036
 20
20020.0
 30
0.0
 11
12099.079703
 21
20020.0
 31
0.0
 12
12095.746369
 22
20000.0
 32
0.0
 13
12095.746369
 23
20000.0
 33
0.0
  0
SOLID
  5
38
  8
0
  6
BYBLOCK
 62
     9
 10
12092.413036
 20
19960.0
 30
0.0
 11
12099.079703
 21
19960.0
 31
0.0
 12
12095.746369
 22
19980.0
 32
0.0
 13
12095.746369
 23
19980.0
 33
0.0
  0
POINT
  5
39
  8
DEFPOINTS
  6
BYBLOCK
 62
     0
 10
12000.0
 20
20000.0
 30
0.0
  0
POINT
  5
3A
  8
DEFPOINTS
  6
BYBLOCK
 62
     0
 10
12176.5
 20
19980.0
 30
0.0
  0
POINT
  5
3B
  8
DEFPOINTS
  6
BYBLOCK
 62
     0
 10
12095.746369
 20
19980.0
 30
0.0
  0
ENDBLK
  5
3D
  8
0
  0
BLOCK
  8
0
  2
*D7
 70
     1
 10
0.0
 20
0.0
 30
0.0
  3
*D7
  1

  0
LINE
  5
18C
  8
0
  6
BYBLOCK
 62
     9
 10
11750.5
 20
19998.0
 30
0.0
 11
11750.5
 21
20018.959475
 31
0.0
  0
LINE
  5
18D
  8
0
  6
BYBLOCK
 62
     9
 10
11823.5
 20
19998.0
 30
0.0
 11
11823.5
 21
20018.959475
 31
0.0
  0
LINE
  5
18E
  8
0
  6
BYBLOCK
 62
     9
 10
11770.5
 20
20017.959475
 30
0.0
 11
11803.5
 21
20017.959475
 31
0.0
  0
TEXT
  5
18F
  8
0
  6
BYBLOCK
 62
    11
 10
11828.406577
 20
20000.459475
 30
0.0
 40
35.0
  1
73
  0
SOLID
  5
190
  8
0
  6
BYBLOCK
 62
     9
 10
11770.5
 20
20021.292808
 30
0.0
 11
11770.5
 21
20014.626141
 31
0.0
 12
11750.5
 22
20017.959475
 32
0.0
 13
11750.5
 23
20017.959475
 33
0.0
  0
SOLID
  5
191
  8
0
  6
BYBLOCK
 62
     9
 10
11803.5
 20
20021.292808
 30
0.0
 11
11803.5
 21
20014.626141
 31
0.0
 12
11823.5
 22
20017.959475
 32
0.0
 13
11823.5
 23
20017.959475
 33
0.0
  0
POINT
  5
192
  8
DEFPOINTS
  6
BYBLOCK
 62
     0
 10
11750.5
 20
19988.0
 30
0.0
  0
POINT
  5
193
  8
DEFPOINTS
  6
BYBLOCK
 62
     0
 10
11823.5
 20
19988.0
 30
0.0
  0
POINT
  5
194
  8
DEFPOINTS
  6
BYBLOCK
 62
     0
 10
11823.5
 20
20017.959475
 30
0.0
  0
ENDBLK
  5
196
  8
0
  0
ENDSEC
  0
SECTION
  2
ENTITIES
  0
DIMENSION
  5
20
  8
TEAM-MAS
  2
*D2
 10
414.729899
 20
1120.000016
 30
0.0
 11
414.729899
 21
560.000008
 31
0.0
 12
-12000.0
 22
-20000.0
 32
0.0
  1
<>-1300
 13
0.0
 23
0.0
 33
0.0
 14
250.0
 24
1120.000016
 34
0.0
 50
90.0
1001
ACAD
1000
DSTYLE
1002
{
1070
    40
1040
1.0
1002
}
  0
DIMENSION
  5
2F
  8
TEAM-MAS
  2
*D6
 10
95.746369
 20
-20.0
 30
0.0
 11
95.746369
 21
123.715571
 31
0.0
 12
-12000.0
 22
-20000.0
 32
0.0
 70
   128
  1
0-200
 13
0.0
 23
0.0
 33
0.0
 14
176.5
 24
-20.0
 34
0.0
 50
90.0
1001
ACAD
1000
DSTYLE
1002
{
1070
    40
1040
1.0
1002
}
  0
LINE
  5
3E
  8
TEAM-HIDE
 10
210.0
 20
1079.995137
 30
0.0
 11
210.0
 21
1120.000016
 31
0.0
  0
LINE
  5
41
  8
TEAM-HIDE
 10
250.0
 20
1079.995137
 30
0.0
 11
250.0
 21
1120.000016
 31
0.0
  0
LINE
  5
42
  8
TEAM-HIDE
 10
212.5
 20
501.500016
 30
0.0
 11
247.5
 21
501.500016
 31
0.0
  0
CIRCLE
  5
43
  8
TEAM-DET3
 10
230.0
 20
1059.995137
 30
0.0
 40
6.5
  0
CIRCLE
  5
45
  8
TEAM-DET3
 10
230.0
 20
1059.995137
 30
0.0
 40
12.0
  0
LINE
  5
46
  8
TEAM-DET3
 10
242.5
 20
990.000016
 30
0.0
 11
242.5
 21
1015.000016
 31
0.0
  0
LINE
  5
47
  8
TEAM-DET3
 10
217.5
 20
1015.000016
 30
0.0
 11
242.5
 21
1015.000016
 31
0.0
  0
LINE
  5
48
  8
TEAM-DET3
 10
217.5
 20
990.000016
 30
0.0
 11
217.5
 21
1015.000016
 31
0.0
  0
LINE
  5
49
  8
TEAM-DET3
 10
217.5
 20
990.000016
 30
0.0
 11
242.5
 21
990.000016
 31
0.0
  0
LINE
  5
4A
  8
TEAM-DET3
 10
217.5
 20
1000.000016
 30
0.0
 11
242.5
 21
1000.000016
 31
0.0
  0
LINE
  5
4B
  8
TEAM-DET3
 10
230.0
 20
1000.000016
 30
0.0
 11
233.0
 21
1005.196168
 31
0.0
  0
LINE
  5
4C
  8
TEAM-DET3
 10
227.0
 20
1005.196168
 30
0.0
 11
230.0
 21
1000.000016
 31
0.0
  0
LINE
  5
4D
  8
TEAM-DET3
 10
227.0
 20
1005.196168
 30
0.0
 11
233.0
 21
1005.196168
 31
0.0
  0
LINE
  5
4E
  8
TEAM-DET3
 10
26.494398
 20
514.799358
 30
0.0
 11
33.881532
 21
513.496808
 31
0.0
  0
LINE
  5
4F
  8
TEAM-DET3
 10
26.494398
 20
525.200674
 30
0.0
 11
33.881532
 21
526.503226
 31
0.0
  0
ARC
  5
50
  8
TEAM-DET3
 10
0.0
 20
520.000016
 30
0.0
 40
34.5
 50
10.86519
 51
349.13481
  0
CIRCLE
  5
51
  8
TEAM-DET3
 10
-115.0
 20
586.500016
 30
0.0
 40
3.25
  0
ARC
  5
52
  8
TEAM-DET3
 10
0.0
 20
520.000016
 30
0.0
 40
27.0
 50
11.105547
 51
348.894453
  0
LINE
  5
53
  8
TEAM-DET3
 10
-41.0
 20
518.500016
 30
0.0
 11
-34.467376
 21
518.500016
 31
0.0
  0
LINE
  5
54
  8
TEAM-DET3
 10
-41.0
 20
520.000016
 30
0.0
 11
-34.5
 21
520.000016
 31
0.0
  0
LINE
  5
55
  8
TEAM-DET3
 10
-41.0
 20
518.500016
 30
0.0
 11
-41.0
 21
521.500016
 31
0.0
  0
LINE
  5
56
  8
TEAM-DET3
 10
-41.0
 20
521.500016
 30
0.0
 11
-34.467376
 21
521.500016
 31
0.0
  0
CIRCLE
  5
57
  8
TEAM-DET3
 10
-90.642136
 20
575.857882
 30
0.0
 40
2.8
  0
CIRCLE
  5
58
  8
TEAM-DET3
 10
-62.357864
 20
575.857882
 30
0.0
 40
2.75
  0
CIRCLE
  5
59
  8
TEAM-DET3
 10
-52.392136
 20
568.357882
 30
0.0
 40
2.8
  0
CIRCLE
  5
5A
  8
TEAM-DET3
 10
0.0
 20
570.000016
 30
0.0
 40
6.5
  0
ARC
  5
5B
  8
TEAM-DET3
 10
-5.5
 20
605.000016
 30
0.0
 40
2.0
 50
90.0
 51
180.0
  0
LINE
  5
5C
  8
TEAM-DET3
 10
-7.5
 20
554.500016
 30
0.0
 11
7.5
 21
554.500016
 31
0.0
  0
LINE
  5
5D
  8
TEAM-DET3
 10
-7.5
 20
555.000016
 30
0.0
 11
7.5
 21
555.000016
 31
0.0
  0
LINE
  5
5E
  8
TEAM-DET3
 10
-7.5
 20
556.500016
 30
0.0
 11
7.5
 21
556.500016
 31
0.0
  0
CIRCLE
  5
5F
  8
TEAM-DET3
 10
-24.107864
 20
596.642152
 30
0.0
 40
2.8
  0
CIRCLE
  5
60
  8
TEAM-DET3
 10
-24.107864
 20
568.357882
 30
0.0
 40
2.8
  0
CIRCLE
  5
61
  8
TEAM-DET3
 10
-38.25
 20
562.500016
 30
0.0
 40
2.8
  0
CIRCLE
  5
62
  8
TEAM-DET3
 10
-38.25
 20
602.500016
 30
0.0
 40
2.8
  0
LINE
  5
63
  8
TEAM-DET3
 10
-7.5
 20
554.500016
 30
0.0
 11
-7.5
 21
605.000016
 31
0.0
  0
CIRCLE
  5
64
  8
TEAM-DET3
 10
-14.142136
 20
575.857882
 30
0.0
 40
2.8
  0
CIRCLE
  5
65
  8
TEAM-DET3
 10
-14.142136
 20
604.142152
 30
0.0
 40
2.8
  0
CIRCLE
  5
66
  8
TEAM-DET3
 10
-18.25
 20
582.500016
 30
0.0
 40
2.8
  0
CIRCLE
  5
67
  8
TEAM-DET3
 10
-20.0
 20
590.000016
 30
0.0
 40
2.8
  0
CIRCLE
  5
68
  8
TEAM-DET3
 10
14.142136
 20
604.142152
 30
0.0
 40
2.8
  0
CIRCLE
  5
69
  8
TEAM-DET3
 10
14.142136
 20
575.857882
 30
0.0
 40
2.8
  0
LINE
  5
6A
  8
TEAM-DET3
 10
0.0
 20
575.773518
 30
0.0
 11
5.0
 21
572.886766
 31
0.0
  0
LINE
  5
6B
  8
TEAM-DET3
 10
-5.0
 20
572.886766
 30
0.0
 11
0.0
 21
575.773518
 31
0.0
  0
LINE
  5
6C
  8
TEAM-DET3
 10
7.5
 20
554.500016
 30
0.0
 11
7.5
 21
605.000016
 31
0.0
  0
LINE
  5
6D
  8
TEAM-DET3
 10
0.0
 20
564.226516
 30
0.0
 11
5.0
 21
567.113266
 31
0.0
  0
LINE
  5
6E
  8
TEAM-DET3
 10
-5.0
 20
567.113266
 30
0.0
 11
0.0
 21
564.226516
 31
0.0
  0
LINE
  5
6F
  8
TEAM-DET3
 10
-5.0
 20
567.113266
 30
0.0
 11
-5.0
 21
572.886766
 31
0.0
  0
LINE
  5
70
  8
TEAM-DET3
 10
5.0
 20
567.113266
 30
0.0
 11
5.0
 21
572.886766
 31
0.0
  0
LINE
  5
71
  8
TEAM-DET3
 10
3.0
 20
607.000016
 30
0.0
 11
5.5
 21
607.000016
 31
0.0
  0
ARC
  5
72
  8
TEAM-DET3
 10
-3.0
 20
608.000016
 30
0.0
 40
1.0
 50
270.0
 51
0.0
  0
ARC
  5
73
  8
TEAM-DET3
 10
3.0
 20
608.000016
 30
0.0
 40
1.0
 50
180.0
 51
270.0
  0
LINE
  5
74
  8
TEAM-DET3
 10
-2.0
 20
609.000016
 30
0.0
 11
2.0
 21
609.000016
 31
0.0
  0
LINE
  5
75
  8
TEAM-DET3
 10
-5.5
 20
607.000016
 30
0.0
 11
-3.0
 21
607.000016
 31
0.0
  0
LINE
  5
76
  8
TEAM-DET3
 10
-2.0
 20
608.000016
 30
0.0
 11
-2.0
 21
611.000016
 31
0.0
  0
LINE
  5
77
  8
TEAM-DET3
 10
2.0
 20
608.000016
 30
0.0
 11
2.0
 21
611.000016
 31
0.0
  0
LINE
  5
78
  8
TEAM-DET3
 10
-2.0
 20
611.000016
 30
0.0
 11
2.0
 21
611.000016
 31
0.0
  0
CIRCLE
  5
79
  8
TEAM-DET3
 10
0.0
 20
610.000016
 30
0.0
 40
2.8
  0
ARC
  5
7A
  8
TEAM-DET3
 10
5.5
 20
605.000016
 30
0.0
 40
2.0
 50
0.0
 51
90.0
  0
CIRCLE
  5
7B
  8
TEAM-DET3
 10
24.107864
 20
568.357882
 30
0.0
 40
2.8
  0
CIRCLE
  5
7C
  8
TEAM-DET3
 10
20.0
 20
590.000016
 30
0.0
 40
2.8
  0
CIRCLE
  5
7D
  8
TEAM-DET3
 10
18.25
 20
582.500016
 30
0.0
 40
2.8
  0
CIRCLE
  5
7E
  8
TEAM-DET3
 10
24.107864
 20
596.642152
 30
0.0
 40
2.8
  0
CIRCLE
  5
7F
  8
TEAM-DET3
 10
173.0
 20
590.000016
 30
0.0
 40
2.8
  0
LINE
  5
80
  8
TEAM-DET3
 10
43.0
 20
526.500016
 30
0.0
 11
43.0
 21
541.500016
 31
0.0
  0
LINE
  5
81
  8
TEAM-DET3
 10
37.0
 20
526.500016
 30
0.0
 11
37.0
 21
541.500016
 31
0.0
  0
ARC
  5
82
  8
TEAM-DET3
 10
40.0
 20
511.074578
 30
0.0
 40
9.083334
 50
236.601512
 51
303.398488
  0
LINE
  5
83
  8
TEAM-DET3
 10
35.0
 20
503.491246
 30
0.0
 11
45.0
 21
503.491246
 31
0.0
  0
LINE
  5
84
  8
TEAM-DET3
 10
35.0
 20
506.991246
 30
0.0
 11
45.0
 21
506.991246
 31
0.0
  0
LINE
  5
85
  8
TEAM-DET3
 10
34.709508
 20
523.000016
 30
0.0
 11
47.0
 21
523.000016
 31
0.0
  0
LINE
  5
86
  8
TEAM-DET3
 10
37.0
 20
526.500016
 30
0.0
 11
43.0
 21
526.500016
 31
0.0
  0
LINE
  5
87
  8
TEAM-DET3
 10
34.709508
 20
524.500016
 30
0.0
 11
47.0
 21
524.500016
 31
0.0
  0
LINE
  5
88
  8
TEAM-DET3
 10
34.709508
 20
517.000016
 30
0.0
 11
47.0
 21
517.000016
 31
0.0
  0
LINE
  5
89
  8
TEAM-DET3
 10
34.709508
 20
515.500016
 30
0.0
 11
47.0
 21
515.500016
 31
0.0
  0
LINE
  5
8A
  8
TEAM-DET3
 10
35.0
 20
503.491246
 30
0.0
 11
35.0
 21
506.991246
 31
0.0
  0
LINE
  5
8B
  8
TEAM-DET3
 10
36.5
 20
525.000016
 30
0.0
 11
36.5
 21
526.000016
 31
0.0
  0
ARC
  5
8C
  8
TEAM-DET3
 10
36.0
 20
525.000016
 30
0.0
 40
0.5
 50
270.0
 51
0.0
  0
ARC
  5
8D
  8
TEAM-DET3
 10
37.0
 20
526.000016
 30
0.0
 40
0.5
 50
90.0
 51
180.0
  0
ARC
  5
8E
  8
TEAM-DET3
 10
34.709508
 20
526.500016
 30
0.0
 40
2.0
 50
187.387048
 51
270.0
  0
ARC
  5
8F
  8
TEAM-DET3
 10
34.709508
 20
526.500016
 30
0.0
 40
3.5
 50
187.387048
 51
270.0
  0
LINE
  5
90
  8
TEAM-DET3
 10
37.0
 20
517.000016
 30
0.0
 11
37.0
 21
523.000016
 31
0.0
  0
LINE
  5
91
  8
TEAM-DET3
 10
37.0
 20
506.991246
 30
0.0
 11
37.0
 21
515.500016
 31
0.0
  0
ARC
  5
92
  8
TEAM-DET3
 10
34.709508
 20
513.500016
 30
0.0
 40
2.0
 50
90.0
 51
172.612952
  0
ARC
  5
93
  8
TEAM-DET3
 10
34.709508
 20
513.500016
 30
0.0
 40
3.5
 50
90.0
 51
172.612952
  0
LINE
  5
94
  8
TEAM-DET3
 10
47.0
 20
515.500016
 30
0.0
 11
47.0
 21
517.000016
 31
0.0
  0
LINE
  5
95
  8
TEAM-DET3
 10
45.0
 20
503.491246
 30
0.0
 11
45.0
 21
506.991246
 31
0.0
  0
LINE
  5
96
  8
TEAM-DET3
 10
43.0
 20
506.991246
 30
0.0
 11
43.0
 21
515.500016
 31
0.0
  0
LINE
  5
97
  8
TEAM-DET3
 10
43.0
 20
517.000016
 30
0.0
 11
43.0
 21
523.000016
 31
0.0
  0
LINE
  5
98
  8
TEAM-DET3
 10
47.0
 20
523.000016
 30
0.0
 11
47.0
 21
524.500016
 31
0.0
  0
ARC
  5
99
  8
TEAM-DET3
 10
44.0
 20
525.000016
 30
0.0
 40
0.5
 50
180.0
 51
270.0
  0
ARC
  5
9A
  8
TEAM-DET3
 10
43.0
 20
526.000016
 30
0.0
 40
0.5
 50
0.0
 51
90.0
  0
LINE
  5
9B
  8
TEAM-DET3
 10
43.5
 20
525.000016
 30
0.0
 11
43.5
 21
526.000016
 31
0.0
  0
LINE
  5
9C
  8
TEAM-DET3
 10
37.5
 20
542.000016
 30
0.0
 11
42.5
 21
542.000016
 31
0.0
  0
CIRCLE
  5
9D
  8
TEAM-DET3
 10
38.25
 20
562.500016
 30
0.0
 40
2.8
  0
LINE
  5
9E
  8
TEAM-DET3
 10
37.0
 20
541.500016
 30
0.0
 11
37.5
 21
542.000016
 31
0.0
  0
LINE
  5
9F
  8
TEAM-DET3
 10
42.5
 20
542.000016
 30
0.0
 11
43.0
 21
541.500016
 31
0.0
  0
CIRCLE
  5
A0
  8
TEAM-DET3
 10
38.25
 20
602.500016
 30
0.0
 40
2.8
  0
CIRCLE
  5
A1
  8
TEAM-DET3
 10
62.357864
 20
575.857882
 30
0.0
 40
2.8
  0
CIRCLE
  5
A2
  8
TEAM-DET3
 10
52.392136
 20
568.357882
 30
0.0
 40
2.8
  0
CIRCLE
  5
A3
  8
TEAM-DET3
 10
52.392136
 20
596.642152
 30
0.0
 40
2.8
  0
CIRCLE
  5
A4
  8
TEAM-DET3
 10
90.642136
 20
575.857882
 30
0.0
 40
2.8
  0
CIRCLE
  5
A5
  8
TEAM-DET3
 10
138.857864
 20
604.142152
 30
0.0
 40
2.8
  0
CIRCLE
  5
A6
  8
TEAM-DET3
 10
138.857864
 20
575.857882
 30
0.0
 40
2.8
  0
CIRCLE
  5
A7
  8
TEAM-DET3
 10
115.0
 20
586.500016
 30
0.0
 40
3.25
  0
CIRCLE
  5
A8
  8
TEAM-DET3
 10
133.0
 20
590.000016
 30
0.0
 40
2.8
  0
CIRCLE
  5
A9
  8
TEAM-DET3
 10
153.0
 20
570.000016
 30
0.0
 40
2.8
  0
CIRCLE
  5
AA
  8
TEAM-DET3
 10
153.0
 20
610.000016
 30
0.0
 40
2.8
  0
CIRCLE
  5
AB
  8
TEAM-DET3
 10
167.142136
 20
575.857882
 30
0.0
 40
2.8
  0
CIRCLE
  5
AC
  8
TEAM-DET3
 10
167.142136
 20
604.142152
 30
0.0
 40
2.8
  0
LINE
  5
AD
  8
TEAM-DET3
 10
209.75
 20
686.000016
 30
0.0
 11
209.75
 21
819.000016
 31
0.0
  0
LINE
  5
AE
  8
TEAM-DET3
 10
207.75
 20
686.000016
 30
0.0
 11
207.75
 21
819.000016
 31
0.0
  0
LINE
  5
AF
  8
TEAM-DET3
 10
209.5
 20
546.500016
 30
0.0
 11
209.5
 21
628.000016
 31
0.0
  0
LINE
  5
B0
  8
TEAM-DET3
 10
207.5
 20
546.500016
 30
0.0
 11
207.5
 21
628.000016
 31
0.0
  0
ARC
  5
B1
  8
TEAM-DET3
 10
207.5
 20
558.500016
 30
0.0
 40
2.0
 50
90.0
 51
180.0
  0
LINE
  5
B2
  8
TEAM-DET3
 10
207.5
 20
546.500016
 30
0.0
 11
209.5
 21
546.500016
 31
0.0
  0
LINE
  5
B3
  8
TEAM-DET3
 10
205.5
 20
556.500016
 30
0.0
 11
205.5
 21
558.500016
 31
0.0
  0
LINE
  5
B4
  8
TEAM-DET3
 10
200.0
 20
594.000016
 30
0.0
 11
205.5
 21
594.000016
 31
0.0
  0
LINE
  5
B5
  8
TEAM-DET3
 10
200.0
 20
590.250016
 30
0.0
 11
205.5
 21
590.250016
 31
0.0
  0
LINE
  5
B6
  8
TEAM-DET3
 10
200.0
 20
582.750016
 30
0.0
 11
205.5
 21
582.750016
 31
0.0
  0
LINE
  5
B7
  8
TEAM-DET3
 10
200.0
 20
579.000016
 30
0.0
 11
205.5
 21
579.000016
 31
0.0
  0
LINE
  5
B8
  8
TEAM-DET3
 10
200.0
 20
579.000016
 30
0.0
 11
200.0
 21
594.000016
 31
0.0
  0
LINE
  5
B9
  8
TEAM-DET3
 10
205.5
 20
596.500016
 30
0.0
 11
207.5
 21
596.500016
 31
0.0
  0
LINE
  5
BA
  8
TEAM-DET3
 10
205.5
 20
576.500016
 30
0.0
 11
205.5
 21
596.500016
 31
0.0
  0
LINE
  5
BB
  8
TEAM-DET3
 10
205.5
 20
576.500016
 30
0.0
 11
207.5
 21
576.500016
 31
0.0
  0
ARC
  5
BC
  8
TEAM-DET3
 10
207.5
 20
614.500016
 30
0.0
 40
2.0
 50
180.0
 51
270.0
  0
LINE
  5
BD
  8
TEAM-DET3
 10
205.5
 20
614.500016
 30
0.0
 11
205.5
 21
616.500016
 31
0.0
  0
LINE
  5
BE
  8
TEAM-DET3
 10
207.5
 20
628.000016
 30
0.0
 11
209.5
 21
628.000016
 31
0.0
  0
LINE
  5
BF
  8
TEAM-DET3
 10
207.75
 20
686.000016
 30
0.0
 11
209.75
 21
686.000016
 31
0.0
  0
LINE
  5
C0
  8
TEAM-HIDE
 10
209.75
 20
716.000016
 30
0.0
 11
227.75
 21
716.000016
 31
0.0
  0
LINE
  5
C1
  8
TEAM-HIDE
 10
209.75
 20
789.000016
 30
0.0
 11
227.75
 21
789.000016
 31
0.0
  0
LINE
  5
C2
  8
TEAM-DET3
 10
205.75
 20
742.500016
 30
0.0
 11
205.75
 21
762.500016
 31
0.0
  0
LINE
  5
C3
  8
TEAM-DET3
 10
200.25
 20
745.000016
 30
0.0
 11
200.25
 21
760.000016
 31
0.0
  0
LINE
  5
C4
  8
TEAM-DET3
 10
200.25
 20
756.250016
 30
0.0
 11
205.75
 21
756.250016
 31
0.0
  0
LINE
  5
C5
  8
TEAM-DET3
 10
200.25
 20
748.750016
 30
0.0
 11
205.75
 21
748.750016
 31
0.0
  0
LINE
  5
C6
  8
TEAM-DET3
 10
200.25
 20
745.000016
 30
0.0
 11
205.75
 21
745.000016
 31
0.0
  0
LINE
  5
C7
  8
TEAM-DET3
 10
205.75
 20
742.500016
 30
0.0
 11
207.75
 21
742.500016
 31
0.0
  0
LINE
  5
C8
  8
TEAM-DET3
 10
200.25
 20
760.000016
 30
0.0
 11
205.75
 21
760.000016
 31
0.0
  0
LINE
  5
C9
  8
TEAM-DET3
 10
205.75
 20
762.500016
 30
0.0
 11
207.75
 21
762.500016
 31
0.0
  0
LINE
  5
CA
  8
TEAM-DET3
 10
207.75
 20
819.000016
 30
0.0
 11
209.75
 21
819.000016
 31
0.0
  0
LINE
  5
CB
  8
TEAM-HIDE
 10
227.75
 20
716.000016
 30
0.0
 11
227.75
 21
789.000016
 31
0.0
  0
LINE
  5
CC
  8
TEAM-AXE
 10
0.0
 20
433.729976
 30
0.0
 11
0.0
 21
542.500016
 31
0.0
  0
LINE
  5
CF
  8
TEAM-AXE
 10
29.43213
 20
520.000016
 30
0.0
 11
-29.5
 21
520.000016
 31
0.0
  0
CIRCLE
  5
D0
  8
TEAM-DET3
 10
90.642136
 20
604.142152
 30
0.0
 40
2.8
  0
CIRCLE
  5
D1
  8
TEAM-DET3
 10
140.0
 20
800.000016
 30
0.0
 40
4.188
  0
LINE
  5
D2
  8
TEAM-AXE
 10
140.0
 20
791.298868
 30
0.0
 11
140.0
 21
808.3465
 31
0.0
  0
LINE
  5
D3
  8
TEAM-DET3
 10
124.0
 20
793.000016
 30
0.0
 11
124.0
 21
807.000016
 31
0.0
  0
LINE
  5
D4
  8
TEAM-DET3
 10
156.0
 20
793.000016
 30
0.0
 11
156.0
 21
807.000016
 31
0.0
  0
LINE
  5
D5
  8
TEAM-AXE
 10
148.346484
 20
800.000016
 30
0.0
 11
131.653516
 21
800.000016
 31
0.0
  0
ARC
  5
D6
  8
TEAM-DET3
  6
CONTINUOUS
 10
76.5
 20
590.000016
 30
0.0
 40
10.5
 50
90.0
 51
0.0
  0
CIRCLE
  5
D7
  8
TEAM-DET3
  6
CONTINUOUS
 10
76.5
 20
590.000016
 30
0.0
 40
13.0
  0
CIRCLE
  5
D8
  8
TEAM-DET3
  6
CONTINUOUS
 10
76.5
 20
590.000016
 30
0.0
 40
9.0
  0
CIRCLE
  5
D9
  8
TEAM-DET3
  6
CONTINUOUS
 10
76.5
 20
610.000016
 30
0.0
 40
3.5
  0
ARC
  5
DA
  8
TEAM-DET3
  6
CONTINUOUS
 10
76.5
 20
590.000016
 30
0.0
 40
26.0
 50
353.908473
 51
186.091527
  0
ARC
  5
DB
  8
TEAM-DET3
  6
CONTINUOUS
 10
55.61857
 20
587.771556
 30
0.0
 40
5.0
 50
186.091527
 51
255.0
  0
LINE
  5
DC
  8
TEAM-DET3
  6
CONTINUOUS
 10
65.892916
 20
579.842174
 30
0.0
 11
54.32447
 21
582.941926
 31
0.0
  0
CIRCLE
  5
DD
  8
TEAM-DET3
  6
CONTINUOUS
 10
56.5
 20
590.000016
 30
0.0
 40
3.5
  0
ARC
  5
DE
  8
TEAM-DET3
  6
CONTINUOUS
 10
97.38142
 20
587.771556
 30
0.0
 40
5.0
 50
285.0
 51
353.908473
  0
LINE
  5
DF
  8
TEAM-DET3
  6
CONTINUOUS
 10
98.67552
 20
582.941926
 30
0.0
 11
86.892916
 21
579.784789
 31
0.0
  0
CIRCLE
  5
E0
  8
TEAM-DET3
  6
CONTINUOUS
 10
96.5
 20
590.000016
 30
0.0
 40
3.5
  0
LINE
  5
E1
  8
TEAM-DET3
  6
CONTINUOUS
 10
67.092916
 20
573.000016
 30
0.0
 11
85.692916
 21
573.000016
 31
0.0
  0
LINE
  5
E2
  8
TEAM-DET3
  6
CONTINUOUS
 10
65.892916
 20
561.200016
 30
0.0
 11
86.892916
 21
561.200016
 31
0.0
  0
LINE
  5
E3
  8
TEAM-DET3
  6
CONTINUOUS
 10
67.092916
 20
560.000016
 30
0.0
 11
85.692916
 21
560.000016
 31
0.0
  0
LINE
  5
E4
  8
TEAM-DET3
  6
CONTINUOUS
 10
65.892916
 20
561.200016
 30
0.0
 11
67.092916
 21
560.000016
 31
0.0
  0
LINE
  5
E5
  8
TEAM-DET3
  6
CONTINUOUS
 10
67.092916
 20
573.000016
 30
0.0
 11
67.092916
 21
560.000016
 31
0.0
  0
LINE
  5
E6
  8
TEAM-DET3
  6
CONTINUOUS
 10
65.892916
 20
582.484048
 30
0.0
 11
65.892916
 21
561.200016
 31
0.0
  0
LINE
  5
E7
  8
TEAM-DET3
  6
CONTINUOUS
 10
85.692916
 20
560.000016
 30
0.0
 11
86.892916
 21
561.200016
 31
0.0
  0
LINE
  5
E8
  8
TEAM-DET3
  6
CONTINUOUS
 10
86.892916
 20
582.19058
 30
0.0
 11
86.892916
 21
561.200016
 31
0.0
  0
LINE
  5
E9
  8
TEAM-DET3
  6
CONTINUOUS
 10
85.692916
 20
573.000016
 30
0.0
 11
85.692916
 21
560.000016
 31
0.0
  0
ARC
  5
EA
  8
TEAM-DET3
  6
CONTINUOUS
 10
-76.5
 20
590.000016
 30
0.0
 40
10.5
 50
90.0
 51
0.0
  0
CIRCLE
  5
EB
  8
TEAM-DET3
  6
CONTINUOUS
 10
-76.5
 20
590.000016
 30
0.0
 40
13.0
  0
CIRCLE
  5
EC
  8
TEAM-DET3
  6
CONTINUOUS
 10
-76.5
 20
590.000016
 30
0.0
 40
9.0
  0
ARC
  5
ED
  8
TEAM-DET3
  6
CONTINUOUS
 10
-76.5
 20
590.000016
 30
0.0
 40
26.0
 50
353.908473
 51
186.091527
  0
LINE
  5
EE
  8
TEAM-DET3
  6
CONTINUOUS
 10
-85.907084
 20
573.000016
 30
0.0
 11
-67.307084
 21
573.000016
 31
0.0
  0
LINE
  5
EF
  8
TEAM-DET3
  6
CONTINUOUS
 10
-87.107084
 20
561.200016
 30
0.0
 11
-66.107084
 21
561.200016
 31
0.0
  0
LINE
  5
F0
  8
TEAM-DET3
  6
CONTINUOUS
 10
-85.907084
 20
560.000016
 30
0.0
 11
-67.307084
 21
560.000016
 31
0.0
  0
ARC
  5
F1
  8
TEAM-DET3
  6
CONTINUOUS
 10
-97.38143
 20
587.771556
 30
0.0
 40
5.0
 50
186.091527
 51
255.0
  0
CIRCLE
  5
F2
  8
TEAM-DET3
  6
CONTINUOUS
 10
-96.5
 20
590.000016
 30
0.0
 40
3.5
  0
LINE
  5
F3
  8
TEAM-DET3
  6
CONTINUOUS
 10
-87.107084
 20
579.842174
 30
0.0
 11
-98.67553
 21
582.941926
 31
0.0
  0
LINE
  5
F4
  8
TEAM-DET3
  6
CONTINUOUS
 10
-87.107084
 20
561.200016
 30
0.0
 11
-85.907084
 21
560.000016
 31
0.0
  0
LINE
  5
F5
  8
TEAM-DET3
  6
CONTINUOUS
 10
-85.907084
 20
573.000016
 30
0.0
 11
-85.907084
 21
560.000016
 31
0.0
  0
LINE
  5
F6
  8
TEAM-DET3
  6
CONTINUOUS
 10
-87.107084
 20
582.484048
 30
0.0
 11
-87.107084
 21
561.200016
 31
0.0
  0
CIRCLE
  5
F7
  8
TEAM-DET3
  6
CONTINUOUS
 10
-76.5
 20
610.000016
 30
0.0
 40
3.5
  0
CIRCLE
  5
F8
  8
TEAM-DET3
  6
CONTINUOUS
 10
-56.5
 20
590.000016
 30
0.0
 40
3.5
  0
ARC
  5
F9
  8
TEAM-DET3
  6
CONTINUOUS
 10
-55.61858
 20
587.771556
 30
0.0
 40
5.0
 50
285.0
 51
353.908473
  0
LINE
  5
FA
  8
TEAM-DET3
  6
CONTINUOUS
 10
-67.307084
 20
560.000016
 30
0.0
 11
-66.107084
 21
561.200016
 31
0.0
  0
LINE
  5
FB
  8
TEAM-DET3
  6
CONTINUOUS
 10
-67.307084
 20
573.000016
 30
0.0
 11
-67.307084
 21
560.000016
 31
0.0
  0
LINE
  5
FC
  8
TEAM-DET3
  6
CONTINUOUS
 10
-66.107084
 20
582.19058
 30
0.0
 11
-66.107084
 21
561.200016
 31
0.0
  0
LINE
  5
FD
  8
TEAM-DET3
  6
CONTINUOUS
 10
-54.32448
 20
582.941926
 30
0.0
 11
-66.107084
 21
579.784789
 31
0.0
  0
LINE
  5
FE
  8
TEAM-HIDE
 10
-210.0
 20
1079.995137
 30
0.0
 11
-210.0
 21
1120.000016
 31
0.0
  0
LINE
  5
FF
  8
TEAM-HIDE
 10
-250.0
 20
1079.995137
 30
0.0
 11
-250.0
 21
1120.000016
 31
0.0
  0
LINE
  5
100
  8
TEAM-HIDE
 10
-247.5
 20
501.500016
 30
0.0
 11
-212.5
 21
501.500016
 31
0.0
  0
CIRCLE
  5
101
  8
TEAM-DET3
 10
-230.0
 20
1059.995137
 30
0.0
 40
6.5
  0
CIRCLE
  5
102
  8
TEAM-DET3
 10
-230.0
 20
1059.995137
 30
0.0
 40
12.0
  0
LINE
  5
103
  8
TEAM-DET3
 10
-217.5
 20
990.000016
 30
0.0
 11
-217.5
 21
1015.000016
 31
0.0
  0
LINE
  5
104
  8
TEAM-DET3
 10
-242.5
 20
1015.000016
 30
0.0
 11
-217.5
 21
1015.000016
 31
0.0
  0
LINE
  5
105
  8
TEAM-DET3
 10
-242.5
 20
990.000016
 30
0.0
 11
-242.5
 21
1015.000016
 31
0.0
  0
LINE
  5
106
  8
TEAM-DET3
 10
-242.5
 20
1000.000016
 30
0.0
 11
-217.5
 21
1000.000016
 31
0.0
  0
LINE
  5
107
  8
TEAM-DET3
 10
-230.0
 20
1000.000016
 30
0.0
 11
-227.0
 21
1005.196168
 31
0.0
  0
LINE
  5
108
  8
TEAM-DET3
 10
-233.0
 20
1005.196168
 30
0.0
 11
-230.0
 21
1000.000016
 31
0.0
  0
LINE
  5
109
  8
TEAM-DET3
 10
-233.0
 20
1005.196168
 30
0.0
 11
-227.0
 21
1005.196168
 31
0.0
  0
LINE
  5
10A
  8
TEAM-DET3
 10
-242.5
 20
990.000016
 30
0.0
 11
-217.5
 21
990.000016
 31
0.0
  0
LINE
  5
10B
  8
TEAM-DET3
 10
-209.75
 20
686.000016
 30
0.0
 11
-209.75
 21
819.000016
 31
0.0
  0
LINE
  5
10C
  8
TEAM-DET3
 10
-207.75
 20
686.000016
 30
0.0
 11
-207.75
 21
819.000016
 31
0.0
  0
LINE
  5
10D
  8
TEAM-DET3
 10
-207.5
 20
546.500016
 30
0.0
 11
-207.5
 21
628.000016
 31
0.0
  0
LINE
  5
10E
  8
TEAM-DET3
 10
-209.5
 20
546.500016
 30
0.0
 11
-209.5
 21
628.000016
 31
0.0
  0
LINE
  5
10F
  8
TEAM-DET3
 10
-205.5
 20
594.000016
 30
0.0
 11
-200.0
 21
594.000016
 31
0.0
  0
LINE
  5
110
  8
TEAM-DET3
 10
-205.5
 20
590.250016
 30
0.0
 11
-200.0
 21
590.250016
 31
0.0
  0
LINE
  5
111
  8
TEAM-DET3
 10
-205.5
 20
582.750016
 30
0.0
 11
-200.0
 21
582.750016
 31
0.0
  0
LINE
  5
112
  8
TEAM-DET3
 10
-205.5
 20
579.000016
 30
0.0
 11
-200.0
 21
579.000016
 31
0.0
  0
ARC
  5
113
  8
TEAM-DET3
 10
-207.5
 20
558.500016
 30
0.0
 40
2.0
 50
0.0
 51
90.0
  0
LINE
  5
114
  8
TEAM-DET3
 10
-209.5
 20
546.500016
 30
0.0
 11
-207.5
 21
546.500016
 31
0.0
  0
LINE
  5
115
  8
TEAM-DET3
 10
-205.5
 20
556.500016
 30
0.0
 11
-205.5
 21
558.500016
 31
0.0
  0
LINE
  5
116
  8
TEAM-DET3
 10
-207.5
 20
596.500016
 30
0.0
 11
-205.5
 21
596.500016
 31
0.0
  0
LINE
  5
117
  8
TEAM-DET3
 10
-205.5
 20
576.500016
 30
0.0
 11
-205.5
 21
596.500016
 31
0.0
  0
LINE
  5
118
  8
TEAM-DET3
 10
-207.5
 20
576.500016
 30
0.0
 11
-205.5
 21
576.500016
 31
0.0
  0
ARC
  5
119
  8
TEAM-DET3
 10
-207.5
 20
614.500016
 30
0.0
 40
2.0
 50
270.0
 51
0.0
  0
LINE
  5
11A
  8
TEAM-DET3
 10
-205.5
 20
614.500016
 30
0.0
 11
-205.5
 21
616.500016
 31
0.0
  0
LINE
  5
11B
  8
TEAM-DET3
 10
-200.0
 20
579.000016
 30
0.0
 11
-200.0
 21
594.000016
 31
0.0
  0
LINE
  5
11C
  8
TEAM-DET3
 10
-209.5
 20
628.000016
 30
0.0
 11
-207.5
 21
628.000016
 31
0.0
  0
LINE
  5
11D
  8
TEAM-DET3
 10
-209.75
 20
686.000016
 30
0.0
 11
-207.75
 21
686.000016
 31
0.0
  0
LINE
  5
11E
  8
TEAM-HIDE
 10
-227.75
 20
716.000016
 30
0.0
 11
-209.75
 21
716.000016
 31
0.0
  0
LINE
  5
11F
  8
TEAM-HIDE
 10
-227.75
 20
789.000016
 30
0.0
 11
-209.75
 21
789.000016
 31
0.0
  0
LINE
  5
120
  8
TEAM-HIDE
 10
-227.75
 20
716.000016
 30
0.0
 11
-227.75
 21
789.000016
 31
0.0
  0
LINE
  5
121
  8
TEAM-DET3
 10
-205.75
 20
760.000016
 30
0.0
 11
-200.25
 21
760.000016
 31
0.0
  0
LINE
  5
122
  8
TEAM-DET3
 10
-205.75
 20
756.250016
 30
0.0
 11
-200.25
 21
756.250016
 31
0.0
  0
LINE
  5
123
  8
TEAM-DET3
 10
-205.75
 20
748.750016
 30
0.0
 11
-200.25
 21
748.750016
 31
0.0
  0
LINE
  5
124
  8
TEAM-DET3
 10
-205.75
 20
745.000016
 30
0.0
 11
-200.25
 21
745.000016
 31
0.0
  0
LINE
  5
125
  8
TEAM-DET3
 10
-205.75
 20
742.500016
 30
0.0
 11
-205.75
 21
762.500016
 31
0.0
  0
LINE
  5
126
  8
TEAM-DET3
 10
-207.75
 20
742.500016
 30
0.0
 11
-205.75
 21
742.500016
 31
0.0
  0
LINE
  5
127
  8
TEAM-DET3
 10
-207.75
 20
762.500016
 30
0.0
 11
-205.75
 21
762.500016
 31
0.0
  0
LINE
  5
128
  8
TEAM-DET3
 10
-200.25
 20
745.000016
 30
0.0
 11
-200.25
 21
760.000016
 31
0.0
  0
LINE
  5
129
  8
TEAM-DET3
 10
-209.75
 20
819.000016
 30
0.0
 11
-207.75
 21
819.000016
 31
0.0
  0
CIRCLE
  5
12A
  8
TEAM-DET3
 10
-167.142136
 20
575.857882
 30
0.0
 40
2.8
  0
CIRCLE
  5
12B
  8
TEAM-DET3
 10
-167.142136
 20
604.142152
 30
0.0
 40
2.8
  0
CIRCLE
  5
12C
  8
TEAM-DET3
 10
-173.0
 20
590.000016
 30
0.0
 40
2.8
  0
CIRCLE
  5
12D
  8
TEAM-DET3
 10
-153.0
 20
570.000016
 30
0.0
 40
2.8
  0
CIRCLE
  5
12E
  8
TEAM-DET3
 10
-153.0
 20
610.000016
 30
0.0
 40
2.8
  0
CIRCLE
  5
12F
  8
TEAM-DET3
 10
-133.0
 20
590.000016
 30
0.0
 40
2.8
  0
CIRCLE
  5
130
  8
TEAM-DET3
 10
-138.857864
 20
575.857882
 30
0.0
 40
2.8
  0
CIRCLE
  5
131
  8
TEAM-DET3
 10
-138.857864
 20
604.142152
 30
0.0
 40
2.8
  0
LINE
  5
132
  8
TEAM-DET3
 10
-156.0
 20
793.000016
 30
0.0
 11
-156.0
 21
807.000016
 31
0.0
  0
LINE
  5
133
  8
TEAM-DET3
 10
-124.0
 20
793.000016
 30
0.0
 11
-124.0
 21
807.000016
 31
0.0
  0
LINE
  5
134
  8
TEAM-AXE
 10
-140.0
 20
791.298868
 30
0.0
 11
-140.0
 21
808.3465
 31
0.0
  0
CIRCLE
  5
135
  8
TEAM-DET3
 10
-140.0
 20
800.000016
 30
0.0
 40
4.188
  0
LINE
  5
136
  8
TEAM-AXE
 10
-148.346484
 20
800.000016
 30
0.0
 11
-131.653516
 21
800.000016
 31
0.0
  0
LINE
  5
137
  8
TEAM-HIDE
 10
-210.0
 20
1090.000016
 30
0.0
 11
210.0
 21
1090.000016
 31
0.0
  0
LINE
  5
138
  8
TEAM-DET3
 10
-207.75
 20
720.000016
 30
0.0
 11
207.75
 21
720.000016
 31
0.0
  0
LINE
  5
139
  8
TEAM-DET3
 10
-207.75
 20
690.000016
 30
0.0
 11
207.75
 21
690.000016
 31
0.0
  0
LINE
  5
13A
  8
TEAM-DET3
 10
-207.75
 20
793.000016
 30
0.0
 11
207.75
 21
793.000016
 31
0.0
  0
LINE
  5
13B
  8
TEAM-DET3
 10
-207.75
 20
807.000016
 30
0.0
 11
207.75
 21
807.000016
 31
0.0
  0
LINE
  5
13C
  8
TEAM-DET3
 10
-207.75
 20
785.000016
 30
0.0
 11
207.75
 21
785.000016
 31
0.0
  0
LINE
  5
13D
  8
TEAM-DET3
 10
-207.75
 20
815.000016
 30
0.0
 11
207.75
 21
815.000016
 31
0.0
  0
LINE
  5
13E
  8
TEAM-DET3
 10
-205.5
 20
556.500016
 30
0.0
 11
205.5
 21
556.500016
 31
0.0
  0
LINE
  5
13F
  8
TEAM-DET3
 10
-205.5
 20
616.500016
 30
0.0
 11
205.5
 21
616.500016
 31
0.0
  0
LINE
  5
140
  8
TEAM-DET3
 10
-250.0
 20
1079.995137
 30
0.0
 11
250.0
 21
1079.995137
 31
0.0
  0
LINE
  5
141
  8
TEAM-DET3
 10
-250.0
 20
1120.000016
 30
0.0
 11
250.0
 21
1120.000016
 31
0.0
  0
DIMENSION
  5
142
  8
TEAM-MAS
  2
*D4
 10
250.0
 20
1150.037855
 30
0.0
 11
0.0
 21
1150.037855
 31
0.0
 12
-12000.0
 22
-20000.0
 32
0.0
 13
-250.0
 23
1099.997576
 33
0.0
 14
250.0
 24
1099.997576
 34
0.0
1001
ACAD
1000
DSTYLE
1002
{
1070
    40
1040
1.0
1002
}
  0
DIMENSION
  5
150
  8
TEAM-MAS
  2
*D5
 10
140.0
 20
857.737111
 30
0.0
 11
0.0
 21
857.737111
 31
0.0
 12
-12000.0
 22
-20000.0
 32
0.0
  1
50-380
 13
-140.0
 23
800.000016
 33
0.0
 14
140.0
 24
800.000016
 34
0.0
1001
ACAD
1000
DSTYLE
1002
{
1070
    40
1040
1.0
1002
}
  0
LINE
  5
15E
  8
TEAM-DET3
 10
176.5
 20
-12.0
 30
0.0
 11
249.5
 21
-12.0
 31
0.0
  0
LINE
  5
15F
  8
TEAM-DET3
 10
176.5
 20
-20.0
 30
0.0
 11
249.5
 21
-20.0
 31
0.0
  0
LINE
  5
160
  8
TEAM-DET2
 10
210.0
 20
71.500016
 30
0.0
 11
250.0
 21
71.500016
 31
0.0
  0
LINE
  5
162
  8
TEAM-DET3
 10
176.5
 20
-20.0
 30
0.0
 11
176.5
 21
-12.0
 31
0.0
  0
LINE
  5
163
  8
TEAM-DET3
 10
204.0
 20
72.500016
 30
0.0
 11
204.0
 21
92.500016
 31
0.0
  0
LINE
  5
164
  8
TEAM-DET3
 10
198.5
 20
75.000016
 30
0.0
 11
198.5
 21
90.000016
 31
0.0
  0
LINE
  5
165
  8
TEAM-DET3
 10
210.0
 20
71.500016
 30
0.0
 11
210.0
 21
93.500016
 31
0.0
  0
LINE
  5
166
  8
TEAM-DET3
 10
206.0
 20
71.500016
 30
0.0
 11
206.0
 21
93.500016
 31
0.0
  0
LINE
  5
167
  8
TEAM-HIDE
 10
182.0
 20
-20.0
 30
0.0
 11
182.0
 21
-12.0
 31
0.0
  0
LINE
  5
168
  8
TEAM-AXE
 10
187.5
 20
-23.160154
 30
0.0
 11
187.5
 21
-8.705836
 31
0.0
  0
LINE
  5
169
  8
TEAM-HIDE
 10
193.0
 20
-20.0
 30
0.0
 11
193.0
 21
-12.0
 31
0.0
  0
LINE
  5
16A
  8
TEAM-DET3
 10
212.5
 20
-12.0
 30
0.0
 11
212.5
 21
71.500016
 31
0.0
  0
LINE
  5
16B
  8
TEAM-DET3
 10
204.0
 20
72.500016
 30
0.0
 11
206.0
 21
72.500016
 31
0.0
  0
LINE
  5
16C
  8
TEAM-DET3
 10
198.5
 20
78.750016
 30
0.0
 11
204.0
 21
78.750016
 31
0.0
  0
LINE
  5
16D
  8
TEAM-DET3
 10
198.5
 20
75.000016
 30
0.0
 11
204.0
 21
75.000016
 31
0.0
  0
LINE
  5
16E
  8
TEAM-DET3
 10
206.0
 20
71.500016
 30
0.0
 11
210.0
 21
71.500016
 31
0.0
  0
LINE
  5
16F
  8
TEAM-DET3
 10
204.0
 20
92.500016
 30
0.0
 11
206.0
 21
92.500016
 31
0.0
  0
LINE
  5
170
  8
TEAM-DET3
 10
198.5
 20
90.000016
 30
0.0
 11
204.0
 21
90.000016
 31
0.0
  0
LINE
  5
171
  8
TEAM-DET3
 10
198.5
 20
86.250016
 30
0.0
 11
204.0
 21
86.250016
 31
0.0
  0
LINE
  5
172
  8
TEAM-DET3
 10
206.0
 20
93.500016
 30
0.0
 11
210.0
 21
93.500016
 31
0.0
  0
LINE
  5
173
  8
TEAM-DET3
 10
247.5
 20
-12.0
 30
0.0
 11
247.5
 21
71.500016
 31
0.0
  0
LINE
  5
174
  8
TEAM-DET3
 10
249.5
 20
-20.0
 30
0.0
 11
249.5
 21
-12.0
 31
0.0
  0
LINE
  5
175
  8
TEAM-DET3
 10
-249.5
 20
-20.0
 30
0.0
 11
-176.5
 21
-20.0
 31
0.0
  0
LINE
  5
176
  8
TEAM-DET2
 10
-250.0
 20
71.500016
 30
0.0
 11
-210.0
 21
71.500016
 31
0.0
  0
LINE
  5
177
  8
TEAM-DET3
 10
-247.5
 20
-12.0
 30
0.0
 11
-247.5
 21
71.500016
 31
0.0
  0
LINE
  5
178
  8
TEAM-DET3
 10
-249.5
 20
-20.0
 30
0.0
 11
-249.5
 21
-12.0
 31
0.0
  0
LINE
  5
179
  8
TEAM-DET3
 10
-204.0
 20
90.000016
 30
0.0
 11
-198.5
 21
90.000016
 31
0.0
  0
LINE
  5
17A
  8
TEAM-DET3
 10
-204.0
 20
86.250016
 30
0.0
 11
-198.5
 21
86.250016
 31
0.0
  0
LINE
  5
17B
  8
TEAM-DET3
 10
-204.0
 20
78.750016
 30
0.0
 11
-198.5
 21
78.750016
 31
0.0
  0
LINE
  5
17C
  8
TEAM-DET3
 10
-204.0
 20
75.000016
 30
0.0
 11
-198.5
 21
75.000016
 31
0.0
  0
LINE
  5
17D
  8
TEAM-DET3
 10
-249.5
 20
-12.0
 30
0.0
 11
-176.5
 21
-12.0
 31
0.0
  0
LINE
  5
17E
  8
TEAM-DET3
 10
-204.0
 20
72.500016
 30
0.0
 11
-204.0
 21
92.500016
 31
0.0
  0
LINE
  5
17F
  8
TEAM-DET3
 10
-206.0
 20
71.500016
 30
0.0
 11
-206.0
 21
93.500016
 31
0.0
  0
LINE
  5
180
  8
TEAM-DET3
 10
-212.5
 20
-12.0
 30
0.0
 11
-212.5
 21
71.500016
 31
0.0
  0
LINE
  5
181
  8
TEAM-DET3
 10
-210.0
 20
71.500016
 30
0.0
 11
-206.0
 21
71.500016
 31
0.0
  0
LINE
  5
182
  8
TEAM-DET3
 10
-206.0
 20
72.500016
 30
0.0
 11
-204.0
 21
72.500016
 31
0.0
  0
LINE
  5
183
  8
TEAM-DET3
 10
-210.0
 20
93.500016
 30
0.0
 11
-206.0
 21
93.500016
 31
0.0
  0
LINE
  5
184
  8
TEAM-DET3
 10
-206.0
 20
92.500016
 30
0.0
 11
-204.0
 21
92.500016
 31
0.0
  0
LINE
  5
185
  8
TEAM-DET3
 10
-198.5
 20
75.000016
 30
0.0
 11
-198.5
 21
90.000016
 31
0.0
  0
LINE
  5
186
  8
TEAM-HIDE
 10
-193.0
 20
-20.0
 30
0.0
 11
-193.0
 21
-12.0
 31
0.0
  0
LINE
  5
187
  8
TEAM-AXE
 10
-187.5
 20
-23.160154
 30
0.0
 11
-187.5
 21
-8.705836
 31
0.0
  0
LINE
  5
188
  8
TEAM-HIDE
 10
-182.0
 20
-20.0
 30
0.0
 11
-182.0
 21
-12.0
 31
0.0
  0
LINE
  5
189
  8
TEAM-DET3
 10
-176.5
 20
-20.0
 30
0.0
 11
-176.5
 21
-12.0
 31
0.0
  0
DIMENSION
  5
18A
  8
TEAM-MAS
  2
*D7
 10
-176.5
 20
17.959475
 30
0.0
 11
-142.426756
 21
17.959475
 31
0.0
 12
-12000.0
 22
-20000.0
 32
0.0
 70
   128
 13
-249.5
 23
-12.0
 33
0.0
 14
-176.5
 24
-12.0
 34
0.0
1001
ACAD
1000
DSTYLE
1002
{
1070
    40
1040
1.0
1002
}
  0
LINE
  5
197
  8
TEAM-DET2
 10
-210.0
 20
71.500016
 30
0.0
 11
-210.0
 21
1079.995137
 31
0.0
  0
LINE
  5
198
  8
TEAM-DET2
 10
-250.0
 20
71.500016
 30
0.0
 11
-250.0
 21
1120.000016
 31
0.0
  0
LINE
  5
199
  8
TEAM-HIDE
 10
-212.5
 20
71.500016
 30
0.0
 11
-212.5
 21
501.500016
 31
0.0
  0
LINE
  5
19A
  8
TEAM-HIDE
 10
-247.5
 20
71.500016
 30
0.0
 11
-247.5
 21
501.500016
 31
0.0
  0
LINE
  5
19B
  8
TEAM-DET2
 10
210.0
 20
71.500016
 30
0.0
 11
210.0
 21
1079.995137
 31
0.0
  0
LINE
  5
19C
  8
TEAM-DET2
 10
250.0
 20
71.500016
 30
0.0
 11
250.0
 21
1120.000016
 31
0.0
  0
LINE
  5
19D
  8
TEAM-HIDE
 10
212.5
 20
71.500016
 30
0.0
 11
212.5
 21
501.500016
 31
0.0
  0
LINE
  5
19E
  8
TEAM-HIDE
 10
247.5
 20
71.500016
 30
0.0
 11
247.5
 21
501.500016
 31
0.0
  0
DIMENSION
  5
19F
  8
TEAM-MAS
  2
*D0
 10
277.93925
 20
520.000016
 30
0.0
 11
277.93925
 21
260.000008
 31
0.0
 12
-12000.0
 22
-20000.0
 32
0.0
 13
0.0
 23
0.0
 33
0.0
 14
0.0
 24
520.000016
 34
0.0
 50
90.0
1001
ACAD
1000
DSTYLE
1002
{
1070
    40
1040
1.0
1002
}
  0
DIMENSION
  5
1AD
  8
TEAM-MAS
  2
*D1
 10
323.018052
 20
800.000016
 30
0.0
 11
323.018052
 21
400.000008
 31
0.0
 12
-12000.0
 22
-20000.0
 32
0.0
 13
0.0
 23
0.0
 33
0.0
 14
140.0
 24
800.000016
 34
0.0
 50
90.0
1001
ACAD
1000
DSTYLE
1002
{
1070
    40
1040
1.0
1002
}
  0
DIMENSION
  5
1BB
  8
TEAM-MAS
  2
*D3
 10
369.651097
 20
1000.000016
 30
0.0
 11
369.651097
 21
500.000008
 31
0.0
 12
-12000.0
 22
-20000.0
 32
0.0
 13
0.0
 23
0.0
 33
0.0
 14
242.5
 24
1000.000016
 34
0.0
 50
90.0
1001
ACAD
1000
DSTYLE
1002
{
1070
    40
1040
1.0
1002
}
  0
TEXT
  5
1C9
  8
TEAM-TXT
 10
-134.163739
 20
954.05517
 30
0.0
 40
30.0
  1
team 871018
 41
0.8
 51
15.0
  7
TEAM
  0
CIRCLE
  5
1CC
  8
TEAM-INSP
 10
0.0
 20
0.0
 30
0.0
 40
10.0
  0
ENDSEC
  0
EOF
