  0
SECTION
  2
HEADER
  9
$ACADVER
  1
AC1009
  9
$INSBASE
 10
0.0
 20
0.0
 30
0.0
  9
$EXTMIN
 10
-317.778952
 20
-60.001214
 30
-0.000006
  9
$EXTMAX
 10
93.554602
 20
1120.025893
 30
0.000006
  9
$LIMMIN
 10
-317.778952
 20
-60.001214
  9
$LIMMAX
 10
93.554602
 20
1120.025893
  9
$ORTHOMODE
 70
     1
  9
$REGENMODE
 70
     1
  9
$FILLMODE
 70
     1
  9
$QTEXTMODE
 70
     0
  9
$MIRRTEXT
 70
     0
  9
$DRAGMODE
 70
     2
  9
$LTSCALE
 40
50.0
  9
$OSMODE
 70
     0
  9
$ATTMODE
 70
     1
  9
$TEXTSIZE
 40
200.0
  9
$TRACEWID
 40
1.0
  9
$TEXTSTYLE
  7
STANDARD
  9
$CLAYER
  8
TEAM-MAS
  9
$CELTYPE
  6
BYLAYER
  9
$CECOLOR
 62
   256
  9
$DIMSCALE
 40
1.0
  9
$DIMASZ
 40
20.0
  9
$DIMEXO
 40
10.0
  9
$DIMDLI
 40
1.0
  9
$DIMRND
 40
0.0
  9
$DIMDLE
 40
0.0
  9
$DIMEXE
 40
1.0
  9
$DIMTP
 40
0.0
  9
$DIMTM
 40
0.0
  9
$DIMTXT
 40
35.0
  9
$DIMCEN
 40
1.0
  9
$DIMTSZ
 40
0.0
  9
$DIMTOL
 70
     0
  9
$DIMLIM
 70
     0
  9
$DIMTIH
 70
     0
  9
$DIMTOH
 70
     0
  9
$DIMSE1
 70
     0
  9
$DIMSE2
 70
     0
  9
$DIMTAD
 70
     0
  9
$DIMZIN
 70
     0
  9
$DIMBLK
  1

  9
$DIMASO
 70
     1
  9
$DIMSHO
 70
     0
  9
$DIMPOST
  1

  9
$DIMAPOST
  1

  9
$DIMALT
 70
     0
  9
$DIMALTD
 70
     2
  9
$DIMALTF
 40
25.4
  9
$DIMLFAC
 40
1.0
  9
$DIMTOFL
 70
     0
  9
$DIMTVP
 40
0.0
  9
$DIMTIX
 70
     0
  9
$DIMSOXD
 70
     0
  9
$DIMSAH
 70
     0
  9
$DIMBLK1
  1

  9
$DIMBLK2
  1

  9
$DIMSTYLE
  2
TEAM
  9
$DIMCLRD
 70
     9
  9
$DIMCLRE
 70
     9
  9
$DIMCLRT
 70
    11
  9
$DIMTFAC
 40
1.0
  9
$DIMGAP
 40
7.0
  9
$LUNITS
 70
     2
  9
$LUPREC
 70
     1
  9
$SKETCHINC
 40
1.0
  9
$FILLETRAD
 40
50.0
  9
$AUNITS
 70
     0
  9
$AUPREC
 70
     0
  9
$MENU
  1
ROPLANS
  9
$ELEVATION
 40
0.0
  9
$PELEVATION
 40
0.0
  9
$THICKNESS
 40
0.0
  9
$LIMCHECK
 70
     0
  9
$BLIPMODE
 70
     1
  9
$CHAMFERA
 40
0.0
  9
$CHAMFERB
 40
0.0
  9
$SKPOLY
 70
     0
  9
$TDCREATE
 40
2450392.957851
  9
$TDUPDATE
 40
2456118.662559
  9
$TDINDWG
 40
5.307301
  9
$TDUSRTIMER
 40
5.307301
  9
$USRTIMER
 70
     1
  9
$ANGBASE
 50
0.0
  9
$ANGDIR
 70
     0
  9
$PDMODE
 70
     0
  9
$PDSIZE
 40
0.0
  9
$PLINEWID
 40
0.0
  9
$COORDS
 70
     2
  9
$SPLFRAME
 70
     0
  9
$SPLINETYPE
 70
     6
  9
$SPLINESEGS
 70
     8
  9
$ATTDIA
 70
     0
  9
$ATTREQ
 70
     0
  9
$HANDLING
 70
     1
  9
$HANDSEED
  5
183
  9
$SURFTAB1
 70
    24
  9
$SURFTAB2
 70
    24
  9
$SURFTYPE
 70
     6
  9
$SURFU
 70
     6
  9
$SURFV
 70
     6
  9
$UCSNAME
  2

  9
$UCSORG
 10
0.0
 20
0.0
 30
0.0
  9
$UCSXDIR
 10
1.0
 20
0.0
 30
0.0
  9
$UCSYDIR
 10
0.0
 20
1.0
 30
0.0
  9
$PUCSNAME
  2

  9
$PUCSORG
 10
0.0
 20
0.0
 30
0.0
  9
$PUCSXDIR
 10
1.0
 20
0.0
 30
0.0
  9
$PUCSYDIR
 10
0.0
 20
1.0
 30
0.0
  9
$USERI1
 70
     0
  9
$USERI2
 70
     0
  9
$USERI3
 70
     0
  9
$USERI4
 70
     0
  9
$USERI5
 70
     0
  9
$USERR1
 40
0.0
  9
$USERR2
 40
0.0
  9
$USERR3
 40
0.0
  9
$USERR4
 40
0.0
  9
$USERR5
 40
0.0
  9
$WORLDVIEW
 70
     1
  9
$SHADEDGE
 70
     0
  9
$SHADEDIF
 70
    70
  9
$TILEMODE
 70
     1
  9
$MAXACTVP
 70
    16
  9
$PLIMCHECK
 70
     0
  9
$PEXTMIN
 10
-0.805942
 20
0.005011
 30
0.0
  9
$PEXTMAX
 10
20.250094
 20
11.356329
 30
0.0
  9
$PLIMMIN
 10
0.0
 20
0.0
  9
$PLIMMAX
 10
12.0
 20
9.0
  9
$UNITMODE
 70
     0
  9
$VISRETAIN
 70
     0
  9
$PLINEGEN
 70
     0
  9
$PSLTSCALE
 70
     0
  0
ENDSEC
  0
SECTION
  2
TABLES
  0
TABLE
  2
VPORT
 70
     2
  0
VPORT
  2
*ACTIVE
 70
     0
 10
0.0
 20
0.0
 11
1.0
 21
1.0
 12
-112.112175
 22
530.01234
 13
0.0
 23
0.0
 14
1.0
 24
1.0
 15
50.0
 25
50.0
 16
0.0
 26
0.0
 36
1.0
 17
0.0
 27
0.0
 37
0.0
 40
1187.456449
 41
1.911765
 42
50.0
 43
0.0
 44
0.0
 50
0.0
 51
0.0
 71
     0
 72
   100
 73
     1
 74
     1
 75
     0
 76
     0
 77
     0
 78
     0
  0
ENDTAB
  0
TABLE
  2
LTYPE
 70
     3
  0
LTYPE
  2
CONTINUOUS
 70
     0
  3
Solid Line
 72
    65
 73
     0
 40
0.0
  0
LTYPE
  2
31
 70
     0
  3

 72
    65
 73
     4
 40
2.1
 49
1.5
 49
-0.3
 49
0.0
 49
-0.3
  0
LTYPE
  2
22
 70
     0
  3

 72
    65
 73
     2
 40
1.4
 49
1.2
 49
-0.2
  0
ENDTAB
  0
TABLE
  2
LAYER
 70
     9
  0
LAYER
  2
0
 70
     0
 62
     7
  6
CONTINUOUS
  0
LAYER
  2
DEFPOINTS
 70
     0
 62
     7
  6
CONTINUOUS
  0
LAYER
  2
TEAM-AXE
 70
     0
 62
    10
  6
31
  0
LAYER
  2
TEAM-MAS
 70
     0
 62
     9
  6
CONTINUOUS
  0
LAYER
  2
TEAM-TXT
 70
     0
 62
    11
  6
CONTINUOUS
  0
LAYER
  2
TEAM-DET2
 70
     0
 62
    11
  6
CONTINUOUS
  0
LAYER
  2
TEAM-HIDE
 70
     0
 62
     8
  6
22
  0
LAYER
  2
TEAM-DET3
 70
     0
 62
    14
  6
CONTINUOUS
  0
LAYER
  2
TEAM-INSP
 70
     0
 62
     5
  6
CONTINUOUS
  0
ENDTAB
  0
TABLE
  2
STYLE
 70
     2
  0
STYLE
  2
STANDARD
 70
     0
 40
0.0
 41
1.0
 50
0.0
 71
     0
 42
200.0
  3
txt
  4

  0
STYLE
  2
TEAM
 70
     0
 40
0.0
 41
0.8
 50
15.0
 71
     0
 42
7.0
  3
ROMANS.shx
  4

  0
ENDTAB
  0
TABLE
  2
VIEW
 70
     0
  0
ENDTAB
  0
TABLE
  2
UCS
 70
     0
  0
ENDTAB
  0
TABLE
  2
APPID
 70
     1
  0
APPID
  2
ACAD
 70
     0
  0
ENDTAB
  0
TABLE
  2
DIMSTYLE
 70
     1
  0
DIMSTYLE
  2
TEAM
 70
     0
  3

  4

  5

  6

  7

 40
1.0
 41
20.0
 42
10.0
 43
1.0
 44
1.0
 45
0.0
 46
0.0
 47
0.0
 48
0.0
140
35.0
141
1.0
142
0.0
143
25.4
144
1.0
145
0.0
146
1.0
147
7.0
 71
     0
 72
     0
 73
     0
 74
     0
 75
     0
 76
     0
 77
     0
 78
     0
170
     0
171
     2
172
     0
173
     0
174
     0
175
     0
176
     9
177
     9
178
    11
  0
ENDTAB
  0
ENDSEC
  0
SECTION
  2
BLOCKS
  0
BLOCK
  8
0
  2
$MODEL_SPACE
 70
     0
 10
0.0
 20
0.0
 30
0.0
  3
$MODEL_SPACE
  1

  0
ENDBLK
  5
176
  8
0
  0
BLOCK
 67
     1
  8
0
  2
$PAPER_SPACE
 70
     0
 10
0.0
 20
0.0
 30
0.0
  3
$PAPER_SPACE
  1

  0
ENDBLK
  5
174
 67
     1
  8
0
  0
BLOCK
  8
0
  2
*D0
 70
     1
 10
0.0
 20
0.0
 30
0.0
  3
*D0
  1

  0
LINE
  5
22
  8
0
  6
BYBLOCK
 62
     9
 10
8010.0
 20
24000.0
 30
0.0
 11
8077.032051
 21
24000.0
 31
0.0
  0
LINE
  5
23
  8
0
  6
BYBLOCK
 62
     9
 10
8009.999921
 20
25119.996197
 30
0.0
 11
8077.032051
 21
25119.996197
 31
0.0
  0
LINE
  5
24
  8
0
  6
BYBLOCK
 62
     9
 10
8076.032051
 20
24020.0
 30
0.0
 11
8076.032051
 21
24503.414765
 31
0.0
  0
LINE
  5
25
  8
0
  6
BYBLOCK
 62
     9
 10
8076.032051
 20
25099.996197
 30
0.0
 11
8076.032051
 21
24616.581432
 31
0.0
  0
SOLID
  5
26
  8
0
  6
BYBLOCK
 62
     9
 10
8072.698718
 20
24020.0
 30
0.0
 11
8079.365385
 21
24020.0
 31
0.0
 12
8076.032051
 22
24000.0
 32
0.0
 13
8076.032051
 23
24000.0
 33
0.0
  0
SOLID
  5
27
  8
0
  6
BYBLOCK
 62
     9
 10
8072.698718
 20
25099.996197
 30
0.0
 11
8079.365385
 21
25099.996197
 31
0.0
 12
8076.032051
 22
25119.996197
 32
0.0
 13
8076.032051
 23
25119.996197
 33
0.0
  0
TEXT
  5
28
  8
0
  6
BYBLOCK
 62
    11
 10
8093.532051
 20
24510.414765
 30
0.0
 40
35.0
  1
1120
 50
90.0
  0
POINT
  5
29
  8
DEFPOINTS
  6
BYBLOCK
 62
     0
 10
8000.0
 20
24000.0
 30
0.0
  0
POINT
  5
2B
  8
DEFPOINTS
  6
BYBLOCK
 62
     0
 10
7999.999921
 20
25119.996197
 30
0.0
  0
POINT
  5
2C
  8
DEFPOINTS
  6
BYBLOCK
 62
     0
 10
8076.032051
 20
25119.996197
 30
0.0
  0
ENDBLK
  5
2E
  8
0
  0
BLOCK
  8
0
  2
*D1
 70
     1
 10
0.0
 20
0.0
 30
0.0
  3
*D1
  1

  0
LINE
  5
43
  8
0
  6
BYBLOCK
 62
     9
 10
8009.500346
 20
23980.0
 30
0.0
 11
8047.610948
 21
23980.0
 31
0.0
  0
LINE
  5
44
  8
0
  6
BYBLOCK
 62
     9
 10
8010.0
 20
24000.0
 30
0.0
 11
8047.610948
 21
24000.0
 31
0.0
  0
LINE
  5
45
  8
0
  6
BYBLOCK
 62
     9
 10
8046.610948
 20
23960.0
 30
0.0
 11
8046.610948
 21
23940.0
 31
0.0
  0
LINE
  5
46
  8
0
  6
BYBLOCK
 62
     9
 10
8046.610948
 20
24020.0
 30
0.0
 11
8046.610948
 21
24040.0
 31
0.0
  0
TEXT
  5
47
  8
0
  6
BYBLOCK
 62
    11
 10
8064.110948
 20
24046.407102
 30
0.0
 40
35.0
  1
0-200
 50
90.0
  0
LINE
  5
48
  8
0
  6
BYBLOCK
 62
     9
 10
8046.610948
 20
23980.0
 30
0.0
 11
8046.610948
 21
24000.0
 31
0.0
  0
SOLID
  5
49
  8
0
  6
BYBLOCK
 62
     9
 10
8043.277614
 20
23960.0
 30
0.0
 11
8049.944281
 21
23960.0
 31
0.0
 12
8046.610948
 22
23980.0
 32
0.0
 13
8046.610948
 23
23980.0
 33
0.0
  0
SOLID
  5
4A
  8
0
  6
BYBLOCK
 62
     9
 10
8043.277614
 20
24020.0
 30
0.0
 11
8049.944281
 21
24020.0
 31
0.0
 12
8046.610948
 22
24000.0
 32
0.0
 13
8046.610948
 23
24000.0
 33
0.0
  0
POINT
  5
4B
  8
DEFPOINTS
  6
BYBLOCK
 62
     0
 10
7999.500346
 20
23980.0
 30
0.0
  0
POINT
  5
4C
  8
DEFPOINTS
  6
BYBLOCK
 62
     0
 10
8000.0
 20
24000.0
 30
0.0
  0
POINT
  5
4D
  8
DEFPOINTS
  6
BYBLOCK
 62
     0
 10
8046.610948
 20
24000.0
 30
0.0
  0
ENDBLK
  5
4F
  8
0
  0
BLOCK
  8
0
  2
*D2
 70
     1
 10
0.0
 20
0.0
 30
0.0
  3
*D2
  1

  0
LINE
  5
52
  8
0
  6
BYBLOCK
 62
     9
 10
7999.500342
 20
23998.0
 30
0.0
 11
7999.500342
 21
24033.55883
 31
0.0
  0
LINE
  5
53
  8
0
  6
BYBLOCK
 62
     9
 10
7951.500342
 20
23997.999984
 30
0.0
 11
7951.500342
 21
24033.55883
 31
0.0
  0
LINE
  5
54
  8
0
  6
BYBLOCK
 62
     9
 10
8019.500342
 20
24032.55883
 30
0.0
 11
8039.500342
 21
24032.55883
 31
0.0
  0
LINE
  5
55
  8
0
  6
BYBLOCK
 62
     9
 10
7931.500342
 20
24032.55883
 30
0.0
 11
7911.500342
 21
24032.55883
 31
0.0
  0
TEXT
  5
56
  8
0
  6
BYBLOCK
 62
    11
 10
7841.866087
 20
24015.05883
 30
0.0
 40
35.0
  1
48
  0
LINE
  5
57
  8
0
  6
BYBLOCK
 62
     9
 10
7999.500342
 20
24032.55883
 30
0.0
 11
7951.500342
 21
24032.55883
 31
0.0
  0
SOLID
  5
58
  8
0
  6
BYBLOCK
 62
     9
 10
8019.500342
 20
24035.892163
 30
0.0
 11
8019.500342
 21
24029.225497
 31
0.0
 12
7999.500342
 22
24032.55883
 32
0.0
 13
7999.500342
 23
24032.55883
 33
0.0
  0
SOLID
  5
59
  8
0
  6
BYBLOCK
 62
     9
 10
7931.500342
 20
24035.892163
 30
0.0
 11
7931.500342
 21
24029.225497
 31
0.0
 12
7951.500342
 22
24032.55883
 32
0.0
 13
7951.500342
 23
24032.55883
 33
0.0
  0
POINT
  5
5A
  8
DEFPOINTS
  6
BYBLOCK
 62
     0
 10
7999.500342
 20
23988.0
 30
0.0
  0
POINT
  5
5B
  8
DEFPOINTS
  6
BYBLOCK
 62
     0
 10
7951.500342
 20
23987.999984
 30
0.0
  0
POINT
  5
5C
  8
DEFPOINTS
  6
BYBLOCK
 62
     0
 10
7951.500342
 20
24032.55883
 30
0.0
  0
ENDBLK
  5
5E
  8
0
  0
ENDSEC
  0
SECTION
  2
ENTITIES
  0
DIMENSION
  5
20
  8
TEAM-MAS
  2
*D0
 10
76.032051
 20
1119.996197
 30
0.0
 11
76.032051
 21
559.998098
 31
0.0
 12
-8000.0
 22
-24000.0
 32
0.0
 13
0.0
 23
0.0
 33
0.0
 14
-0.000079
 24
1119.996197
 34
0.0
 50
90.0
1001
ACAD
1000
DSTYLE
1002
{
1070
    40
1040
1.0
1002
}
  0
LINE
  5
2F
  8
TEAM-DET3
 10
-68.000572
 20
708.64497
 30
0.0
 11
-68.000572
 21
473.144443
 31
0.0
  0
LINE
  5
31
  8
TEAM-DET3
 10
-69.997349
 20
710.641402
 30
0.0
 11
-69.997349
 21
471.141465
 31
0.0
  0
LINE
  5
32
  8
TEAM-HIDE
 10
-22.696533
 20
506.350168
 30
0.0
 11
-22.696533
 21
650.425956
 31
0.0
  0
LINE
  5
35
  8
TEAM-HIDE
 10
-27.194794
 20
506.280922
 30
0.0
 11
-27.194794
 21
649.395528
 31
0.0
  0
LINE
  5
36
  8
TEAM-HIDE
 10
-20.495117
 20
649.12371
 30
0.0
 11
-20.495117
 21
507.668606
 31
0.0
  0
LINE
  5
37
  8
TEAM-HIDE
 10
-15.700046
 20
597.144297
 30
0.0
 11
-15.700046
 21
584.144297
 31
0.0
  0
LINE
  5
38
  8
TEAM-HIDE
 10
-14.500046
 20
601.145217
 30
0.0
 11
-14.500046
 21
585.344297
 31
0.0
  0
LINE
  5
39
  8
TEAM-HIDE
 10
-35.500046
 20
601.145217
 30
0.0
 11
-35.500046
 21
585.344297
 31
0.0
  0
LINE
  5
3A
  8
TEAM-HIDE
 10
-34.300046
 20
597.144297
 30
0.0
 11
-34.300046
 21
584.144297
 31
0.0
  0
LINE
  5
3B
  8
TEAM-DET3
 10
-44.999863
 20
632.14475
 30
0.0
 11
-44.999847
 21
580.14475
 31
0.0
  0
LINE
  5
3C
  8
TEAM-DET3
 10
-44.999865
 20
637.14475
 30
0.0
 11
-44.999849
 21
584.14475
 31
0.0
  0
LINE
  5
3D
  8
TEAM-DET3
 10
-46.999865
 20
637.14475
 30
0.0
 11
-46.999849
 21
584.14475
 31
0.0
  0
LINE
  5
3E
  8
TEAM-DET2
 10
-0.000079
 20
1119.996197
 30
0.0
 11
0.000322
 21
71.356183
 31
0.0
  0
LINE
  5
40
  8
TEAM-DET2
 10
-40.000121
 20
1119.996185
 30
0.0
 11
-39.99972
 21
71.35617
 31
0.0
  0
DIMENSION
  5
41
  8
TEAM-MAS
  2
*D1
 10
46.610948
 20
0.0
 30
0.0
 11
46.610948
 21
119.323769
 31
0.0
 12
-8000.0
 22
-24000.0
 32
0.0
 70
   128
  1
0-200
 13
-0.499654
 23
-20.0
 33
0.0
 14
0.0
 24
0.0
 34
0.0
 50
90.0
1001
ACAD
1000
DSTYLE
1002
{
1070
    40
1040
1.0
1002
}
  0
DIMENSION
  5
50
  8
TEAM-MAS
  2
*D2
 10
-48.499658
 20
32.55883
 30
0.0
 11
-128.967247
 21
32.55883
 31
0.0
 12
-8000.0
 22
-24000.0
 32
0.0
 70
   128
 13
-0.499658
 23
-12.0
 33
0.0
 14
-48.499658
 24
-12.000016
 34
0.0
1001
ACAD
1000
DSTYLE
1002
{
1070
    40
1040
1.0
1002
}
  0
LINE
  5
5F
  8
TEAM-DET3
 10
-39.999838
 20
380.738025
 30
0.0
 11
-61.549064
 21
380.738025
 31
0.0
  0
LINE
  5
60
  8
TEAM-HIDE
 10
-14.376405
 20
380.738025
 30
0.0
 11
-39.999838
 21
380.738025
 31
0.0
  0
LINE
  5
61
  8
TEAM-DET3
 10
-39.999852
 20
415.346076
 30
0.0
 11
-65.387934
 21
415.346076
 31
0.0
  0
LINE
  5
62
  8
TEAM-HIDE
 10
-10.002511
 20
415.346076
 30
0.0
 11
-39.999852
 21
415.346076
 31
0.0
  0
LINE
  5
63
  8
TEAM-DET3
 10
-39.99985
 20
410.731715
 30
0.0
 11
-62.064105
 21
410.731715
 31
0.0
  0
LINE
  5
64
  8
TEAM-HIDE
 10
-13.790394
 20
410.731715
 30
0.0
 11
-39.99985
 21
410.731715
 31
0.0
  0
LINE
  5
65
  8
TEAM-HIDE
 10
-9.502851
 20
475.141221
 30
0.0
 11
-9.502851
 21
473.144443
 31
0.0
  0
LINE
  5
66
  8
TEAM-DET3
 10
-65.502878
 20
475.141221
 30
0.0
 11
-65.502878
 21
473.144443
 31
0.0
  0
LINE
  5
67
  8
TEAM-DET3
 10
-39.999837
 20
378.141801
 30
0.0
 11
-61.122783
 21
378.141801
 31
0.0
  0
LINE
  5
68
  8
TEAM-HIDE
 10
-13.878122
 20
378.141801
 30
0.0
 11
-39.999837
 21
378.141801
 31
0.0
  0
LINE
  5
69
  8
TEAM-HIDE
 10
-13.878122
 20
378.141801
 30
0.0
 11
-12.374682
 21
380.738025
 31
0.0
  0
LINE
  5
6A
  8
TEAM-DET3
 10
-61.122783
 20
378.141801
 30
0.0
 11
-62.624156
 21
380.738025
 31
0.0
  0
LINE
  5
6B
  8
TEAM-HIDE
 10
-12.374682
 20
380.738025
 30
0.0
 11
-12.374682
 21
410.146175
 31
0.0
  0
LINE
  5
6C
  8
TEAM-DET3
 10
-62.624156
 20
380.738025
 30
0.0
 11
-62.624156
 21
410.145738
 31
0.0
  0
LINE
  5
6D
  8
TEAM-DET3
 10
-39.999874
 20
475.141221
 30
0.0
 11
-65.502878
 21
475.141221
 31
0.0
  0
LINE
  5
6E
  8
TEAM-HIDE
 10
-9.502851
 20
475.141221
 30
0.0
 11
-39.999874
 21
475.141221
 31
0.0
  0
LINE
  5
6F
  8
TEAM-HIDE
 10
-12.374682
 20
410.146175
 30
0.0
 11
-8.000789
 21
414.519127
 31
0.0
  0
LINE
  5
70
  8
TEAM-DET3
 10
-62.624156
 20
410.145738
 30
0.0
 11
-66.998049
 21
414.51681
 31
0.0
  0
LINE
  5
71
  8
TEAM-HIDE
 10
-8.000789
 20
414.519127
 30
0.0
 11
-8.000789
 21
470.943027
 31
0.0
  0
LINE
  5
72
  8
TEAM-DET3
 10
-66.998049
 20
414.51681
 30
0.0
 11
-66.998049
 21
470.943027
 31
0.0
  0
LINE
  5
73
  8
TEAM-DET3
 10
-39.999873
 20
471.141465
 30
0.0
 11
-69.997349
 21
471.141465
 31
0.0
  0
LINE
  5
74
  8
TEAM-HIDE
 10
0.000101
 20
471.141465
 30
0.0
 11
-39.999873
 21
471.141465
 31
0.0
  0
LINE
  5
75
  8
TEAM-HIDE
 10
-39.999874
 20
473.144443
 30
0.0
 11
0.000101
 21
473.144443
 31
0.0
  0
LINE
  5
76
  8
TEAM-DET3
 10
-68.000572
 20
473.144443
 30
0.0
 11
-39.999874
 21
473.144443
 31
0.0
  0
LINE
  5
77
  8
TEAM-HIDE
 10
0.000101
 20
473.144443
 30
0.0
 11
0.000101
 21
471.141465
 31
0.0
  0
LINE
  5
78
  8
TEAM-HIDE
 10
-39.999858
 20
431.371171
 30
0.0
 11
-18.251671
 21
431.372144
 31
0.0
  0
LINE
  5
79
  8
TEAM-DET3
 10
-56.743378
 20
431.370421
 30
0.0
 11
-39.999858
 21
431.371171
 31
0.0
  0
LINE
  5
7A
  8
TEAM-HIDE
 10
-22.696533
 20
506.435951
 30
0.0
 11
-22.696533
 21
477.870942
 31
0.0
  0
LINE
  5
7B
  8
TEAM-HIDE
 10
-22.696533
 20
506.435951
 30
0.0
 11
-37.495285
 21
505.878363
 31
0.0
  0
LINE
  5
7C
  8
TEAM-HIDE
 10
-17.447241
 20
471.141465
 30
0.0
 11
-17.447241
 21
434.370066
 31
0.0
  0
LINE
  5
7D
  8
TEAM-HIDE
 10
-17.447241
 20
476.372326
 30
0.0
 11
-17.447241
 21
475.141221
 31
0.0
  0
LINE
  5
7E
  8
TEAM-DET3
 10
-27.194794
 20
506.280922
 30
0.0
 11
-27.194794
 21
506.435951
 31
0.0
  0
LINE
  5
7F
  8
TEAM-HIDE
 10
-18.445285
 20
477.370714
 30
0.0
 11
-22.195271
 21
477.370714
 31
0.0
  0
LINE
  5
80
  8
TEAM-DET3
 10
-52.49592
 20
516.729552
 30
0.0
 11
-52.49592
 21
517.195329
 31
0.0
  0
LINE
  5
81
  8
TEAM-DET3
 10
-67.996438
 20
543.099863
 30
0.0
 11
-55.497976
 21
542.990654
 31
0.0
  0
LINE
  5
82
  8
TEAM-DET3
 10
-67.996438
 20
543.099863
 30
0.0
 11
-67.996438
 21
543.59768
 31
0.0
  0
LINE
  5
83
  8
TEAM-DET3
 10
-67.996438
 20
545.096296
 30
0.0
 11
-55.497976
 21
545.206367
 31
0.0
  0
LINE
  5
84
  8
TEAM-DET3
 10
-67.996438
 20
543.59768
 30
0.0
 11
-67.996438
 21
544.599341
 31
0.0
  0
LINE
  5
85
  8
TEAM-DET3
 10
-67.996438
 20
544.599341
 30
0.0
 11
-67.996438
 21
545.096296
 31
0.0
  0
LINE
  5
86
  8
TEAM-DET3
 10
-67.996438
 20
588.096772
 30
0.0
 11
-55.497976
 21
587.991008
 31
0.0
  0
LINE
  5
87
  8
TEAM-DET3
 10
-67.996438
 20
588.096772
 30
0.0
 11
-67.996438
 21
588.598034
 31
0.0
  0
LINE
  5
88
  8
TEAM-DET3
 10
-67.996438
 20
590.09665
 30
0.0
 11
-55.497976
 21
590.206721
 31
0.0
  0
LINE
  5
89
  8
TEAM-DET3
 10
-67.996438
 20
588.598034
 30
0.0
 11
-67.996438
 21
589.599695
 31
0.0
  0
LINE
  5
8A
  8
TEAM-DET3
 10
-67.996438
 20
589.599695
 30
0.0
 11
-67.996438
 21
590.09665
 31
0.0
  0
LINE
  5
8B
  8
TEAM-DET3
 10
-22.696533
 20
506.435951
 30
0.0
 11
-21.797363
 21
506.372389
 31
0.0
  0
POLYLINE
  5
8C
  8
TEAM-HIDE
 66
     1
 10
0.0
 20
0.0
 30
0.0
  0
VERTEX
  5
17C
  8
TEAM-HIDE
 10
-27.201684
 20
521.280523
 30
0.0
  0
VERTEX
  5
17D
  8
TEAM-HIDE
 10
-27.271964
 20
521.633473
 30
0.0
  0
VERTEX
  5
17E
  8
TEAM-HIDE
 10
-27.480048
 20
521.936642
 30
0.0
  0
VERTEX
  5
17F
  8
TEAM-HIDE
 10
-27.794241
 20
522.148343
 30
0.0
  0
VERTEX
  5
180
  8
TEAM-HIDE
 10
-28.108433
 20
522.226202
 30
0.0
  0
SEQEND
  5
181
  8
TEAM-HIDE
  0
LINE
  5
93
  8
TEAM-AXE
 10
-37.500453
 20
406.334051
 30
0.0
 11
-37.500453
 21
349.949551
 31
0.0
  0
LINE
  5
96
  8
TEAM-HIDE
 10
-34.300046
 20
584.144297
 30
0.0
 11
-35.500046
 21
585.344297
 31
0.0
  0
LINE
  5
97
  8
TEAM-HIDE
 10
-14.500046
 20
585.344297
 30
0.0
 11
-15.700046
 21
584.144297
 31
0.0
  0
LINE
  5
98
  8
TEAM-HIDE
 10
-14.500046
 20
585.344297
 30
0.0
 11
-35.500046
 21
585.344297
 31
0.0
  0
LINE
  5
99
  8
TEAM-HIDE
 10
-15.700046
 20
584.144297
 30
0.0
 11
-34.300046
 21
584.144297
 31
0.0
  0
ARC
  5
9A
  8
TEAM-HIDE
 10
-2.999845
 20
572.144764
 30
0.0
 40
3.0
 50
270.000019
 51
0.000019
  0
LINE
  5
9B
  8
TEAM-HIDE
 10
-39.999843
 20
569.144752
 30
0.0
 11
-23.999843
 21
569.144756
 31
0.0
  0
ARC
  5
9C
  8
TEAM-DET3
 10
-41.999847
 20
580.14475
 30
0.0
 40
1.0
 50
180.000019
 51
270.000019
  0
ARC
  5
9D
  8
TEAM-DET3
 10
-41.999847
 20
580.14475
 30
0.0
 40
3.0
 50
180.000019
 51
270.000019
  0
ARC
  5
9E
  8
TEAM-DET3
 10
-48.499849
 20
584.144748
 30
0.0
 40
3.5
 50
270.000019
 51
0.000019
  0
ARC
  5
9F
  8
TEAM-DET3
 10
-48.499849
 20
584.144748
 30
0.0
 40
1.5
 50
270.000019
 51
0.000019
  0
LINE
  5
A0
  8
TEAM-DET3
 10
-42.999847
 20
583.14475
 30
0.0
 11
-42.999845
 21
572.14475
 31
0.0
  0
LINE
  5
A1
  8
TEAM-DET3
 10
-44.999849
 20
584.14475
 30
0.0
 11
-43.999849
 21
584.14475
 31
0.0
  0
ARC
  5
A2
  8
TEAM-DET3
 10
-43.999847
 20
583.14475
 30
0.0
 40
1.0
 50
0.000019
 51
90.000019
  0
ARC
  5
A3
  8
TEAM-DET3
 10
-39.999845
 20
572.144752
 30
0.0
 40
3.0
 50
180.000019
 51
270.000019
  0
LINE
  5
A4
  8
TEAM-DET3
 10
-59.999847
 20
582.644746
 30
0.0
 11
-59.999847
 21
580.644746
 31
0.0
  0
LINE
  5
A5
  8
TEAM-DET3
 10
-59.999847
 20
582.644746
 30
0.0
 11
-48.499847
 21
582.644748
 31
0.0
  0
LINE
  5
A6
  8
TEAM-DET3
 10
-59.999847
 20
580.644746
 30
0.0
 11
-48.499847
 21
580.644748
 31
0.0
  0
LINE
  5
A7
  8
TEAM-HIDE
 10
-23.999843
 20
569.144756
 30
0.0
 11
-2.999843
 21
569.144764
 31
0.0
  0
LINE
  5
A8
  8
TEAM-DET3
 10
-0.499658
 20
-12.0
 30
0.0
 11
-0.499654
 21
-20.0
 31
0.0
  0
LINE
  5
A9
  8
TEAM-DET3
 10
-2.499678
 20
71.356183
 30
0.0
 11
-2.499658
 21
-12.0
 31
0.0
  0
LINE
  5
AA
  8
TEAM-HIDE
 10
-12.499658
 20
-12.000004
 30
0.0
 11
-12.499654
 21
-20.000004
 31
0.0
  0
LINE
  5
AB
  8
TEAM-HIDE
 10
-2.499818
 20
418.644299
 30
0.0
 11
-2.499678
 21
71.356183
 31
0.0
  0
LINE
  5
AC
  8
TEAM-AXE
 10
-24.49966
 20
-5.90698
 30
0.0
 11
-24.499652
 21
-25.334542
 31
0.0
  0
LINE
  5
AD
  8
TEAM-HIDE
 10
-36.499658
 20
-12.000012
 30
0.0
 11
-36.499654
 21
-20.000012
 31
0.0
  0
LINE
  5
AE
  8
TEAM-DET3
 10
-48.499658
 20
-12.000016
 30
0.0
 11
-48.499654
 21
-20.000016
 31
0.0
  0
LINE
  5
AF
  8
TEAM-DET3
 10
-37.499678
 20
71.356171
 30
0.0
 11
-37.499658
 21
-12.000012
 31
0.0
  0
LINE
  5
B0
  8
TEAM-HIDE
 10
-37.499818
 20
418.644287
 30
0.0
 11
-37.499678
 21
71.356171
 31
0.0
  0
LINE
  5
B1
  8
TEAM-DET3
 10
-48.499658
 20
-12.000016
 30
0.0
 11
-0.499658
 21
-12.0
 31
0.0
  0
LINE
  5
B2
  8
TEAM-DET3
 10
-48.499654
 20
-20.000016
 30
0.0
 11
-0.499654
 21
-20.0
 31
0.0
  0
LINE
  5
B3
  8
TEAM-HIDE
 10
-37.499818
 20
418.644287
 30
0.0
 11
-2.499818
 21
418.644299
 31
0.0
  0
CIRCLE
  5
B4
  8
TEAM-HIDE
 10
-19.99968
 20
82.356177
 30
0.0
 40
10.0
  0
LINE
  5
B5
  8
TEAM-DET2
 10
-39.99972
 20
71.35617
 30
0.0
 11
0.000322
 21
71.356183
 31
0.0
  0
CIRCLE
  5
B6
  8
TEAM-INSP
 10
0.0
 20
0.0
 30
0.0
 40
10.0
  0
LINE
  5
B8
  8
TEAM-DET3
 10
-39.999964
 20
708.64497
 30
0.0
 11
-68.000572
 21
708.64497
 31
0.0
  0
LINE
  5
B9
  8
TEAM-DET3
 10
-2.002878
 20
708.64497
 30
0.0
 11
-39.999964
 21
708.64497
 31
0.0
  0
LINE
  5
BA
  8
TEAM-DET3
 10
-2.002878
 20
708.64497
 30
0.0
 11
-2.002878
 21
670.643155
 31
0.0
  0
LINE
  5
BB
  8
TEAM-DET3
 10
0.000101
 20
670.643155
 30
0.0
 11
-2.002878
 21
670.643155
 31
0.0
  0
LINE
  5
BC
  8
TEAM-DET3
 10
0.000101
 20
710.641402
 30
0.0
 11
0.000101
 21
670.643155
 31
0.0
  0
LINE
  5
BD
  8
TEAM-DET3
 10
-39.999964
 20
710.641402
 30
0.0
 11
-69.997349
 21
710.641402
 31
0.0
  0
LINE
  5
BE
  8
TEAM-DET3
 10
0.000101
 20
710.641402
 30
0.0
 11
-39.999964
 21
710.641402
 31
0.0
  0
LINE
  5
BF
  8
TEAM-DET3
 10
-55.497976
 20
617.370438
 30
0.0
 11
-55.497976
 21
617.384735
 31
0.0
  0
LINE
  5
C0
  8
TEAM-DET3
 10
-67.996438
 20
605.097113
 30
0.0
 11
-55.497976
 21
604.987903
 31
0.0
  0
LINE
  5
C1
  8
TEAM-DET3
 10
-67.996438
 20
605.097113
 30
0.0
 11
-67.996438
 21
605.598374
 31
0.0
  0
LINE
  5
C2
  8
TEAM-DET3
 10
-67.996438
 20
607.09768
 30
0.0
 11
-55.497976
 21
607.207061
 31
0.0
  0
LINE
  5
C3
  8
TEAM-DET3
 10
-67.996438
 20
605.598374
 30
0.0
 11
-67.996438
 21
606.599863
 31
0.0
  0
LINE
  5
C4
  8
TEAM-DET3
 10
-67.996438
 20
606.599863
 30
0.0
 11
-67.996438
 21
607.09768
 31
0.0
  0
LINE
  5
C5
  8
TEAM-HIDE
 10
-26.206741
 20
650.39719
 30
0.0
 11
-22.496028
 21
650.425956
 31
0.0
  0
LINE
  5
C6
  8
TEAM-HIDE
 10
-31.213153
 20
646.891116
 30
0.0
 11
-28.186292
 21
646.919021
 31
0.0
  0
LINE
  5
C7
  8
TEAM-HIDE
 10
-31.653436
 20
646.88681
 30
0.0
 11
-31.237613
 21
646.891116
 31
0.0
  0
LINE
  5
C8
  8
TEAM-DET3
 10
1.002624
 20
610.875571
 30
0.0
 11
1.002624
 21
648.524264
 31
0.0
  0
LINE
  5
C9
  8
TEAM-DET3
 10
1.002624
 20
648.524264
 30
0.0
 11
1.002624
 21
650.97631
 31
0.0
  0
LINE
  5
CA
  8
TEAM-HIDE
 10
-21.797363
 20
650.425956
 30
0.0
 11
-22.496028
 21
650.425956
 31
0.0
  0
LINE
  5
CB
  8
TEAM-HIDE
 10
-20.495117
 20
614.929415
 30
0.0
 11
-17.895103
 21
614.929415
 31
0.0
  0
LINE
  5
CC
  8
TEAM-HIDE
 10
-20.495117
 20
646.925912
 30
0.0
 11
-17.895103
 21
646.925912
 31
0.0
  0
LINE
  5
CD
  8
TEAM-DET3
 10
0.000116
 20
610.875571
 30
0.0
 11
1.002624
 21
610.875571
 31
0.0
  0
LINE
  5
CE
  8
TEAM-HIDE
 10
-12.974129
 20
610.875571
 30
0.0
 11
0.000116
 21
610.875571
 31
0.0
  0
LINE
  5
CF
  8
TEAM-DET3
 10
0.0001
 20
650.97631
 30
0.0
 11
1.002624
 21
650.97631
 31
0.0
  0
LINE
  5
D0
  8
TEAM-HIDE
 10
-12.974129
 20
650.97631
 30
0.0
 11
0.0001
 21
650.97631
 31
0.0
  0
LINE
  5
D1
  8
TEAM-HIDE
 10
-17.073792
 20
614.501879
 30
0.0
 11
-15.432893
 21
612.15663
 31
0.0
  0
LINE
  5
D2
  8
TEAM-HIDE
 10
-17.073792
 20
647.352587
 30
0.0
 11
-15.432893
 21
649.698697
 31
0.0
  0
LINE
  5
D3
  8
TEAM-HIDE
 10
-17.432771
 20
615.80068
 30
0.0
 11
-17.432771
 21
645.070728
 31
0.0
  0
LINE
  5
D4
  8
TEAM-HIDE
 10
-14.364569
 20
648.227986
 30
0.0
 11
-14.364569
 21
649.635135
 31
0.0
  0
LINE
  5
D5
  8
TEAM-HIDE
 10
-14.364569
 20
612.22002
 30
0.0
 11
-14.364569
 21
648.227986
 31
0.0
  0
LINE
  5
D6
  8
TEAM-HIDE
 10
-36.999627
 20
710.641525
 30
0.0
 11
-2.99959
 21
710.641537
 31
0.0
  0
LINE
  5
D7
  8
TEAM-AXE
 10
-25.771391
 20
629.644423
 30
0.0
 11
27.776639
 21
629.644441
 31
0.0
  0
LINE
  5
D8
  8
TEAM-HIDE
 10
-6.171411
 20
604.144429
 30
0.0
 11
-2.49981
 21
604.14443
 31
0.0
  0
LINE
  5
D9
  8
TEAM-HIDE
 10
-7.585624
 20
604.730215
 30
0.0
 11
-11.999841
 21
609.144428
 31
0.0
  0
ARC
  5
DA
  8
TEAM-HIDE
 10
-6.171411
 20
606.144429
 30
0.0
 40
2.0
 50
225.000019
 51
270.000019
  0
LINE
  5
DB
  8
TEAM-HIDE
 10
-14.500046
 20
601.145217
 30
0.0
 11
-0.000041
 21
601.145217
 31
0.0
  0
LINE
  5
DC
  8
TEAM-HIDE
 10
-40.000081
 20
601.145217
 30
0.0
 11
-35.500046
 21
601.145217
 31
0.0
  0
LINE
  5
DD
  8
TEAM-HIDE
 10
-40.00009
 20
627.143377
 30
0.0
 11
-0.000048
 21
627.143377
 31
0.0
  0
LINE
  5
DE
  8
TEAM-DET3
  6
CONTINUOUS
 10
-0.00005
 20
627.143377
 30
0.0
 11
21.266749
 21
627.143377
 31
0.0
  0
LINE
  5
DF
  8
TEAM-HIDE
 10
-25.000046
 20
606.628329
 30
0.0
 11
-35.500046
 21
601.145217
 31
0.0
  0
LINE
  5
E0
  8
TEAM-HIDE
 10
-14.500046
 20
601.145217
 30
0.0
 11
-25.000046
 21
606.628329
 31
0.0
  0
LINE
  5
E1
  8
TEAM-HIDE
 10
-15.700046
 20
597.144297
 30
0.0
 11
-34.300046
 21
597.144297
 31
0.0
  0
LINE
  5
E2
  8
TEAM-HIDE
 10
2.998114
 20
624.643554
 30
0.0
 11
1.49822
 21
623.14366
 31
0.0
  0
LINE
  5
E3
  8
TEAM-HIDE
 10
2.998114
 20
603.64504
 30
0.0
 11
1.49822
 21
605.144934
 31
0.0
  0
LINE
  5
E4
  8
TEAM-HIDE
 10
2.998114
 20
624.643554
 30
0.0
 11
2.998114
 21
603.64504
 31
0.0
  0
LINE
  5
E5
  8
TEAM-DET3
  6
CONTINUOUS
 10
22.996627
 20
627.643341
 30
0.0
 11
21.266749
 21
627.143377
 31
0.0
  0
LINE
  5
E6
  8
TEAM-DET3
  6
CONTINUOUS
 10
22.996627
 20
600.645252
 30
0.0
 11
21.266749
 21
601.145217
 31
0.0
  0
LINE
  5
E7
  8
TEAM-DET3
  6
CONTINUOUS
 10
-0.000041
 20
601.145217
 30
0.0
 11
21.266749
 21
601.145217
 31
0.0
  0
LINE
  5
E8
  8
TEAM-DET3
  6
CONTINUOUS
 10
32.995919
 20
600.645252
 30
0.0
 11
32.995919
 21
627.643341
 31
0.0
  0
LINE
  5
E9
  8
TEAM-HIDE
 10
32.995919
 20
623.14366
 30
0.0
 11
-41.500294
 21
623.14366
 31
0.0
  0
LINE
  5
EA
  8
TEAM-HIDE
 10
32.995919
 20
605.144934
 30
0.0
 11
-41.500294
 21
605.144934
 31
0.0
  0
LINE
  5
EB
  8
TEAM-HIDE
 10
32.995919
 20
603.64504
 30
0.0
 11
2.998114
 21
603.64504
 31
0.0
  0
LINE
  5
EC
  8
TEAM-HIDE
 10
32.995919
 20
624.643554
 30
0.0
 11
2.998114
 21
624.643554
 31
0.0
  0
LINE
  5
ED
  8
TEAM-DET3
  6
CONTINUOUS
 10
32.995919
 20
600.645252
 30
0.0
 11
22.996627
 21
600.645252
 31
0.0
  0
LINE
  5
EE
  8
TEAM-DET3
  6
CONTINUOUS
 10
32.995919
 20
627.643341
 30
0.0
 11
22.996627
 21
627.643341
 31
0.0
  0
LINE
  5
EF
  8
TEAM-HIDE
 10
0.000332
 20
812.141819
 30
0.0
 11
0.000334
 21
805.641819
 31
0.0
  0
LINE
  5
F0
  8
TEAM-HIDE
 10
-1.999668
 20
812.141819
 30
0.0
 11
-1.999666
 21
805.641819
 31
0.0
  0
LINE
  5
F1
  8
TEAM-HIDE
 10
-1.999666
 20
805.641819
 30
0.0
 11
0.000334
 21
805.641819
 31
0.0
  0
ARC
  5
F2
  8
TEAM-HIDE
 10
-2.499668
 20
812.141819
 30
0.0
 40
0.5
 50
0.000019
 51
90.000019
  0
ARC
  5
F3
  8
TEAM-HIDE
 10
-2.499668
 20
812.141819
 30
0.0
 40
2.5
 50
0.000019
 51
90.000019
  0
ARC
  5
F4
  8
TEAM-HIDE
 10
-17.499668
 20
812.141813
 30
0.0
 40
0.5
 50
90.000019
 51
180.000019
  0
ARC
  5
F5
  8
TEAM-HIDE
 10
-17.499668
 20
812.141813
 30
0.0
 40
2.5
 50
90.000019
 51
180.000019
  0
LINE
  5
F6
  8
TEAM-HIDE
 10
-17.499668
 20
814.641813
 30
0.0
 11
-2.499668
 21
814.641819
 31
0.0
  0
LINE
  5
F7
  8
TEAM-HIDE
 10
-17.499668
 20
812.641813
 30
0.0
 11
-2.499668
 21
812.641819
 31
0.0
  0
LINE
  5
F8
  8
TEAM-HIDE
 10
0.000338
 20
793.641819
 30
0.0
 11
0.00034
 21
787.141819
 31
0.0
  0
LINE
  5
F9
  8
TEAM-HIDE
 10
-1.999662
 20
793.641819
 30
0.0
 11
-1.99966
 21
787.141819
 31
0.0
  0
LINE
  5
FA
  8
TEAM-HIDE
 10
-1.999662
 20
793.641819
 30
0.0
 11
0.000338
 21
793.641819
 31
0.0
  0
ARC
  5
FB
  8
TEAM-HIDE
 10
-2.49966
 20
787.141819
 30
0.0
 40
0.5
 50
270.000019
 51
0.000019
  0
ARC
  5
FC
  8
TEAM-HIDE
 10
-2.49966
 20
787.141819
 30
0.0
 40
2.5
 50
270.000019
 51
0.000019
  0
ARC
  5
FD
  8
TEAM-HIDE
 10
-2.499636
 20
738.141819
 30
0.0
 40
0.5
 50
0.000019
 51
90.000019
  0
ARC
  5
FE
  8
TEAM-HIDE
 10
-2.499636
 20
738.141819
 30
0.0
 40
2.5
 50
0.000019
 51
90.000019
  0
LINE
  5
FF
  8
TEAM-HIDE
 10
-1.999658
 20
784.641819
 30
0.0
 11
-1.999638
 21
740.641819
 31
0.0
  0
ARC
  5
100
  8
TEAM-HIDE
 10
-17.49966
 20
787.141813
 30
0.0
 40
0.5
 50
180.000019
 51
270.000019
  0
ARC
  5
101
  8
TEAM-HIDE
 10
-17.49966
 20
787.141813
 30
0.0
 40
2.5
 50
180.000019
 51
270.000019
  0
ARC
  5
102
  8
TEAM-HIDE
 10
-17.499636
 20
738.141813
 30
0.0
 40
0.5
 50
90.000019
 51
180.000019
  0
ARC
  5
103
  8
TEAM-HIDE
 10
-17.499636
 20
738.141813
 30
0.0
 40
2.5
 50
90.000019
 51
180.000019
  0
LINE
  5
104
  8
TEAM-HIDE
 10
-13.49965
 20
766.394593
 30
0.0
 11
-13.499646
 21
758.889039
 31
0.0
  0
LINE
  5
105
  8
TEAM-HIDE
 10
-13.499646
 20
758.889039
 30
0.0
 11
-19.999646
 21
755.136259
 31
0.0
  0
LINE
  5
106
  8
TEAM-HIDE
 10
-19.99965
 20
770.147367
 30
0.0
 11
-13.49965
 21
766.394593
 31
0.0
  0
LINE
  5
107
  8
TEAM-HIDE
 10
-17.499638
 20
740.641813
 30
0.0
 11
-2.499638
 21
740.641819
 31
0.0
  0
LINE
  5
108
  8
TEAM-HIDE
 10
-17.499636
 20
738.641813
 30
0.0
 11
-2.499636
 21
738.641819
 31
0.0
  0
LINE
  5
109
  8
TEAM-HIDE
 10
-17.499658
 20
784.641813
 30
0.0
 11
-2.499658
 21
784.641819
 31
0.0
  0
LINE
  5
10A
  8
TEAM-HIDE
 10
-17.49966
 20
786.641813
 30
0.0
 11
-2.49966
 21
786.641819
 31
0.0
  0
LINE
  5
10B
  8
TEAM-HIDE
 10
-19.999668
 20
812.141813
 30
0.0
 11
-19.99966
 21
787.141813
 31
0.0
  0
LINE
  5
10C
  8
TEAM-HIDE
 10
-17.999668
 20
812.141813
 30
0.0
 11
-17.99966
 21
787.141813
 31
0.0
  0
ARC
  5
10D
  8
TEAM-HIDE
 10
-2.499628
 20
713.141819
 30
0.0
 40
0.5
 50
270.000019
 51
0.000019
  0
ARC
  5
10E
  8
TEAM-HIDE
 10
-2.499628
 20
713.141819
 30
0.0
 40
2.5
 50
270.000019
 51
0.000019
  0
LINE
  5
10F
  8
TEAM-HIDE
 10
-17.99963
 20
719.641813
 30
0.0
 11
-17.999628
 21
713.141813
 31
0.0
  0
LINE
  5
110
  8
TEAM-HIDE
 10
-19.99963
 20
719.641813
 30
0.0
 11
-19.999628
 21
713.141813
 31
0.0
  0
LINE
  5
111
  8
TEAM-HIDE
 10
-19.999634
 20
731.641813
 30
0.0
 11
-17.999634
 21
731.641813
 31
0.0
  0
LINE
  5
112
  8
TEAM-HIDE
 10
-19.99963
 20
719.641813
 30
0.0
 11
-17.99963
 21
719.641813
 31
0.0
  0
ARC
  5
113
  8
TEAM-HIDE
 10
-17.499628
 20
713.141813
 30
0.0
 40
0.5
 50
180.000019
 51
270.000019
  0
ARC
  5
114
  8
TEAM-HIDE
 10
-17.499628
 20
713.141813
 30
0.0
 40
2.5
 50
180.000019
 51
270.000019
  0
LINE
  5
115
  8
TEAM-HIDE
 10
-17.499628
 20
710.641813
 30
0.0
 11
-2.499628
 21
710.641819
 31
0.0
  0
LINE
  5
116
  8
TEAM-HIDE
 10
-17.499628
 20
712.641813
 30
0.0
 11
-2.499628
 21
712.641819
 31
0.0
  0
ARC
  5
117
  8
TEAM-HIDE
 10
-6.999869
 20
649.144762
 30
0.0
 40
3.0
 50
0.000019
 51
90.000019
  0
ARC
  5
118
  8
TEAM-HIDE
 10
-3.099865
 20
634.544764
 30
0.0
 40
0.9
 50
180.000019
 51
270.000019
  0
LINE
  5
119
  8
TEAM-HIDE
 10
-13.499857
 20
614.397538
 30
0.0
 11
-13.499855
 21
606.891984
 31
0.0
  0
LINE
  5
11A
  8
TEAM-HIDE
 10
-19.999859
 20
618.150312
 30
0.0
 11
-13.499857
 21
614.397538
 31
0.0
  0
LINE
  5
11B
  8
TEAM-HIDE
 10
-13.499855
 20
606.891984
 30
0.0
 11
-19.999855
 21
603.139204
 31
0.0
  0
LINE
  5
11C
  8
TEAM-HIDE
 10
-3.999869
 20
649.144764
 30
0.0
 11
-3.999865
 21
634.544764
 31
0.0
  0
LINE
  5
11D
  8
TEAM-HIDE
 10
0.000364
 20
738.141819
 30
0.0
 11
0.000372
 21
713.141819
 31
0.0
  0
LINE
  5
11E
  8
TEAM-HIDE
 10
-1.999636
 20
738.141819
 30
0.0
 11
-1.999628
 21
713.141819
 31
0.0
  0
LINE
  5
11F
  8
TEAM-HIDE
 10
-19.999636
 20
738.141813
 30
0.0
 11
-19.999634
 21
731.641813
 31
0.0
  0
LINE
  5
120
  8
TEAM-HIDE
 10
-17.999636
 20
738.141813
 30
0.0
 11
-17.999634
 21
731.641813
 31
0.0
  0
LINE
  5
121
  8
TEAM-HIDE
 10
-26.49965
 20
766.394587
 30
0.0
 11
-26.499646
 21
758.889035
 31
0.0
  0
LINE
  5
122
  8
TEAM-DET3
 10
-39.99966
 20
788.641807
 30
0.0
 11
-39.999636
 21
736.641807
 31
0.0
  0
LINE
  5
123
  8
TEAM-DET3
 10
-39.99966
 20
788.641807
 30
0.0
 11
-39.999636
 21
736.641807
 31
0.0
  0
LINE
  5
124
  8
TEAM-DET3
 10
-41.99966
 20
788.641805
 30
0.0
 11
-41.999636
 21
736.641805
 31
0.0
  0
LINE
  5
125
  8
TEAM-DET3
 10
-41.99966
 20
788.641805
 30
0.0
 11
-36.99966
 21
788.641807
 31
0.0
  0
LINE
  5
126
  8
TEAM-DET3
 10
-41.999636
 20
736.641805
 30
0.0
 11
-36.999636
 21
736.641807
 31
0.0
  0
LINE
  5
127
  8
TEAM-DET3
 10
-36.99967
 20
818.641807
 30
0.0
 11
-36.99966
 21
788.641807
 31
0.0
  0
ARC
  5
128
  8
TEAM-DET3
 10
-39.999869
 20
649.144752
 30
0.0
 40
3.0
 50
90.000019
 51
180.000019
  0
LINE
  5
129
  8
TEAM-HIDE
 10
-26.499857
 20
614.397532
 30
0.0
 11
-26.499855
 21
606.89198
 31
0.0
  0
LINE
  5
12A
  8
TEAM-DET3
 10
-46.999865
 20
637.14475
 30
0.0
 11
-46.999857
 21
610.64475
 31
0.0
  0
ARC
  5
12B
  8
TEAM-DET3
 10
-48.499865
 20
637.144748
 30
0.0
 40
1.5
 50
0.000019
 51
90.000019
  0
ARC
  5
12C
  8
TEAM-DET3
 10
-48.499865
 20
637.144748
 30
0.0
 40
3.5
 50
0.000019
 51
90.000019
  0
LINE
  5
12D
  8
TEAM-DET3
 10
-44.999865
 20
637.14475
 30
0.0
 11
-43.999865
 21
637.14475
 31
0.0
  0
ARC
  5
12E
  8
TEAM-DET3
 10
-43.999865
 20
638.14475
 30
0.0
 40
1.0
 50
270.000019
 51
0.000019
  0
LINE
  5
12F
  8
TEAM-DET3
 10
-42.999869
 20
649.14475
 30
0.0
 11
-42.999865
 21
638.14475
 31
0.0
  0
LINE
  5
130
  8
TEAM-DET3
 10
-59.999867
 20
640.644746
 30
0.0
 11
-59.999865
 21
638.644746
 31
0.0
  0
LINE
  5
131
  8
TEAM-DET3
 10
-59.999867
 20
640.644746
 30
0.0
 11
-48.499867
 21
640.644748
 31
0.0
  0
LINE
  5
132
  8
TEAM-DET3
 10
-59.999865
 20
638.644746
 30
0.0
 11
-48.499865
 21
638.644748
 31
0.0
  0
LINE
  5
133
  8
TEAM-HIDE
 10
-36.999636
 20
736.641807
 30
0.0
 11
-36.999627
 21
710.641525
 31
0.0
  0
LINE
  5
134
  8
TEAM-HIDE
 10
-36.99967
 20
818.641807
 30
0.0
 11
-1.99967
 21
818.641819
 31
0.0
  0
CIRCLE
  5
135
  8
TEAM-HIDE
 10
-19.999648
 20
762.641813
 30
0.0
 40
5.0
  0
CIRCLE
  5
136
  8
TEAM-HIDE
 10
-19.999648
 20
762.641813
 30
0.0
 40
10.0
  0
LINE
  5
137
  8
TEAM-HIDE
 10
-26.499646
 20
758.889035
 30
0.0
 11
-19.999646
 21
755.136259
 31
0.0
  0
LINE
  5
138
  8
TEAM-HIDE
 10
-19.99965
 20
770.147367
 30
0.0
 11
-26.49965
 21
766.394587
 31
0.0
  0
CIRCLE
  5
139
  8
TEAM-HIDE
 10
-19.999857
 20
610.644758
 30
0.0
 40
10.0
  0
LINE
  5
13A
  8
TEAM-HIDE
 10
-26.499855
 20
606.89198
 30
0.0
 11
-19.999855
 21
603.139204
 31
0.0
  0
LINE
  5
13B
  8
TEAM-HIDE
 10
-19.999859
 20
618.150312
 30
0.0
 11
-26.499857
 21
614.397532
 31
0.0
  0
LINE
  5
13C
  8
TEAM-HIDE
 10
-39.999871
 20
652.144752
 30
0.0
 11
-6.999871
 21
652.144762
 31
0.0
  0
CIRCLE
  5
13D
  8
TEAM-HIDE
 10
-19.999857
 20
610.644758
 30
0.0
 40
3.0
  0
LINE
  5
13E
  8
TEAM-AXE
 10
-45.827826
 20
1099.996184
 30
0.0
 11
2.241945
 21
1099.996199
 31
0.0
  0
LINE
  5
13F
  8
TEAM-DET2
 10
-40.000121
 20
1119.996185
 30
0.0
 11
-0.000079
 21
1119.996197
 31
0.0
  0
TEXT
  5
140
  8
TEAM-TXT
 10
-325.010007
 20
781.120461
 30
0.0
 40
30.0
  1
team 871020
 41
0.8
 51
15.0
  7
TEAM
  0
ENDSEC
  0
EOF
