  0
SECTION
  2
HEADER
  9
$ACADVER
  1
AC1009
  9
$INSBASE
 10
0.0
 20
0.0
 30
0.0
  9
$EXTMIN
 10
-322.777723
 20
-25.351831
 30
-0.000006
  9
$EXTMAX
 10
210.849168
 20
1169.421267
 30
0.000006
  9
$LIMMIN
 10
-322.777723
 20
-25.351831
  9
$LIMMAX
 10
210.849168
 20
1169.421267
  9
$ORTHOMODE
 70
     1
  9
$REGENMODE
 70
     1
  9
$FILLMODE
 70
     1
  9
$QTEXTMODE
 70
     0
  9
$MIRRTEXT
 70
     0
  9
$DRAGMODE
 70
     2
  9
$LTSCALE
 40
50.0
  9
$OSMODE
 70
     0
  9
$ATTMODE
 70
     1
  9
$TEXTSIZE
 40
200.0
  9
$TRACEWID
 40
1.0
  9
$TEXTSTYLE
  7
STANDARD
  9
$CLAYER
  8
TEAM-MAS
  9
$CELTYPE
  6
BYLAYER
  9
$CECOLOR
 62
   256
  9
$DIMSCALE
 40
1.0
  9
$DIMASZ
 40
20.0
  9
$DIMEXO
 40
10.0
  9
$DIMDLI
 40
1.0
  9
$DIMRND
 40
0.0
  9
$DIMDLE
 40
0.0
  9
$DIMEXE
 40
1.0
  9
$DIMTP
 40
0.0
  9
$DIMTM
 40
0.0
  9
$DIMTXT
 40
35.0
  9
$DIMCEN
 40
1.0
  9
$DIMTSZ
 40
0.0
  9
$DIMTOL
 70
     0
  9
$DIMLIM
 70
     0
  9
$DIMTIH
 70
     0
  9
$DIMTOH
 70
     0
  9
$DIMSE1
 70
     0
  9
$DIMSE2
 70
     0
  9
$DIMTAD
 70
     0
  9
$DIMZIN
 70
     0
  9
$DIMBLK
  1

  9
$DIMASO
 70
     1
  9
$DIMSHO
 70
     0
  9
$DIMPOST
  1

  9
$DIMAPOST
  1

  9
$DIMALT
 70
     0
  9
$DIMALTD
 70
     2
  9
$DIMALTF
 40
25.4
  9
$DIMLFAC
 40
1.0
  9
$DIMTOFL
 70
     0
  9
$DIMTVP
 40
0.0
  9
$DIMTIX
 70
     0
  9
$DIMSOXD
 70
     0
  9
$DIMSAH
 70
     0
  9
$DIMBLK1
  1

  9
$DIMBLK2
  1

  9
$DIMSTYLE
  2
TEAM
  9
$DIMCLRD
 70
     9
  9
$DIMCLRE
 70
     9
  9
$DIMCLRT
 70
    11
  9
$DIMTFAC
 40
1.0
  9
$DIMGAP
 40
7.0
  9
$LUNITS
 70
     2
  9
$LUPREC
 70
     1
  9
$SKETCHINC
 40
1.0
  9
$FILLETRAD
 40
50.0
  9
$AUNITS
 70
     0
  9
$AUPREC
 70
     0
  9
$MENU
  1
ROPLANS
  9
$ELEVATION
 40
0.0
  9
$PELEVATION
 40
0.0
  9
$THICKNESS
 40
0.0
  9
$LIMCHECK
 70
     0
  9
$BLIPMODE
 70
     1
  9
$CHAMFERA
 40
0.0
  9
$CHAMFERB
 40
0.0
  9
$SKPOLY
 70
     0
  9
$TDCREATE
 40
2450392.957851
  9
$TDUPDATE
 40
2456118.662559
  9
$TDINDWG
 40
5.307301
  9
$TDUSRTIMER
 40
5.307301
  9
$USRTIMER
 70
     1
  9
$ANGBASE
 50
0.0
  9
$ANGDIR
 70
     0
  9
$PDMODE
 70
     0
  9
$PDSIZE
 40
0.0
  9
$PLINEWID
 40
0.0
  9
$COORDS
 70
     2
  9
$SPLFRAME
 70
     0
  9
$SPLINETYPE
 70
     6
  9
$SPLINESEGS
 70
     8
  9
$ATTDIA
 70
     0
  9
$ATTREQ
 70
     0
  9
$HANDLING
 70
     1
  9
$HANDSEED
  5
48C
  9
$SURFTAB1
 70
    24
  9
$SURFTAB2
 70
    24
  9
$SURFTYPE
 70
     6
  9
$SURFU
 70
     6
  9
$SURFV
 70
     6
  9
$UCSNAME
  2

  9
$UCSORG
 10
0.0
 20
0.0
 30
0.0
  9
$UCSXDIR
 10
1.0
 20
0.0
 30
0.0
  9
$UCSYDIR
 10
0.0
 20
1.0
 30
0.0
  9
$PUCSNAME
  2

  9
$PUCSORG
 10
0.0
 20
0.0
 30
0.0
  9
$PUCSXDIR
 10
1.0
 20
0.0
 30
0.0
  9
$PUCSYDIR
 10
0.0
 20
1.0
 30
0.0
  9
$USERI1
 70
     0
  9
$USERI2
 70
     0
  9
$USERI3
 70
     0
  9
$USERI4
 70
     0
  9
$USERI5
 70
     0
  9
$USERR1
 40
0.0
  9
$USERR2
 40
0.0
  9
$USERR3
 40
0.0
  9
$USERR4
 40
0.0
  9
$USERR5
 40
0.0
  9
$WORLDVIEW
 70
     1
  9
$SHADEDGE
 70
     0
  9
$SHADEDIF
 70
    70
  9
$TILEMODE
 70
     1
  9
$MAXACTVP
 70
    16
  9
$PLIMCHECK
 70
     0
  9
$PEXTMIN
 10
-0.805942
 20
0.005011
 30
0.0
  9
$PEXTMAX
 10
20.250094
 20
11.356329
 30
0.0
  9
$PLIMMIN
 10
0.0
 20
0.0
  9
$PLIMMAX
 10
12.0
 20
9.0
  9
$UNITMODE
 70
     0
  9
$VISRETAIN
 70
     0
  9
$PLINEGEN
 70
     0
  9
$PSLTSCALE
 70
     0
  0
ENDSEC
  0
SECTION
  2
TABLES
  0
TABLE
  2
VPORT
 70
     2
  0
VPORT
  2
*ACTIVE
 70
     0
 10
0.0
 20
0.0
 11
1.0
 21
1.0
 12
-55.964277
 22
572.034718
 13
0.0
 23
0.0
 14
1.0
 24
1.0
 15
50.0
 25
50.0
 16
0.0
 26
0.0
 36
1.0
 17
0.0
 27
0.0
 37
0.0
 40
1202.295279
 41
1.911765
 42
50.0
 43
0.0
 44
0.0
 50
0.0
 51
0.0
 71
     0
 72
   100
 73
     1
 74
     1
 75
     0
 76
     0
 77
     0
 78
     0
  0
ENDTAB
  0
TABLE
  2
LTYPE
 70
     3
  0
LTYPE
  2
CONTINUOUS
 70
     0
  3
Solid Line
 72
    65
 73
     0
 40
0.0
  0
LTYPE
  2
31
 70
     0
  3

 72
    65
 73
     4
 40
2.1
 49
1.5
 49
-0.3
 49
0.0
 49
-0.3
  0
LTYPE
  2
22
 70
     0
  3

 72
    65
 73
     2
 40
1.4
 49
1.2
 49
-0.2
  0
ENDTAB
  0
TABLE
  2
LAYER
 70
     9
  0
LAYER
  2
0
 70
     0
 62
     7
  6
CONTINUOUS
  0
LAYER
  2
DEFPOINTS
 70
     0
 62
     7
  6
CONTINUOUS
  0
LAYER
  2
TEAM-AXE
 70
     0
 62
    10
  6
31
  0
LAYER
  2
TEAM-MAS
 70
     0
 62
     9
  6
CONTINUOUS
  0
LAYER
  2
TEAM-TXT
 70
     0
 62
    11
  6
CONTINUOUS
  0
LAYER
  2
TEAM-DET2
 70
     0
 62
    11
  6
CONTINUOUS
  0
LAYER
  2
TEAM-HIDE
 70
     0
 62
     8
  6
22
  0
LAYER
  2
TEAM-DET3
 70
     0
 62
    14
  6
CONTINUOUS
  0
LAYER
  2
TEAM-INSP
 70
     0
 62
     5
  6
CONTINUOUS
  0
ENDTAB
  0
TABLE
  2
STYLE
 70
     2
  0
STYLE
  2
STANDARD
 70
     0
 40
0.0
 41
1.0
 50
0.0
 71
     0
 42
200.0
  3
txt
  4

  0
STYLE
  2
TEAM
 70
     0
 40
0.0
 41
0.8
 50
15.0
 71
     0
 42
7.0
  3
ROMANS.shx
  4

  0
ENDTAB
  0
TABLE
  2
VIEW
 70
     0
  0
ENDTAB
  0
TABLE
  2
UCS
 70
     0
  0
ENDTAB
  0
TABLE
  2
APPID
 70
     1
  0
APPID
  2
ACAD
 70
     0
  0
ENDTAB
  0
TABLE
  2
DIMSTYLE
 70
     1
  0
DIMSTYLE
  2
TEAM
 70
     0
  3

  4

  5

  6

  7

 40
1.0
 41
20.0
 42
10.0
 43
1.0
 44
1.0
 45
0.0
 46
0.0
 47
0.0
 48
0.0
140
35.0
141
1.0
142
0.0
143
25.4
144
1.0
145
0.0
146
1.0
147
7.0
 71
     0
 72
     0
 73
     0
 74
     0
 75
     0
 76
     0
 77
     0
 78
     0
170
     0
171
     2
172
     0
173
     0
174
     0
175
     0
176
     9
177
     9
178
    11
  0
ENDTAB
  0
ENDSEC
  0
SECTION
  2
BLOCKS
  0
BLOCK
  8
0
  2
$MODEL_SPACE
 70
     0
 10
0.0
 20
0.0
 30
0.0
  3
$MODEL_SPACE
  1

  0
ENDBLK
  5
35B
  8
0
  0
BLOCK
 67
     1
  8
0
  2
$PAPER_SPACE
 70
     0
 10
0.0
 20
0.0
 30
0.0
  3
$PAPER_SPACE
  1

  0
ENDBLK
  5
359
 67
     1
  8
0
  0
BLOCK
  8
0
  2
*D0
 70
     1
 10
0.0
 20
0.0
 30
0.0
  3
*D0
  1

  0
LINE
  5
7C
  8
0
  6
BYBLOCK
 62
     9
 10
8051.840441
 20
116177.970372
 30
0.0
 11
8073.575131
 21
116177.970372
 31
0.0
  0
LINE
  5
7D
  8
0
  6
BYBLOCK
 62
     9
 10
8020.996619
 20
116719.970433
 30
0.0
 11
8073.575131
 21
116719.970433
 31
0.0
  0
LINE
  5
7E
  8
0
  6
BYBLOCK
 62
     9
 10
8072.575131
 20
116197.970372
 30
0.0
 11
8072.575131
 21
116345.720403
 31
0.0
  0
LINE
  5
7F
  8
0
  6
BYBLOCK
 62
     9
 10
8072.575131
 20
116699.970433
 30
0.0
 11
8072.575131
 21
116552.220403
 31
0.0
  0
SOLID
  5
80
  8
0
  6
BYBLOCK
 62
     9
 10
8069.241798
 20
116197.970372
 30
0.0
 11
8075.908464
 21
116197.970372
 31
0.0
 12
8072.575131
 22
116177.970372
 32
0.0
 13
8072.575131
 23
116177.970372
 33
0.0
  0
SOLID
  5
81
  8
0
  6
BYBLOCK
 62
     9
 10
8069.241798
 20
116699.970433
 30
0.0
 11
8075.908464
 21
116699.970433
 31
0.0
 12
8072.575131
 22
116719.970433
 32
0.0
 13
8072.575131
 23
116719.970433
 33
0.0
  0
TEXT
  5
82
  8
0
  6
BYBLOCK
 62
    11
 10
8090.075131
 20
116352.720403
 30
0.0
 40
35.0
  1
max650
 50
90.0
  0
POINT
  5
83
  8
DEFPOINTS
  6
BYBLOCK
 62
     0
 10
8041.840441
 20
116177.970372
 30
0.0
  0
POINT
  5
84
  8
DEFPOINTS
  6
BYBLOCK
 62
     0
 10
8010.996619
 20
116719.970433
 30
0.0
  0
POINT
  5
85
  8
DEFPOINTS
  6
BYBLOCK
 62
     0
 10
8072.575131
 20
116719.970433
 30
0.0
  0
ENDBLK
  5
87
  8
0
  0
BLOCK
  8
0
  2
*D1
 70
     1
 10
0.0
 20
0.0
 30
0.0
  3
*D1
  1

  0
LINE
  5
40
  8
0
  6
BYBLOCK
 62
     9
 10
8010.0
 20
116000.0
 30
0.0
 11
8143.553367
 21
116000.0
 31
0.0
  0
LINE
  5
41
  8
0
  6
BYBLOCK
 62
     9
 10
8120.99999
 20
117000.00403
 30
0.0
 11
8143.553367
 21
117000.00403
 31
0.0
  0
LINE
  5
42
  8
0
  6
BYBLOCK
 62
     9
 10
8142.553367
 20
116020.0
 30
0.0
 11
8142.553367
 21
116370.502015
 31
0.0
  0
LINE
  5
43
  8
0
  6
BYBLOCK
 62
     9
 10
8142.553367
 20
116980.00403
 30
0.0
 11
8142.553367
 21
116629.502015
 31
0.0
  0
SOLID
  5
44
  8
0
  6
BYBLOCK
 62
     9
 10
8139.220034
 20
116020.0
 30
0.0
 11
8145.8867
 21
116020.0
 31
0.0
 12
8142.553367
 22
116000.0
 32
0.0
 13
8142.553367
 23
116000.0
 33
0.0
  0
SOLID
  5
45
  8
0
  6
BYBLOCK
 62
     9
 10
8139.220034
 20
116980.00403
 30
0.0
 11
8145.8867
 21
116980.00403
 31
0.0
 12
8142.553367
 22
117000.00403
 32
0.0
 13
8142.553367
 23
117000.00403
 33
0.0
  0
TEXT
  5
46
  8
0
  6
BYBLOCK
 62
    11
 10
8160.053367
 20
116377.502015
 30
0.0
 40
35.0
  1
1000-1180
 50
90.0
  0
POINT
  5
47
  8
DEFPOINTS
  6
BYBLOCK
 62
     0
 10
8000.0
 20
116000.0
 30
0.0
  0
POINT
  5
48
  8
DEFPOINTS
  6
BYBLOCK
 62
     0
 10
8110.99999
 20
117000.00403
 30
0.0
  0
POINT
  5
49
  8
DEFPOINTS
  6
BYBLOCK
 62
     0
 10
8142.553367
 20
117000.00403
 30
0.0
  0
ENDBLK
  5
4B
  8
0
  0
BLOCK
  8
0
  2
*D2
 70
     1
 10
0.0
 20
0.0
 30
0.0
  3
*D2
  1

  0
LINE
  5
32
  8
0
  6
BYBLOCK
 62
     9
 10
8010.0
 20
116000.0
 30
0.0
 11
8194.32196
 21
116000.0
 31
0.0
  0
LINE
  5
33
  8
0
  6
BYBLOCK
 62
     9
 10
8010.000072
 20
117120.000352
 30
0.0
 11
8194.32196
 21
117120.000352
 31
0.0
  0
LINE
  5
34
  8
0
  6
BYBLOCK
 62
     9
 10
8193.32196
 20
116020.0
 30
0.0
 11
8193.32196
 21
116427.58351
 31
0.0
  0
LINE
  5
35
  8
0
  6
BYBLOCK
 62
     9
 10
8193.32196
 20
117100.000352
 30
0.0
 11
8193.32196
 21
116692.416843
 31
0.0
  0
SOLID
  5
36
  8
0
  6
BYBLOCK
 62
     9
 10
8189.988626
 20
116020.0
 30
0.0
 11
8196.655293
 21
116020.0
 31
0.0
 12
8193.32196
 22
116000.0
 32
0.0
 13
8193.32196
 23
116000.0
 33
0.0
  0
SOLID
  5
37
  8
0
  6
BYBLOCK
 62
     9
 10
8189.988626
 20
117100.000352
 30
0.0
 11
8196.655293
 21
117100.000352
 31
0.0
 12
8193.32196
 22
117120.000352
 32
0.0
 13
8193.32196
 23
117120.000352
 33
0.0
  0
TEXT
  5
38
  8
0
  6
BYBLOCK
 62
    11
 10
8210.82196
 20
116434.58351
 30
0.0
 40
35.0
  1
1120-1300
 50
90.0
  0
POINT
  5
39
  8
DEFPOINTS
  6
BYBLOCK
 62
     0
 10
8000.0
 20
116000.0
 30
0.0
  0
POINT
  5
3A
  8
DEFPOINTS
  6
BYBLOCK
 62
     0
 10
8000.000072
 20
117120.000352
 30
0.0
  0
POINT
  5
3B
  8
DEFPOINTS
  6
BYBLOCK
 62
     0
 10
8193.32196
 20
117120.000352
 30
0.0
  0
ENDBLK
  5
3D
  8
0
  0
BLOCK
  8
0
  2
*D3
 70
     1
 10
0.0
 20
0.0
 30
0.0
  3
*D3
  1

  0
LINE
  5
6F
  8
0
  6
BYBLOCK
 62
     9
 10
8000.000072
 20
117130.000352
 30
0.0
 11
8000.000072
 21
117152.829129
 31
0.0
  0
LINE
  5
70
  8
0
  6
BYBLOCK
 62
     9
 10
7925.0
 20
117003.650225
 30
0.0
 11
7925.0
 21
117152.829129
 31
0.0
  0
LINE
  5
71
  8
0
  6
BYBLOCK
 62
     9
 10
7980.000072
 20
117151.829129
 30
0.0
 11
7945.0
 21
117151.829129
 31
0.0
  0
TEXT
  5
72
  8
0
  6
BYBLOCK
 62
    11
 10
7862.953852
 20
117134.329129
 30
0.0
 40
35.0
  1
75
  0
SOLID
  5
73
  8
0
  6
BYBLOCK
 62
     9
 10
7980.000072
 20
117155.162462
 30
0.0
 11
7980.000072
 21
117148.495795
 31
0.0
 12
8000.000072
 22
117151.829129
 32
0.0
 13
8000.000072
 23
117151.829129
 33
0.0
  0
SOLID
  5
74
  8
0
  6
BYBLOCK
 62
     9
 10
7945.0
 20
117155.162462
 30
0.0
 11
7945.0
 21
117148.495795
 31
0.0
 12
7925.0
 22
117151.829129
 32
0.0
 13
7925.0
 23
117151.829129
 33
0.0
  0
POINT
  5
75
  8
DEFPOINTS
  6
BYBLOCK
 62
     0
 10
8000.000072
 20
117120.000352
 30
0.0
  0
POINT
  5
76
  8
DEFPOINTS
  6
BYBLOCK
 62
     0
 10
7925.0
 20
116993.650225
 30
0.0
  0
POINT
  5
77
  8
DEFPOINTS
  6
BYBLOCK
 62
     0
 10
7925.0
 20
117151.829129
 30
0.0
  0
ENDBLK
  5
79
  8
0
  0
BLOCK
  8
0
  2
*D4
 70
     1
 10
0.0
 20
0.0
 30
0.0
  3
*D4
  1

  0
LINE
  5
62
  8
0
  6
BYBLOCK
 62
     9
 10
8000.000072
 20
117130.000352
 30
0.0
 11
8000.000072
 21
117152.829129
 31
0.0
  0
LINE
  5
63
  8
0
  6
BYBLOCK
 62
     9
 10
8089.995293
 20
117009.877257
 30
0.0
 11
8089.995293
 21
117152.829129
 31
0.0
  0
LINE
  5
64
  8
0
  6
BYBLOCK
 62
     9
 10
8020.000072
 20
117151.829129
 30
0.0
 11
8069.995293
 21
117151.829129
 31
0.0
  0
TEXT
  5
65
  8
0
  6
BYBLOCK
 62
    11
 10
8086.407812
 20
117134.329129
 30
0.0
 40
35.0
  1
90
  0
SOLID
  5
66
  8
0
  6
BYBLOCK
 62
     9
 10
8020.000072
 20
117155.162462
 30
0.0
 11
8020.000072
 21
117148.495795
 31
0.0
 12
8000.000072
 22
117151.829129
 32
0.0
 13
8000.000072
 23
117151.829129
 33
0.0
  0
SOLID
  5
67
  8
0
  6
BYBLOCK
 62
     9
 10
8069.995293
 20
117155.162462
 30
0.0
 11
8069.995293
 21
117148.495795
 31
0.0
 12
8089.995293
 22
117151.829129
 32
0.0
 13
8089.995293
 23
117151.829129
 33
0.0
  0
POINT
  5
68
  8
DEFPOINTS
  6
BYBLOCK
 62
     0
 10
8000.000072
 20
117120.000352
 30
0.0
  0
POINT
  5
69
  8
DEFPOINTS
  6
BYBLOCK
 62
     0
 10
8089.995293
 20
116999.877257
 30
0.0
  0
POINT
  5
6A
  8
DEFPOINTS
  6
BYBLOCK
 62
     0
 10
8089.995293
 20
117151.829129
 30
0.0
  0
ENDBLK
  5
6C
  8
0
  0
BLOCK
  8
0
  2
*D5
 70
     1
 10
0.0
 20
0.0
 30
0.0
  3
*D5
  1

  0
LINE
  5
22
  8
0
  6
BYBLOCK
 62
     9
 10
7999.500103
 20
115998.0
 30
0.0
 11
7999.500103
 21
116029.955257
 31
0.0
  0
LINE
  5
23
  8
0
  6
BYBLOCK
 62
     9
 10
7951.500103
 20
115997.999984
 30
0.0
 11
7951.500103
 21
116029.955257
 31
0.0
  0
LINE
  5
24
  8
0
  6
BYBLOCK
 62
     9
 10
8019.500103
 20
116028.955257
 30
0.0
 11
8039.500103
 21
116028.955257
 31
0.0
  0
LINE
  5
25
  8
0
  6
BYBLOCK
 62
     9
 10
7931.500103
 20
116028.955257
 30
0.0
 11
7911.500103
 21
116028.955257
 31
0.0
  0
TEXT
  5
26
  8
0
  6
BYBLOCK
 62
    11
 10
7843.269565
 20
116011.455257
 30
0.0
 40
35.0
  1
48
  0
LINE
  5
27
  8
0
  6
BYBLOCK
 62
     9
 10
7999.500103
 20
116028.955257
 30
0.0
 11
7951.500103
 21
116028.955257
 31
0.0
  0
SOLID
  5
28
  8
0
  6
BYBLOCK
 62
     9
 10
8019.500103
 20
116032.28859
 30
0.0
 11
8019.500103
 21
116025.621924
 31
0.0
 12
7999.500103
 22
116028.955257
 32
0.0
 13
7999.500103
 23
116028.955257
 33
0.0
  0
SOLID
  5
29
  8
0
  6
BYBLOCK
 62
     9
 10
7931.500103
 20
116032.28859
 30
0.0
 11
7931.500103
 21
116025.621924
 31
0.0
 12
7951.500103
 22
116028.955257
 32
0.0
 13
7951.500103
 23
116028.955257
 33
0.0
  0
POINT
  5
2A
  8
DEFPOINTS
  6
BYBLOCK
 62
     0
 10
7999.500103
 20
115988.0
 30
0.0
  0
POINT
  5
2C
  8
DEFPOINTS
  6
BYBLOCK
 62
     0
 10
7951.500103
 20
115987.999984
 30
0.0
  0
POINT
  5
2D
  8
DEFPOINTS
  6
BYBLOCK
 62
     0
 10
7951.500103
 20
116028.955257
 30
0.0
  0
ENDBLK
  5
2F
  8
0
  0
ENDSEC
  0
SECTION
  2
ENTITIES
  0
DIMENSION
  5
20
  8
TEAM-MAS
  2
*D5
 10
-48.499897
 20
28.955257
 30
0.0
 11
-127.563768
 21
28.955257
 31
0.0
 12
-8000.0
 22
-116000.0
 32
0.0
 70
   128
 13
-0.499897
 23
-12.0
 33
0.0
 14
-48.499897
 24
-12.000016
 34
0.0
1001
ACAD
1000
DSTYLE
1002
{
1070
    40
1040
1.0
1002
}
  0
DIMENSION
  5
30
  8
TEAM-MAS
  2
*D2
 10
193.32196
 20
1120.000352
 30
0.0
 11
193.32196
 21
560.000176
 31
0.0
 12
-8000.0
 22
-116000.0
 32
0.0
  1
<>-1300
 13
0.0
 23
0.0
 33
0.0
 14
0.000072
 24
1120.000352
 34
0.0
 50
90.0
1001
ACAD
1000
DSTYLE
1002
{
1070
    40
1040
1.0
1002
}
  0
DIMENSION
  5
3E
  8
TEAM-MAS
  2
*D1
 10
142.553367
 20
1000.00403
 30
0.0
 11
142.553367
 21
500.002015
 31
0.0
 12
-8000.0
 22
-116000.0
 32
0.0
  1
<>-1180
 13
0.0
 23
0.0
 33
0.0
 14
110.99999
 24
1000.00403
 34
0.0
 50
90.0
1001
ACAD
1000
DSTYLE
1002
{
1070
    40
1040
1.0
1002
}
  0
LINE
  5
4C
  8
TEAM-DET3
 10
-37.499917
 20
68.656171
 30
0.0
 11
-37.499897
 21
-12.000012
 31
0.0
  0
LINE
  5
4E
  8
TEAM-DET3
 10
-2.499917
 20
68.656183
 30
0.0
 11
-2.499897
 21
-12.0
 31
0.0
  0
LINE
  5
4F
  8
TEAM-DET3
 10
-48.499893
 20
-20.000016
 30
0.0
 11
-0.499893
 21
-20.0
 31
0.0
  0
LINE
  5
50
  8
TEAM-DET3
 10
-48.499897
 20
-12.000016
 30
0.0
 11
-0.499897
 21
-12.0
 31
0.0
  0
LINE
  5
51
  8
TEAM-DET3
 10
-48.499897
 20
-12.000016
 30
0.0
 11
-48.499893
 21
-20.000016
 31
0.0
  0
LINE
  5
52
  8
TEAM-HIDE
 10
-36.499897
 20
-12.000012
 30
0.0
 11
-36.499893
 21
-20.000012
 31
0.0
  0
LINE
  5
55
  8
TEAM-AXE
 10
-24.499899
 20
-5.90698
 30
0.0
 11
-24.499891
 21
-25.334542
 31
0.0
  0
LINE
  5
58
  8
TEAM-HIDE
 10
-12.499897
 20
-12.000004
 30
0.0
 11
-12.499893
 21
-20.000004
 31
0.0
  0
LINE
  5
59
  8
TEAM-DET3
 10
-0.499897
 20
-12.0
 30
0.0
 11
-0.499893
 21
-20.0
 31
0.0
  0
CIRCLE
  5
5A
  8
TEAM-INSP
 10
0.0
 20
0.0
 30
0.0
 40
10.0
  0
ARC
  5
5C
  8
TEAM-DET3
 10
-82.744025
 20
175.647335
 30
0.0
 40
23.53962
 50
343.591599
 51
16.408401
  0
ARC
  5
5D
  8
TEAM-DET3
 10
-20.751383
 20
558.636967
 30
0.0
 40
4.24664
 50
90.013944
 51
269.986056
  0
ARC
  5
5E
  8
TEAM-DET3
 10
-19.256257
 20
558.636967
 30
0.0
 40
4.24664
 50
270.013944
 51
89.986056
  0
ARC
  5
5F
  8
TEAM-DET3
 10
-75.411333
 20
1035.654655
 30
0.0
 40
16.635309
 50
336.436526
 51
23.563474
  0
DIMENSION
  5
60
  8
TEAM-MAS
  2
*D4
 10
89.995293
 20
1151.829129
 30
0.0
 11
112.657812
 21
1151.829129
 31
0.0
 12
-8000.0
 22
-116000.0
 32
0.0
 70
   128
 13
0.000072
 23
1120.000352
 33
0.0
 14
89.995293
 24
999.877257
 34
0.0
1001
ACAD
1000
DSTYLE
1002
{
1070
    40
1040
1.0
1002
}
  0
DIMENSION
  5
6D
  8
TEAM-MAS
  2
*D3
 10
-75.0
 20
1151.829129
 30
0.0
 11
-107.879481
 21
1151.829129
 31
0.0
 12
-8000.0
 22
-116000.0
 32
0.0
 70
   128
 13
0.000072
 23
1120.000352
 33
0.0
 14
-75.0
 24
993.650225
 34
0.0
1001
ACAD
1000
DSTYLE
1002
{
1070
    40
1040
1.0
1002
}
  0
DIMENSION
  5
7A
  8
TEAM-MAS
  2
*D0
 10
72.575131
 20
719.970433
 30
0.0
 11
72.575131
 21
448.970403
 31
0.0
 12
-8000.0
 22
-116000.0
 32
0.0
  1
max650
 13
41.840441
 23
177.970372
 33
0.0
 14
10.996619
 24
719.970433
 34
0.0
 50
90.0
1001
ACAD
1000
DSTYLE
1002
{
1070
    40
1040
1.0
1002
}
  0
LINE
  5
88
  8
TEAM-DET2
 10
-39.999961
 20
1091.317859
 30
0.0
 11
-39.999959
 21
68.65617
 31
0.0
  0
LINE
  5
8A
  8
TEAM-DET2
 10
0.000072
 20
1120.000352
 30
0.0
 11
0.000083
 21
68.656183
 31
0.0
  0
LINE
  5
8B
  8
TEAM-DET2
 10
-39.999959
 20
68.65617
 30
0.0
 11
0.000083
 21
68.656183
 31
0.0
  0
CIRCLE
  5
8C
  8
TEAM-HIDE
 10
-19.999919
 20
79.644297
 30
0.0
 40
10.0
  0
LINE
  5
8D
  8
TEAM-DET2
 10
-39.99997
 20
1120.00034
 30
0.0
 11
0.000072
 21
1120.000352
 31
0.0
  0
LINE
  5
8E
  8
TEAM-DET2
 10
-75.000307
 20
93.653106
 30
0.0
 11
-0.000307
 21
93.653106
 31
0.0
  0
LINE
  5
8F
  8
TEAM-DET3
 10
6.11383
 20
998.127257
 30
0.0
 11
6.11383
 21
925.67726
 31
0.0
  0
LINE
  5
90
  8
TEAM-HIDE
 10
0.0
 20
925.67726
 30
0.0
 11
-3.88617
 21
925.67726
 31
0.0
  0
LINE
  5
91
  8
TEAM-HIDE
 10
0.0
 20
1074.077239
 30
0.0
 11
-3.88617
 21
1074.077239
 31
0.0
  0
LINE
  5
92
  8
TEAM-HIDE
 10
-14.399902
 20
930.00407
 30
0.0
 11
0.0
 21
930.00407
 31
0.0
  0
LINE
  5
93
  8
TEAM-HIDE
 10
-8.5
 20
1059.75403
 30
0.0
 11
0.0
 21
1059.75403
 31
0.0
  0
LINE
  5
94
  8
TEAM-AXE
 10
-13.860192
 20
1000.00403
 30
0.0
 11
105.977194
 21
1000.00403
 31
0.0
  0
LINE
  5
95
  8
TEAM-DET3
 10
16.037017
 20
947.726332
 30
0.0
 11
6.413818
 21
947.726332
 31
0.0
  0
LINE
  5
96
  8
TEAM-DET3
 10
21.036651
 20
947.692565
 30
0.0
 11
21.036651
 21
1052.071135
 31
0.0
  0
LINE
  5
97
  8
TEAM-DET3
 10
26.036254
 20
1052.114775
 30
0.0
 11
26.036575
 21
947.64894
 31
0.0
  0
LINE
  5
98
  8
TEAM-DET3
 10
31.036209
 20
947.605315
 30
0.0
 11
31.035888
 21
1052.1584
 31
0.0
  0
LINE
  5
99
  8
TEAM-DET3
 10
36.035491
 20
1052.20204
 30
0.0
 11
36.035812
 21
947.561675
 31
0.0
  0
LINE
  5
9A
  8
TEAM-DET3
 10
41.035446
 20
947.518035
 30
0.0
 11
41.035125
 21
1052.245665
 31
0.0
  0
LINE
  5
9B
  8
TEAM-DET3
 10
46.034759
 20
1052.289305
 30
0.0
 11
46.03508
 21
947.47441
 31
0.0
  0
LINE
  5
9C
  8
TEAM-DET3
 10
51.034683
 20
947.430785
 30
0.0
 11
51.034362
 21
1052.33293
 31
0.0
  0
LINE
  5
9D
  8
TEAM-DET3
 10
56.033965
 20
1052.376555
 30
0.0
 11
56.034286
 21
947.387145
 31
0.0
  0
LINE
  5
9E
  8
TEAM-DET3
 10
61.110412
 20
1050.22087
 30
0.0
 11
61.110412
 21
1052.420195
 31
0.0
  0
LINE
  5
9F
  8
TEAM-DET3
 10
61.03392
 20
947.34352
 30
0.0
 11
61.110412
 21
1050.22087
 31
0.0
  0
LINE
  5
A0
  8
TEAM-DET3
 10
66.033233
 20
1052.46382
 30
0.0
 11
66.033554
 21
947.299895
 31
0.0
  0
LINE
  5
A1
  8
TEAM-DET3
 10
71.032836
 20
1052.507445
 30
0.0
 11
71.032836
 21
947.256255
 31
0.0
  0
LINE
  5
A2
  8
TEAM-DET3
 10
76.03247
 20
1052.551085
 30
0.0
 11
76.032791
 21
947.21263
 31
0.0
  0
LINE
  5
A3
  8
TEAM-DET3
 10
81.032073
 20
1052.59471
 30
0.0
 11
81.032073
 21
947.159804
 31
0.0
  0
LINE
  5
A4
  8
TEAM-DET3
 10
79.97824
 20
1052.585524
 30
0.0
 11
81.032073
 21
1052.59471
 31
0.0
  0
LINE
  5
A5
  8
TEAM-DET3
 10
74.978606
 20
947.21263
 30
0.0
 11
76.032791
 21
947.21263
 31
0.0
  0
LINE
  5
A6
  8
TEAM-DET3
 10
69.979003
 20
947.256255
 30
0.0
 11
71.032836
 21
947.256255
 31
0.0
  0
LINE
  5
A7
  8
TEAM-DET3
 10
64.979369
 20
947.299895
 30
0.0
 11
66.033554
 21
947.299895
 31
0.0
  0
LINE
  5
A8
  8
TEAM-DET3
 10
59.979766
 20
947.34352
 30
0.0
 11
61.03392
 21
947.34352
 31
0.0
  0
LINE
  5
A9
  8
TEAM-DET3
 10
54.980132
 20
947.387145
 30
0.0
 11
56.034286
 21
947.387145
 31
0.0
  0
LINE
  5
AA
  8
TEAM-DET3
 10
49.980529
 20
947.430785
 30
0.0
 11
51.034683
 21
947.430785
 31
0.0
  0
LINE
  5
AB
  8
TEAM-DET3
 10
44.980895
 20
947.47441
 30
0.0
 11
46.03508
 21
947.47441
 31
0.0
  0
LINE
  5
AC
  8
TEAM-DET3
 10
39.981292
 20
947.518035
 30
0.0
 11
41.035446
 21
947.518035
 31
0.0
  0
LINE
  5
AD
  8
TEAM-DET3
 10
34.981658
 20
947.561675
 30
0.0
 11
36.035812
 21
947.561675
 31
0.0
  0
LINE
  5
AE
  8
TEAM-DET3
 10
29.982055
 20
947.605315
 30
0.0
 11
31.036209
 21
947.605315
 31
0.0
  0
LINE
  5
AF
  8
TEAM-DET3
 10
24.982421
 20
947.64894
 30
0.0
 11
26.036575
 21
947.64894
 31
0.0
  0
LINE
  5
B0
  8
TEAM-DET3
 10
19.982818
 20
947.692565
 30
0.0
 11
21.036651
 21
947.692565
 31
0.0
  0
LINE
  5
B1
  8
TEAM-DET3
 10
79.97824
 20
947.16899
 30
0.0
 11
81.032394
 21
947.16899
 31
0.0
  0
LINE
  5
B2
  8
TEAM-DET3
 10
89.977477
 20
947.081725
 30
0.0
 11
96.11383
 21
947.081725
 31
0.0
  0
LINE
  5
B3
  8
TEAM-DET3
 10
89.977477
 20
1052.672789
 30
0.0
 11
96.11383
 21
1052.672789
 31
0.0
  0
LINE
  5
B4
  8
TEAM-DET3
 10
86.031707
 20
947.116164
 30
0.0
 11
84.977844
 21
947.116164
 31
0.0
  0
LINE
  5
B5
  8
TEAM-DET3
 10
86.031707
 20
1052.63835
 30
0.0
 11
86.031707
 21
947.116164
 31
0.0
  0
LINE
  5
B6
  8
TEAM-DET3
 10
16.037017
 20
1052.028182
 30
0.0
 11
6.413818
 21
1052.028182
 31
0.0
  0
LINE
  5
B7
  8
TEAM-DET3
 10
3.056915
 20
938.632048
 30
0.0
 11
3.056915
 21
925.67726
 31
0.0
  0
LINE
  5
B8
  8
TEAM-DET3
 10
3.056915
 20
1061.122466
 30
0.0
 11
3.021392
 21
1074.077239
 31
0.0
  0
LINE
  5
B9
  8
TEAM-DET3
 10
6.11383
 20
998.127257
 30
0.0
 11
6.213836
 21
998.127257
 31
0.0
  0
ARC
  5
BA
  8
TEAM-DET3
 10
6.213836
 20
998.327254
 30
0.0
 40
0.2
 50
269.999997
 51
0.0
  0
LINE
  5
BB
  8
TEAM-DET3
 10
6.11383
 20
938.632048
 30
0.0
 11
3.056915
 21
938.632048
 31
0.0
  0
LINE
  5
BC
  8
TEAM-HIDE
 10
-3.88617
 20
925.67726
 30
0.0
 11
-3.88617
 21
1074.077239
 31
0.0
  0
LINE
  5
BD
  8
TEAM-DET3
 10
6.11383
 20
1061.122466
 30
0.0
 11
3.056915
 21
1061.122466
 31
0.0
  0
LINE
  5
BE
  8
TEAM-DET3
 10
6.413818
 20
1052.02751
 30
0.0
 11
6.413818
 21
1052.02751
 31
0.0
  0
LINE
  5
BF
  8
TEAM-DET3
 10
16.037017
 20
1052.028182
 30
0.0
 11
16.037017
 21
947.726332
 31
0.0
  0
LINE
  5
C0
  8
TEAM-DET3
 10
6.413818
 20
998.327254
 30
0.0
 11
6.413818
 21
1001.42726
 31
0.0
  0
LINE
  5
C1
  8
TEAM-DET3
 10
6.11383
 20
1001.627257
 30
0.0
 11
6.213836
 21
1001.627257
 31
0.0
  0
LINE
  5
C2
  8
TEAM-DET3
 10
3.021392
 20
1074.077239
 30
0.0
 11
0.0
 21
1074.077239
 31
0.0
  0
LINE
  5
C3
  8
TEAM-DET3
 10
3.021392
 20
925.67726
 30
0.0
 11
0.0
 21
925.67726
 31
0.0
  0
LINE
  5
C4
  8
TEAM-DET3
 10
6.11383
 20
925.67726
 30
0.0
 11
3.056915
 21
925.67726
 31
0.0
  0
ARC
  5
C5
  8
TEAM-DET3
 10
6.213836
 20
1001.42726
 30
0.0
 40
0.2
 50
0.0
 51
90.000003
  0
LINE
  5
C6
  8
TEAM-DET3
 10
6.11383
 20
1074.077239
 30
0.0
 11
3.056915
 21
1074.077239
 31
0.0
  0
LINE
  5
C7
  8
TEAM-DET3
 10
6.11383
 20
1074.077239
 30
0.0
 11
6.11383
 21
1066.685302
 31
0.0
  0
LINE
  5
C8
  8
TEAM-DET3
 10
6.11383
 20
1001.254058
 30
0.0
 11
6.11383
 21
1066.685302
 31
0.0
  0
LINE
  5
C9
  8
TEAM-DET3
 10
86.031707
 20
949.35982
 30
0.0
 11
89.977477
 21
947.081725
 31
0.0
  0
LINE
  5
CA
  8
TEAM-DET3
 10
81.032073
 20
949.403462
 30
0.0
 11
84.977844
 21
947.125365
 31
0.0
  0
LINE
  5
CB
  8
TEAM-DET3
 10
76.032784
 20
949.446887
 30
0.0
 11
79.97824
 21
947.16899
 31
0.0
  0
LINE
  5
CC
  8
TEAM-DET3
 10
71.032836
 20
949.490727
 30
0.0
 11
74.978606
 21
947.21263
 31
0.0
  0
LINE
  5
CD
  8
TEAM-DET3
 10
66.033547
 20
949.534168
 30
0.0
 11
69.979003
 21
947.256255
 31
0.0
  0
LINE
  5
CE
  8
TEAM-DET3
 10
61.035581
 20
949.576848
 30
0.0
 11
64.979369
 21
947.299895
 31
0.0
  0
LINE
  5
CF
  8
TEAM-DET3
 10
56.034279
 20
949.620845
 30
0.0
 11
59.979766
 21
947.34352
 31
0.0
  0
LINE
  5
D0
  8
TEAM-DET3
 10
51.034677
 20
949.665076
 30
0.0
 11
54.980132
 21
947.387145
 31
0.0
  0
LINE
  5
D1
  8
TEAM-DET3
 10
46.035073
 20
949.708682
 30
0.0
 11
49.980529
 21
947.430785
 31
0.0
  0
LINE
  5
D2
  8
TEAM-DET3
 10
41.035439
 20
949.752326
 30
0.0
 11
44.980895
 21
947.47441
 31
0.0
  0
LINE
  5
D3
  8
TEAM-DET3
 10
36.027424
 20
949.800804
 30
0.0
 11
39.981292
 21
947.518035
 31
0.0
  0
LINE
  5
D4
  8
TEAM-DET3
 10
31.036202
 20
949.83959
 30
0.0
 11
34.981658
 21
947.561675
 31
0.0
  0
LINE
  5
D5
  8
TEAM-DET3
 10
26.036569
 20
949.839049
 30
0.0
 11
29.982055
 21
947.605315
 31
0.0
  0
LINE
  5
D6
  8
TEAM-DET3
 10
21.036651
 20
949.927037
 30
0.0
 11
24.982421
 21
947.64894
 31
0.0
  0
LINE
  5
D7
  8
TEAM-DET3
 10
19.982818
 20
947.692565
 30
0.0
 11
16.037017
 21
949.970673
 31
0.0
  0
LINE
  5
D8
  8
TEAM-DET3
 10
16.037017
 20
1049.828185
 30
0.0
 11
19.982818
 21
1052.06195
 31
0.0
  0
LINE
  5
D9
  8
TEAM-DET3
 10
19.982818
 20
1052.06195
 30
0.0
 11
21.036651
 21
1052.071135
 31
0.0
  0
LINE
  5
DA
  8
TEAM-DET3
 10
21.036651
 20
1049.827477
 30
0.0
 11
24.982421
 21
1052.105574
 31
0.0
  0
LINE
  5
DB
  8
TEAM-DET3
 10
24.982421
 20
1052.105574
 30
0.0
 11
26.036254
 21
1052.114775
 31
0.0
  0
LINE
  5
DC
  8
TEAM-DET3
 10
26.036261
 20
1049.871121
 30
0.0
 11
29.982055
 21
1052.149199
 31
0.0
  0
LINE
  5
DD
  8
TEAM-DET3
 10
29.982055
 20
1052.149199
 30
0.0
 11
31.035888
 21
1052.1584
 31
0.0
  0
LINE
  5
DE
  8
TEAM-DET3
 10
31.035895
 20
1049.914746
 30
0.0
 11
34.981658
 21
1052.192839
 31
0.0
  0
LINE
  5
DF
  8
TEAM-DET3
 10
34.981658
 20
1052.192839
 30
0.0
 11
36.035491
 21
1052.20204
 31
0.0
  0
LINE
  5
E0
  8
TEAM-DET3
 10
36.035498
 20
1049.958371
 30
0.0
 11
39.981292
 21
1052.23648
 31
0.0
  0
LINE
  5
E1
  8
TEAM-DET3
 10
39.981292
 20
1052.23648
 30
0.0
 11
41.035125
 21
1052.245665
 31
0.0
  0
LINE
  5
E2
  8
TEAM-DET3
 10
41.035132
 20
1050.002011
 30
0.0
 11
44.980895
 21
1052.280104
 31
0.0
  0
LINE
  5
E3
  8
TEAM-DET3
 10
44.980895
 20
1052.280104
 30
0.0
 11
46.034759
 21
1052.289305
 31
0.0
  0
LINE
  5
E4
  8
TEAM-DET3
 10
46.034766
 20
1050.045654
 30
0.0
 11
49.980529
 21
1052.323729
 31
0.0
  0
LINE
  5
E5
  8
TEAM-DET3
 10
49.980529
 20
1052.323729
 30
0.0
 11
51.034362
 21
1052.33293
 31
0.0
  0
LINE
  5
E6
  8
TEAM-DET3
 10
51.034369
 20
1050.08926
 30
0.0
 11
54.980132
 21
1052.367369
 31
0.0
  0
LINE
  5
E7
  8
TEAM-DET3
 10
54.980132
 20
1052.367369
 30
0.0
 11
56.033965
 21
1052.376555
 31
0.0
  0
LINE
  5
E8
  8
TEAM-DET3
 10
56.033972
 20
1050.132901
 30
0.0
 11
59.979766
 21
1052.410994
 31
0.0
  0
LINE
  5
E9
  8
TEAM-DET3
 10
59.979766
 20
1052.410994
 30
0.0
 11
61.033599
 21
1052.420195
 31
0.0
  0
LINE
  5
EA
  8
TEAM-DET3
 10
61.110412
 20
1050.22087
 30
0.0
 11
64.979369
 21
1052.454619
 31
0.0
  0
LINE
  5
EB
  8
TEAM-DET3
 10
64.979369
 20
1052.454619
 30
0.0
 11
66.033233
 21
1052.46382
 31
0.0
  0
LINE
  5
EC
  8
TEAM-DET3
 10
66.03324
 20
1050.220169
 30
0.0
 11
69.979003
 21
1052.498259
 31
0.0
  0
LINE
  5
ED
  8
TEAM-DET3
 10
69.979003
 20
1052.498259
 30
0.0
 11
71.032836
 21
1052.507445
 31
0.0
  0
LINE
  5
EE
  8
TEAM-DET3
 10
71.032836
 20
1050.263787
 30
0.0
 11
74.978606
 21
1052.541884
 31
0.0
  0
LINE
  5
EF
  8
TEAM-DET3
 10
74.978606
 20
1052.541884
 30
0.0
 11
76.03247
 21
1052.551085
 31
0.0
  0
LINE
  5
F0
  8
TEAM-DET3
 10
76.032477
 20
1050.307449
 30
0.0
 11
79.97824
 21
1052.585524
 31
0.0
  0
LINE
  5
F1
  8
TEAM-DET3
 10
81.032073
 20
1050.351052
 30
0.0
 11
84.977844
 21
1052.629149
 31
0.0
  0
LINE
  5
F2
  8
TEAM-DET3
 10
84.977844
 20
1052.629149
 30
0.0
 11
86.031707
 21
1052.63835
 31
0.0
  0
LINE
  5
F3
  8
TEAM-DET3
 10
86.031707
 20
1050.394695
 30
0.0
 11
89.977477
 21
1052.672789
 31
0.0
  0
LINE
  5
F4
  8
TEAM-DET3
 10
92.436517
 20
1006.595977
 30
0.0
 11
90.991479
 21
1006.595977
 31
0.0
  0
ARC
  5
F5
  8
TEAM-DET3
 10
90.99038
 20
1005.600997
 30
0.0
 40
0.994931
 50
89.936892
 51
180.113636
  0
LINE
  5
F6
  8
TEAM-DET3
 10
89.995293
 20
1005.599028
 30
0.0
 11
89.995293
 21
994.155486
 31
0.0
  0
ARC
  5
F7
  8
TEAM-DET3
 10
90.99038
 20
994.153518
 30
0.0
 40
0.994931
 50
179.886364
 51
270.063108
  0
LINE
  5
F8
  8
TEAM-DET3
 10
92.436517
 20
993.158538
 30
0.0
 11
90.991479
 21
993.158538
 31
0.0
  0
ARC
  5
F9
  8
TEAM-DET3
 10
92.438836
 20
994.152541
 30
0.0
 40
0.99381
 50
269.86685
 51
0.082616
  0
LINE
  5
FA
  8
TEAM-DET3
 10
93.432732
 20
1005.600539
 30
0.0
 11
93.432732
 21
994.153975
 31
0.0
  0
ARC
  5
FB
  8
TEAM-DET3
 10
92.438836
 20
1005.601973
 30
0.0
 40
0.99381
 50
359.917384
 51
90.13315
  0
ARC
  5
FC
  8
TEAM-DET3
 10
92.219964
 20
1005.383254
 30
0.0
 40
0.99381
 50
359.917389
 51
90.133157
  0
LINE
  5
FD
  8
TEAM-DET3
 10
93.21383
 20
994.372695
 30
0.0
 11
93.21383
 21
1005.38182
 31
0.0
  0
ARC
  5
FE
  8
TEAM-DET3
 10
92.219964
 20
994.37126
 30
0.0
 40
0.99381
 50
269.866843
 51
0.082611
  0
LINE
  5
FF
  8
TEAM-DET3
 10
91.210015
 20
993.377257
 30
0.0
 11
92.217645
 21
993.377257
 31
0.0
  0
ARC
  5
100
  8
TEAM-DET3
 10
91.208917
 20
994.372237
 30
0.0
 40
0.994931
 50
179.886351
 51
270.063108
  0
LINE
  5
101
  8
TEAM-DET3
 10
90.21383
 20
1005.380309
 30
0.0
 11
90.21383
 21
994.374205
 31
0.0
  0
ARC
  5
102
  8
TEAM-DET3
 10
91.208917
 20
1005.382277
 30
0.0
 40
0.994931
 50
89.936892
 51
180.113649
  0
LINE
  5
103
  8
TEAM-DET3
 10
92.217645
 20
1006.377257
 30
0.0
 11
91.210015
 21
1006.377257
 31
0.0
  0
LINE
  5
104
  8
TEAM-DET3
 10
6.413818
 20
1051.943541
 30
0.0
 11
6.413818
 21
1073.877257
 31
0.0
  0
LINE
  5
105
  8
TEAM-DET3
 10
6.11383
 20
1074.077239
 30
0.0
 11
6.213836
 21
1074.077239
 31
0.0
  0
ARC
  5
106
  8
TEAM-DET3
 10
6.213836
 20
1073.877257
 30
0.0
 40
0.2
 50
0.0
 51
90.000003
  0
LINE
  5
107
  8
TEAM-DET3
 10
6.413818
 20
925.877257
 30
0.0
 11
6.413818
 21
947.726332
 31
0.0
  0
LINE
  5
108
  8
TEAM-DET3
 10
6.11383
 20
925.67726
 30
0.0
 11
6.213836
 21
925.67726
 31
0.0
  0
ARC
  5
109
  8
TEAM-DET3
 10
6.213836
 20
925.877257
 30
0.0
 40
0.2
 50
269.999997
 51
0.0
  0
LINE
  5
10A
  8
TEAM-DET3
 10
98.11383
 20
1038.027251
 30
0.0
 11
98.413848
 21
1038.027251
 31
0.0
  0
LINE
  5
10B
  8
TEAM-DET3
 10
98.11383
 20
1042.027251
 30
0.0
 11
98.413848
 21
1042.027251
 31
0.0
  0
LINE
  5
10C
  8
TEAM-DET3
 10
98.413848
 20
1038.027251
 30
0.0
 11
98.413848
 21
1042.027251
 31
0.0
  0
LINE
  5
10D
  8
TEAM-DET3
 10
98.11383
 20
1038.027251
 30
0.0
 11
98.413848
 21
1038.027251
 31
0.0
  0
LINE
  5
10E
  8
TEAM-DET3
 10
98.11383
 20
1042.877257
 30
0.0
 11
98.11383
 21
956.877242
 31
0.0
  0
LINE
  5
10F
  8
TEAM-DET3
 10
96.11383
 20
1053.027251
 30
0.0
 11
96.11383
 21
946.727263
 31
0.0
  0
LINE
  5
110
  8
TEAM-DET3
 10
96.11383
 20
946.727263
 30
0.0
 11
103.11383
 21
946.727263
 31
0.0
  0
LINE
  5
111
  8
TEAM-DET3
 10
96.11383
 20
993.877257
 30
0.0
 11
98.11383
 21
993.877257
 31
0.0
  0
LINE
  5
112
  8
TEAM-DET3
 10
103.11383
 20
946.727263
 30
0.0
 11
103.11383
 21
947.372557
 31
0.0
  0
ARC
  5
113
  8
TEAM-DET3
 10
101.11383
 20
947.372557
 30
0.0
 40
2.0
 50
0.0
 51
60.000002
  0
LINE
  5
114
  8
TEAM-DET3
 10
102.11383
 20
949.104613
 30
0.0
 11
100.61383
 21
949.970641
 31
0.0
  0
LINE
  5
115
  8
TEAM-DET3
 10
100.61383
 20
949.970641
 30
0.0
 11
98.11383
 21
956.877257
 31
0.0
  0
LINE
  5
116
  8
TEAM-DET3
 10
96.11383
 20
1005.877257
 30
0.0
 11
98.11383
 21
1005.877257
 31
0.0
  0
LINE
  5
117
  8
TEAM-DET3
 10
103.11383
 20
1053.027251
 30
0.0
 11
103.11383
 21
1052.531951
 31
0.0
  0
LINE
  5
118
  8
TEAM-DET3
 10
96.11383
 20
1053.027251
 30
0.0
 11
103.11383
 21
1053.027251
 31
0.0
  0
LINE
  5
119
  8
TEAM-DET3
 10
103.11383
 20
1052.532042
 30
0.0
 11
103.11383
 21
1052.381957
 31
0.0
  0
ARC
  5
11A
  8
TEAM-DET3
 10
101.11383
 20
1052.381957
 30
0.0
 40
2.0
 50
299.999998
 51
0.0
  0
LINE
  5
11B
  8
TEAM-DET3
 10
101.239654
 20
1050.145201
 30
0.0
 11
100.61383
 21
1049.783873
 31
0.0
  0
LINE
  5
11C
  8
TEAM-DET3
 10
102.11383
 20
1050.649901
 30
0.0
 11
101.239654
 21
1050.145201
 31
0.0
  0
ARC
  5
11D
  8
TEAM-DET3
 10
101.11383
 20
947.222564
 30
0.0
 40
2.0
 50
0.0
 51
0.488031
  0
LINE
  5
11E
  8
TEAM-DET3
 10
100.61383
 20
1049.783873
 30
0.0
 11
98.11383
 21
1042.877257
 31
0.0
  0
LINE
  5
11F
  8
TEAM-DET3
 10
87.213836
 20
946.627257
 30
0.0
 11
98.213836
 21
946.627257
 31
0.0
  0
LINE
  5
120
  8
TEAM-DET3
 10
98.213836
 20
946.627257
 30
0.0
 11
98.213836
 21
946.727263
 31
0.0
  0
LINE
  5
121
  8
TEAM-DET3
 10
98.213836
 20
956.600981
 30
0.0
 11
98.213836
 21
957.627257
 31
0.0
  0
LINE
  5
122
  8
TEAM-DET3
 10
98.213836
 20
957.627257
 30
0.0
 11
98.11383
 21
957.627257
 31
0.0
  0
LINE
  5
123
  8
TEAM-DET3
 10
87.213836
 20
946.727263
 30
0.0
 11
98.11383
 21
946.727263
 31
0.0
  0
LINE
  5
124
  8
TEAM-DET3
 10
87.213836
 20
946.727263
 30
0.0
 11
87.213836
 21
946.627257
 31
0.0
  0
LINE
  5
125
  8
TEAM-DET3
 10
6.413818
 20
1051.943541
 30
0.0
 11
6.413818
 21
1073.877257
 31
0.0
  0
LINE
  5
126
  8
TEAM-HIDE
 10
-61.0
 20
1059.75403
 30
0.0
 11
-61.0
 21
930.00407
 31
0.0
  0
ARC
  5
127
  8
TEAM-HIDE
 10
-8.5
 20
106.72397
 30
0.0
 40
5.0
 50
270.000001
 51
0.00001
  0
LINE
  5
128
  8
TEAM-HIDE
 10
-3.5
 20
106.72397
 30
0.0
 11
-3.5
 21
123.22397
 31
0.0
  0
ARC
  5
129
  8
TEAM-HIDE
 10
-8.5
 20
123.22397
 30
0.0
 40
5.0
 50
0.0
 51
90.000003
  0
LINE
  5
12A
  8
TEAM-HIDE
 10
-39.999959
 20
128.22397
 30
0.0
 11
-8.5
 21
128.22397
 31
0.0
  0
ARC
  5
12B
  8
TEAM-DET3
 10
-66.5
 20
123.22397
 30
0.0
 40
5.0
 50
90.000003
 51
180.000005
  0
LINE
  5
12C
  8
TEAM-DET3
 10
-71.5
 20
106.72397
 30
0.0
 11
-71.5
 21
123.22397
 31
0.0
  0
ARC
  5
12D
  8
TEAM-DET3
 10
-66.5
 20
106.72397
 30
0.0
 40
5.0
 50
180.000005
 51
270.000001
  0
LINE
  5
12E
  8
TEAM-HIDE
 10
-39.999959
 20
101.72397
 30
0.0
 11
-8.5
 21
101.72397
 31
0.0
  0
ARC
  5
12F
  8
TEAM-DET3
 10
-66.5
 20
1064.75403
 30
0.0
 40
5.0
 50
180.000005
 51
270.000001
  0
LINE
  5
130
  8
TEAM-DET3
 10
-71.5
 20
1064.75403
 30
0.0
 11
-71.5
 21
1081.25403
 31
0.0
  0
ARC
  5
131
  8
TEAM-HIDE
 10
-66.5
 20
1081.25403
 30
0.0
 40
5.0
 50
90.000003
 51
180.000005
  0
LINE
  5
132
  8
TEAM-HIDE
 10
-39.999969
 20
1086.25403
 30
0.0
 11
-8.5
 21
1086.25403
 31
0.0
  0
ARC
  5
133
  8
TEAM-HIDE
 10
-8.5
 20
1081.25403
 30
0.0
 40
5.0
 50
0.0
 51
90.000003
  0
LINE
  5
134
  8
TEAM-HIDE
 10
-3.5
 20
1064.75403
 30
0.0
 11
-3.5
 21
1081.25403
 31
0.0
  0
ARC
  5
135
  8
TEAM-HIDE
 10
-8.5
 20
1064.75403
 30
0.0
 40
5.0
 50
270.000001
 51
0.00001
  0
LINE
  5
136
  8
TEAM-HIDE
 10
-66.5
 20
1059.75403
 30
0.0
 11
-8.5
 21
1059.75403
 31
0.0
  0
ARC
  5
137
  8
TEAM-HIDE
 10
-16.0
 20
1011.00403
 30
0.0
 40
6.85
 50
245.740808
 51
269.765807
  0
ARC
  5
138
  8
TEAM-HIDE
 10
-16.0
 20
1011.00403
 30
0.0
 40
6.85
 50
65.740803
 51
89.765816
  0
ARC
  5
139
  8
TEAM-HIDE
 10
-9.899658
 20
1004.870364
 30
0.0
 40
2.0
 50
257.753308
 51
0.003316
  0
LINE
  5
13A
  8
TEAM-HIDE
 10
-10.323912
 20
1002.915896
 30
0.0
 11
-16.028014
 21
1004.154054
 31
0.0
  0
LINE
  5
13B
  8
TEAM-HIDE
 10
-7.900024
 20
1011.66797
 30
0.0
 11
-7.899658
 21
1004.870486
 31
0.0
  0
LINE
  5
13C
  8
TEAM-HIDE
 10
-13.185546
 20
1017.249148
 30
0.0
 11
-12.233398
 21
1017.042482
 31
0.0
  0
ARC
  5
13D
  8
TEAM-HIDE
 10
-13.400024
 20
1011.667604
 30
0.0
 40
5.5
 50
0.00331
 51
77.753309
  0
ARC
  5
13E
  8
TEAM-HIDE
 10
-22.100342
 20
1017.137576
 30
0.0
 40
2.0
 50
77.753309
 51
180.003311
  0
LINE
  5
13F
  8
TEAM-HIDE
 10
-21.676086
 20
1019.092044
 30
0.0
 11
-15.971984
 21
1017.853884
 31
0.0
  0
LINE
  5
140
  8
TEAM-HIDE
 10
-24.099974
 20
1010.34009
 30
0.0
 11
-24.100342
 21
1017.137454
 31
0.0
  0
LINE
  5
141
  8
TEAM-HIDE
 10
-18.814452
 20
1004.758914
 30
0.0
 11
-19.7666
 21
1004.965578
 31
0.0
  0
ARC
  5
142
  8
TEAM-HIDE
 10
-18.599974
 20
1010.340456
 30
0.0
 40
5.5
 50
180.003311
 51
257.753308
  0
ARC
  5
143
  8
TEAM-HIDE
 10
-16.0
 20
151.0365
 30
0.0
 40
6.85
 50
245.740808
 51
269.765807
  0
ARC
  5
144
  8
TEAM-HIDE
 10
-16.0
 20
151.0365
 30
0.0
 40
6.85
 50
65.740803
 51
89.765816
  0
ARC
  5
145
  8
TEAM-HIDE
 10
-9.899658
 20
144.902894
 30
0.0
 40
2.0
 50
257.753308
 51
0.003316
  0
LINE
  5
146
  8
TEAM-HIDE
 10
-10.323912
 20
142.948426
 30
0.0
 11
-16.028014
 21
144.186554
 31
0.0
  0
LINE
  5
147
  8
TEAM-HIDE
 10
-7.900024
 20
151.70041
 30
0.0
 11
-7.899658
 21
144.903016
 31
0.0
  0
LINE
  5
148
  8
TEAM-HIDE
 10
-13.185546
 20
157.281618
 30
0.0
 11
-12.233398
 21
157.074922
 31
0.0
  0
ARC
  5
149
  8
TEAM-HIDE
 10
-13.400024
 20
151.700104
 30
0.0
 40
5.5
 50
0.00331
 51
77.753309
  0
ARC
  5
14A
  8
TEAM-HIDE
 10
-22.100342
 20
157.170106
 30
0.0
 40
2.0
 50
77.753309
 51
180.003311
  0
LINE
  5
14B
  8
TEAM-HIDE
 10
-21.676086
 20
159.124574
 30
0.0
 11
-15.971984
 21
157.886444
 31
0.0
  0
LINE
  5
14C
  8
TEAM-HIDE
 10
-24.099974
 20
150.37259
 30
0.0
 11
-24.100342
 21
157.169984
 31
0.0
  0
LINE
  5
14D
  8
TEAM-HIDE
 10
-18.814452
 20
144.791382
 30
0.0
 11
-19.7666
 21
144.998078
 31
0.0
  0
ARC
  5
14E
  8
TEAM-HIDE
 10
-18.599974
 20
150.372896
 30
0.0
 40
5.5
 50
180.003311
 51
257.753308
  0
LINE
  5
14F
  8
TEAM-DET3
 10
-62.25
 20
182.974
 30
0.0
 11
-48.75
 21
182.974
 31
0.0
  0
LINE
  5
150
  8
TEAM-DET3
 10
-48.75
 20
184.974
 30
0.0
 11
-48.75
 21
182.974
 31
0.0
  0
LINE
  5
151
  8
TEAM-DET3
 10
-48.75
 20
184.974
 30
0.0
 11
-45.799988
 21
184.974
 31
0.0
  0
LINE
  5
152
  8
TEAM-DET3
 10
-45.799988
 20
184.974
 30
0.0
 11
-45.799988
 21
164.974
 31
0.0
  0
LINE
  5
153
  8
TEAM-DET3
 10
-45.799988
 20
164.974
 30
0.0
 11
-48.75
 21
164.974
 31
0.0
  0
LINE
  5
154
  8
TEAM-DET3
 10
-48.75
 20
166.974
 30
0.0
 11
-48.75
 21
164.974
 31
0.0
  0
LINE
  5
155
  8
TEAM-DET3
 10
-62.25
 20
166.974
 30
0.0
 11
-48.75
 21
166.974
 31
0.0
  0
LINE
  5
156
  8
TEAM-DET3
 10
-62.25
 20
166.974
 30
0.0
 11
-62.25
 21
164.974
 31
0.0
  0
LINE
  5
157
  8
TEAM-DET3
 10
-62.25
 20
164.974
 30
0.0
 11
-65.200012
 21
164.974
 31
0.0
  0
LINE
  5
158
  8
TEAM-DET3
 10
-65.200012
 20
184.974
 30
0.0
 11
-65.200012
 21
164.974
 31
0.0
  0
LINE
  5
159
  8
TEAM-DET3
 10
-65.200012
 20
184.974
 30
0.0
 11
-62.25
 21
184.974
 31
0.0
  0
LINE
  5
15A
  8
TEAM-DET3
 10
-62.25
 20
184.974
 30
0.0
 11
-62.25
 21
182.974
 31
0.0
  0
LINE
  5
15B
  8
TEAM-HIDE
 10
-22.75
 20
184.974
 30
0.0
 11
-22.75
 21
182.974
 31
0.0
  0
LINE
  5
15C
  8
TEAM-HIDE
 10
-25.700012
 20
184.974
 30
0.0
 11
-22.75
 21
184.974
 31
0.0
  0
LINE
  5
15D
  8
TEAM-HIDE
 10
-25.700012
 20
184.974
 30
0.0
 11
-25.700012
 21
164.974
 31
0.0
  0
LINE
  5
15E
  8
TEAM-HIDE
 10
-22.75
 20
164.974
 30
0.0
 11
-25.700012
 21
164.974
 31
0.0
  0
LINE
  5
15F
  8
TEAM-HIDE
 10
-22.75
 20
166.974
 30
0.0
 11
-22.75
 21
164.974
 31
0.0
  0
LINE
  5
160
  8
TEAM-HIDE
 10
-22.75
 20
166.974
 30
0.0
 11
-9.25
 21
166.974
 31
0.0
  0
LINE
  5
161
  8
TEAM-HIDE
 10
-9.25
 20
166.974
 30
0.0
 11
-9.25
 21
164.974
 31
0.0
  0
LINE
  5
162
  8
TEAM-HIDE
 10
-6.299988
 20
164.974
 30
0.0
 11
-9.25
 21
164.974
 31
0.0
  0
LINE
  5
163
  8
TEAM-HIDE
 10
-6.299988
 20
184.974
 30
0.0
 11
-6.299988
 21
164.974
 31
0.0
  0
LINE
  5
164
  8
TEAM-HIDE
 10
-9.25
 20
184.974
 30
0.0
 11
-6.299988
 21
184.974
 31
0.0
  0
LINE
  5
165
  8
TEAM-HIDE
 10
-9.25
 20
184.974
 30
0.0
 11
-9.25
 21
182.974
 31
0.0
  0
LINE
  5
166
  8
TEAM-HIDE
 10
-22.75
 20
182.974
 30
0.0
 11
-9.25
 21
182.974
 31
0.0
  0
LINE
  5
167
  8
TEAM-HIDE
 10
-21.849914
 20
1027.00407
 30
0.0
 11
-9.549864
 21
1027.00407
 31
0.0
  0
LINE
  5
168
  8
TEAM-HIDE
 10
-21.849914
 20
1027.00407
 30
0.0
 11
-21.849914
 21
1025.00407
 31
0.0
  0
LINE
  5
169
  8
TEAM-HIDE
 10
-21.849914
 20
1025.00407
 30
0.0
 11
-24.899902
 21
1025.00407
 31
0.0
  0
LINE
  5
16A
  8
TEAM-HIDE
 10
-24.899902
 20
1045.00407
 30
0.0
 11
-24.899902
 21
1025.00407
 31
0.0
  0
LINE
  5
16B
  8
TEAM-HIDE
 10
-24.899902
 20
1045.00407
 30
0.0
 11
-21.849914
 21
1045.00407
 31
0.0
  0
LINE
  5
16C
  8
TEAM-HIDE
 10
-21.849914
 20
1045.00407
 30
0.0
 11
-21.849914
 21
1043.00407
 31
0.0
  0
LINE
  5
16D
  8
TEAM-HIDE
 10
-21.849914
 20
1043.00407
 30
0.0
 11
-9.549864
 21
1043.00407
 31
0.0
  0
LINE
  5
16E
  8
TEAM-HIDE
 10
-9.549864
 20
1045.00407
 30
0.0
 11
-9.549864
 21
1043.00407
 31
0.0
  0
LINE
  5
16F
  8
TEAM-HIDE
 10
-9.549864
 20
1045.00407
 30
0.0
 11
-6.499878
 21
1045.00407
 31
0.0
  0
LINE
  5
170
  8
TEAM-HIDE
 10
-6.499878
 20
1045.00407
 30
0.0
 11
-6.499878
 21
1025.00407
 31
0.0
  0
LINE
  5
171
  8
TEAM-HIDE
 10
-6.499878
 20
1025.00407
 30
0.0
 11
-9.549864
 21
1025.00407
 31
0.0
  0
LINE
  5
172
  8
TEAM-HIDE
 10
-9.549864
 20
1027.00407
 30
0.0
 11
-9.549864
 21
1025.00407
 31
0.0
  0
LINE
  5
173
  8
TEAM-HIDE
 10
-14.399902
 20
930.00407
 30
0.0
 11
-36.19989
 21
930.00407
 31
0.0
  0
LINE
  5
174
  8
TEAM-HIDE
 10
-36.19989
 20
930.00407
 30
0.0
 11
-61.0
 21
930.00407
 31
0.0
  0
LINE
  5
175
  8
TEAM-HIDE
 10
-14.399902
 20
194.97407
 30
0.0
 11
-14.399902
 21
993.00407
 31
0.0
  0
LINE
  5
176
  8
TEAM-HIDE
 10
-12.399902
 20
993.00407
 30
0.0
 11
-14.399902
 21
993.00407
 31
0.0
  0
LINE
  5
177
  8
TEAM-HIDE
 10
-12.399902
 20
993.00407
 30
0.0
 11
-11.19989
 21
993.00407
 31
0.0
  0
LINE
  5
178
  8
TEAM-HIDE
 10
-11.19989
 20
993.00407
 30
0.0
 11
-11.19989
 21
995.50407
 31
0.0
  0
LINE
  5
179
  8
TEAM-HIDE
 10
-36.19989
 20
995.50407
 30
0.0
 11
-11.19989
 21
995.50407
 31
0.0
  0
LINE
  5
17A
  8
TEAM-HIDE
 10
-36.19989
 20
995.50407
 30
0.0
 11
-36.19989
 21
192.47407
 31
0.0
  0
LINE
  5
17B
  8
TEAM-HIDE
 10
-39.999969
 20
1070.00407
 30
0.0
 11
-3.5
 21
1070.00407
 31
0.0
  0
LINE
  5
17C
  8
TEAM-HIDE
 10
-11.19989
 20
192.47407
 30
0.0
 11
-36.19989
 21
192.47407
 31
0.0
  0
LINE
  5
17D
  8
TEAM-HIDE
 10
-11.19989
 20
192.47407
 30
0.0
 11
-11.19989
 21
194.97407
 31
0.0
  0
LINE
  5
17E
  8
TEAM-HIDE
 10
-12.399902
 20
194.97407
 30
0.0
 11
-11.19989
 21
194.97407
 31
0.0
  0
LINE
  5
17F
  8
TEAM-HIDE
 10
-12.399902
 20
194.97407
 30
0.0
 11
-14.399902
 21
194.97407
 31
0.0
  0
LINE
  5
180
  8
TEAM-AXE
 10
-44.96667
 20
1000.00403
 30
0.0
 11
110.99999
 21
1000.00403
 31
0.0
  0
LINE
  5
181
  8
TEAM-HIDE
 10
-31.89743
 20
1073.50407
 30
0.0
 11
-39.999969
 21
1073.50407
 31
0.0
  0
LINE
  5
182
  8
TEAM-HIDE
 10
-33.29743
 20
1073.50407
 30
0.0
 11
-33.29743
 21
1075.50407
 31
0.0
  0
LINE
  5
183
  8
TEAM-DET3
 10
-50.59743
 20
1073.50407
 30
0.0
 11
-50.59743
 21
1075.50407
 31
0.0
  0
LINE
  5
184
  8
TEAM-HIDE
 10
-31.89743
 20
1070.00407
 30
0.0
 11
-31.89743
 21
1073.50407
 31
0.0
  0
LINE
  5
185
  8
TEAM-DET3
 10
-51.99743
 20
1070.00407
 30
0.0
 11
-51.99743
 21
1073.50407
 31
0.0
  0
LINE
  5
186
  8
TEAM-HIDE
 10
-33.29743
 20
1075.50407
 30
0.0
 11
-39.999969
 21
1075.50407
 31
0.0
  0
LINE
  5
187
  8
TEAM-DET3
 10
-61.0
 20
1070.00407
 30
0.0
 11
-61.0
 21
1059.75403
 31
0.0
  0
LINE
  5
188
  8
TEAM-AXE
 10
41.840441
 20
177.970372
 30
0.0
 11
-20.0
 21
177.970372
 31
0.0
  0
LINE
  5
189
  8
TEAM-AXE
 10
-48.0
 20
148.614653
 30
0.0
 11
-48.0
 21
96.162673
 31
0.0
  0
LINE
  5
18A
  8
TEAM-DET2
 10
0.0
 20
1091.317859
 30
0.0
 11
-39.999969
 21
1091.317859
 31
0.0
  0
ARC
  5
18B
  8
TEAM-AXE
 10
-18.485729
 20
148.494728
 30
0.0
 40
29.514515
 50
92.940908
 51
179.767193
  0
LINE
  5
18C
  8
TEAM-DET2
 10
0.0
 20
1091.317859
 30
0.0
 11
0.0
 21
94.98897
 31
0.0
  0
LINE
  5
18D
  8
TEAM-DET2
 10
-75.0
 20
94.989
 30
0.0
 11
0.0
 21
94.989
 31
0.0
  0
LINE
  5
18E
  8
TEAM-DET3
 10
-66.5
 20
128.22397
 30
0.0
 11
-39.999959
 21
128.22397
 31
0.0
  0
LINE
  5
18F
  8
TEAM-DET3
 10
-66.5
 20
101.72397
 30
0.0
 11
-39.999959
 21
101.72397
 31
0.0
  0
LINE
  5
190
  8
TEAM-HIDE
 10
-66.5
 20
1086.25403
 30
0.0
 11
-39.999969
 21
1086.25403
 31
0.0
  0
LINE
  5
191
  8
TEAM-DET3
 10
-61.0
 20
1070.00407
 30
0.0
 11
-39.999969
 21
1070.00407
 31
0.0
  0
LINE
  5
192
  8
TEAM-DET3
 10
-51.99743
 20
1073.50407
 30
0.0
 11
-39.999969
 21
1073.50407
 31
0.0
  0
LINE
  5
193
  8
TEAM-DET3
 10
-50.59743
 20
1075.50407
 30
0.0
 11
-39.999969
 21
1075.50407
 31
0.0
  0
POLYLINE
  5
194
  8
TEAM-DET3
 66
     1
 10
0.0
 20
0.0
 30
0.0
  0
VERTEX
  5
361
  8
TEAM-DET3
 10
-23.403682
 20
597.73658
 30
0.0
  0
VERTEX
  5
362
  8
TEAM-DET3
 10
-23.806746
 20
598.132754
 30
0.0
  0
SEQEND
  5
363
  8
TEAM-DET3
  0
POLYLINE
  5
198
  8
TEAM-DET3
 66
     1
 10
0.0
 20
0.0
 30
0.0
  0
VERTEX
  5
364
  8
TEAM-DET3
 10
-8.207138
 20
601.637688
 30
0.0
  0
VERTEX
  5
365
  8
TEAM-DET3
 10
-23.806746
 20
601.637688
 30
0.0
  0
VERTEX
  5
366
  8
TEAM-DET3
 10
-23.806746
 20
598.132754
 30
0.0
  0
SEQEND
  5
367
  8
TEAM-DET3
  0
POLYLINE
  5
19D
  8
TEAM-DET3
 66
     1
 10
0.0
 20
0.0
 30
0.0
  0
VERTEX
  5
368
  8
TEAM-DET3
 10
-8.207138
 20
601.637688
 30
0.0
  0
VERTEX
  5
369
  8
TEAM-DET3
 10
-8.207138
 20
598.132754
 30
0.0
  0
SEQEND
  5
36A
  8
TEAM-DET3
  0
POLYLINE
  5
1A1
  8
TEAM-DET3
 66
     1
 10
0.0
 20
0.0
 30
0.0
  0
VERTEX
  5
36B
  8
TEAM-DET3
 10
-8.207138
 20
598.132754
 30
0.0
  0
VERTEX
  5
36C
  8
TEAM-DET3
 10
-8.602623
 20
597.73658
 30
0.0
  0
SEQEND
  5
36D
  8
TEAM-DET3
  0
POLYLINE
  5
1A5
  8
TEAM-DET3
 66
     1
 10
0.0
 20
0.0
 30
0.0
  0
VERTEX
  5
36E
  8
TEAM-DET3
 10
-8.602623
 20
597.73658
 30
0.0
  0
VERTEX
  5
36F
  8
TEAM-DET3
 10
-8.602623
 20
572.535438
 30
0.0
  0
SEQEND
  5
370
  8
TEAM-DET3
  0
POLYLINE
  5
1A9
  8
TEAM-DET3
 66
     1
 10
0.0
 20
0.0
 30
0.0
  0
VERTEX
  5
371
  8
TEAM-DET3
 10
-8.207138
 20
572.132374
 30
0.0
  0
VERTEX
  5
372
  8
TEAM-DET3
 10
-8.602623
 20
572.535438
 30
0.0
  0
SEQEND
  5
373
  8
TEAM-DET3
  0
POLYLINE
  5
1AD
  8
TEAM-DET3
 66
     1
 10
0.0
 20
0.0
 30
0.0
  0
VERTEX
  5
374
  8
TEAM-DET3
 10
-8.207138
 20
572.132374
 30
0.0
  0
VERTEX
  5
375
  8
TEAM-DET3
 10
-8.207138
 20
568.633986
 30
0.0
  0
SEQEND
  5
376
  8
TEAM-DET3
  0
POLYLINE
  5
1B1
  8
TEAM-DET3
 66
     1
 10
0.0
 20
0.0
 30
0.0
  0
VERTEX
  5
377
  8
TEAM-DET3
 10
-8.207138
 20
568.633986
 30
0.0
  0
VERTEX
  5
378
  8
TEAM-DET3
 10
-23.806746
 20
568.633986
 30
0.0
  0
SEQEND
  5
379
  8
TEAM-DET3
  0
POLYLINE
  5
1B5
  8
TEAM-DET3
 66
     1
 10
0.0
 20
0.0
 30
0.0
  0
VERTEX
  5
37A
  8
TEAM-DET3
 10
-23.403682
 20
597.73658
 30
0.0
  0
VERTEX
  5
37B
  8
TEAM-DET3
 10
-23.403682
 20
572.535438
 30
0.0
  0
VERTEX
  5
37C
  8
TEAM-DET3
 10
-23.806746
 20
572.132374
 30
0.0
  0
VERTEX
  5
37D
  8
TEAM-DET3
 10
-23.806746
 20
568.633986
 30
0.0
  0
SEQEND
  5
37E
  8
TEAM-DET3
  0
POLYLINE
  5
1BB
  8
TEAM-DET3
 66
     1
 10
0.0
 20
0.0
 30
0.0
  0
VERTEX
  5
37F
  8
TEAM-DET3
 10
-20.752417
 20
554.388604
 30
0.0
  0
VERTEX
  5
380
  8
TEAM-DET3
 10
-19.255224
 20
554.388604
 30
0.0
  0
SEQEND
  5
381
  8
TEAM-DET3
  0
POLYLINE
  5
1BF
  8
TEAM-DET3
 66
     1
 10
0.0
 20
0.0
 30
0.0
  0
VERTEX
  5
382
  8
TEAM-DET3
 10
-19.255224
 20
562.883607
 30
0.0
  0
VERTEX
  5
383
  8
TEAM-DET3
 10
-20.752417
 20
562.883607
 30
0.0
  0
SEQEND
  5
384
  8
TEAM-DET3
  0
POLYLINE
  5
1C3
  8
TEAM-DET3
 66
     1
 10
0.0
 20
0.0
 30
0.0
  0
VERTEX
  5
385
  8
TEAM-DET3
 10
-73.003283
 20
167.876814
 30
0.0
  0
VERTEX
  5
386
  8
TEAM-DET3
 10
-60.163113
 20
168.997814
 30
0.0
  0
SEQEND
  5
387
  8
TEAM-DET3
  0
POLYLINE
  5
1C7
  8
TEAM-DET3
 66
     1
 10
0.0
 20
0.0
 30
0.0
  0
VERTEX
  5
388
  8
TEAM-DET3
 10
-73.003283
 20
167.876814
 30
0.0
  0
VERTEX
  5
389
  8
TEAM-DET3
 10
-73.003283
 20
133.65014
 30
0.0
  0
SEQEND
  5
38A
  8
TEAM-DET3
  0
POLYLINE
  5
1CB
  8
TEAM-DET3
 66
     1
 10
0.0
 20
0.0
 30
0.0
  0
VERTEX
  5
38B
  8
TEAM-DET3
 10
-40.006471
 20
68.650051
 30
0.0
  0
VERTEX
  5
38C
  8
TEAM-DET3
 10
-39.999969
 20
1081.744698
 30
0.0
  0
SEQEND
  5
38D
  8
TEAM-DET3
  0
POLYLINE
  5
1CF
  8
TEAM-DET3
 66
     1
 10
0.0
 20
0.0
 30
0.0
  0
VERTEX
  5
38E
  8
TEAM-DET3
 10
-73.003283
 20
1027.876555
 30
0.0
  0
VERTEX
  5
38F
  8
TEAM-DET3
 10
-60.163113
 20
1029.004445
 30
0.0
  0
SEQEND
  5
390
  8
TEAM-DET3
  0
POLYLINE
  5
1D3
  8
TEAM-DET3
 66
     1
 10
0.0
 20
0.0
 30
0.0
  0
VERTEX
  5
391
  8
TEAM-DET3
 10
-73.003283
 20
1027.876555
 30
0.0
  0
VERTEX
  5
392
  8
TEAM-DET3
 10
-73.003283
 20
993.650225
 30
0.0
  0
SEQEND
  5
393
  8
TEAM-DET3
  0
POLYLINE
  5
1D7
  8
TEAM-DET3
 66
     1
 10
0.0
 20
0.0
 30
0.0
  0
VERTEX
  5
394
  8
TEAM-DET3
 10
-73.003283
 20
191.645184
 30
0.0
  0
VERTEX
  5
395
  8
TEAM-DET3
 10
-73.003283
 20
183.419235
 30
0.0
  0
SEQEND
  5
396
  8
TEAM-DET3
  0
POLYLINE
  5
1DB
  8
TEAM-DET3
 66
     1
 10
0.0
 20
0.0
 30
0.0
  0
VERTEX
  5
397
  8
TEAM-DET3
 10
-60.163113
 20
182.296857
 30
0.0
  0
VERTEX
  5
398
  8
TEAM-DET3
 10
-73.003283
 20
183.419235
 30
0.0
  0
SEQEND
  5
399
  8
TEAM-DET3
  0
POLYLINE
  5
1DF
  8
TEAM-DET3
 66
     1
 10
0.0
 20
0.0
 30
0.0
  0
VERTEX
  5
39A
  8
TEAM-DET3
 10
-73.003283
 20
1051.651815
 30
0.0
  0
VERTEX
  5
39B
  8
TEAM-DET3
 10
-73.003283
 20
1043.425866
 30
0.0
  0
SEQEND
  5
39C
  8
TEAM-DET3
  0
POLYLINE
  5
1E3
  8
TEAM-DET3
 66
     1
 10
0.0
 20
0.0
 30
0.0
  0
VERTEX
  5
39D
  8
TEAM-DET3
 10
-60.163113
 20
1042.304866
 30
0.0
  0
VERTEX
  5
39E
  8
TEAM-DET3
 10
-73.003283
 20
1043.425866
 30
0.0
  0
SEQEND
  5
39F
  8
TEAM-DET3
  0
POLYLINE
  5
1E7
  8
TEAM-DET3
 66
     1
 10
0.0
 20
0.0
 30
0.0
  0
VERTEX
  5
3A0
  8
TEAM-DET3
 10
-49.304502
 20
1001.650872
 30
0.0
  0
VERTEX
  5
3A1
  8
TEAM-DET3
 10
-52.254103
 20
1001.650872
 30
0.0
  0
SEQEND
  5
3A2
  8
TEAM-DET3
  0
POLYLINE
  5
1EB
  8
TEAM-DET3
 66
     1
 10
0.0
 20
0.0
 30
0.0
  0
VERTEX
  5
3A3
  8
TEAM-DET3
 10
-65.750888
 20
1001.650872
 30
0.0
  0
VERTEX
  5
3A4
  8
TEAM-DET3
 10
-68.708069
 20
1001.650872
 30
0.0
  0
SEQEND
  5
3A5
  8
TEAM-DET3
  0
POLYLINE
  5
1EF
  8
TEAM-DET3
 66
     1
 10
0.0
 20
0.0
 30
0.0
  0
VERTEX
  5
3A6
  8
TEAM-DET3
 10
-68.708069
 20
1001.650872
 30
0.0
  0
VERTEX
  5
3A7
  8
TEAM-DET3
 10
-68.708069
 20
1021.653523
 30
0.0
  0
SEQEND
  5
3A8
  8
TEAM-DET3
  0
POLYLINE
  5
1F3
  8
TEAM-DET3
 66
     1
 10
0.0
 20
0.0
 30
0.0
  0
VERTEX
  5
3A9
  8
TEAM-DET3
 10
-68.708069
 20
1021.653523
 30
0.0
  0
VERTEX
  5
3AA
  8
TEAM-DET3
 10
-65.750888
 20
1021.653523
 30
0.0
  0
SEQEND
  5
3AB
  8
TEAM-DET3
  0
POLYLINE
  5
1F7
  8
TEAM-DET3
 66
     1
 10
0.0
 20
0.0
 30
0.0
  0
VERTEX
  5
3AC
  8
TEAM-DET3
 10
-65.750888
 20
1021.653523
 30
0.0
  0
VERTEX
  5
3AD
  8
TEAM-DET3
 10
-65.750888
 20
1019.648883
 30
0.0
  0
SEQEND
  5
3AE
  8
TEAM-DET3
  0
POLYLINE
  5
1FB
  8
TEAM-DET3
 66
     1
 10
0.0
 20
0.0
 30
0.0
  0
VERTEX
  5
3AF
  8
TEAM-DET3
 10
-65.750888
 20
1019.648883
 30
0.0
  0
VERTEX
  5
3B0
  8
TEAM-DET3
 10
-65.750888
 20
1018.944382
 30
0.0
  0
SEQEND
  5
3B1
  8
TEAM-DET3
  0
POLYLINE
  5
1FF
  8
TEAM-DET3
 66
     1
 10
0.0
 20
0.0
 30
0.0
  0
VERTEX
  5
3B2
  8
TEAM-DET3
 10
-65.750888
 20
1018.944382
 30
0.0
  0
VERTEX
  5
3B3
  8
TEAM-DET3
 10
-65.750888
 20
1017.822004
 30
0.0
  0
SEQEND
  5
3B4
  8
TEAM-DET3
  0
POLYLINE
  5
203
  8
TEAM-DET3
 66
     1
 10
0.0
 20
0.0
 30
0.0
  0
VERTEX
  5
3B5
  8
TEAM-DET3
 10
-65.750888
 20
1017.822004
 30
0.0
  0
VERTEX
  5
3B6
  8
TEAM-DET3
 10
-65.750888
 20
1016.41128
 30
0.0
  0
SEQEND
  5
3B7
  8
TEAM-DET3
  0
POLYLINE
  5
207
  8
TEAM-DET3
 66
     1
 10
0.0
 20
0.0
 30
0.0
  0
VERTEX
  5
3B8
  8
TEAM-DET3
 10
-65.750888
 20
1016.41128
 30
0.0
  0
VERTEX
  5
3B9
  8
TEAM-DET3
 10
-65.750888
 20
1006.89346
 30
0.0
  0
SEQEND
  5
3BA
  8
TEAM-DET3
  0
POLYLINE
  5
20B
  8
TEAM-DET3
 66
     1
 10
0.0
 20
0.0
 30
0.0
  0
VERTEX
  5
3BB
  8
TEAM-DET3
 10
-65.750888
 20
1006.89346
 30
0.0
  0
VERTEX
  5
3BC
  8
TEAM-DET3
 10
-65.750888
 20
1005.482736
 30
0.0
  0
SEQEND
  5
3BD
  8
TEAM-DET3
  0
POLYLINE
  5
20F
  8
TEAM-DET3
 66
     1
 10
0.0
 20
0.0
 30
0.0
  0
VERTEX
  5
3BE
  8
TEAM-DET3
 10
-65.750888
 20
1005.482736
 30
0.0
  0
VERTEX
  5
3BF
  8
TEAM-DET3
 10
-65.750888
 20
1004.360358
 30
0.0
  0
SEQEND
  5
3C0
  8
TEAM-DET3
  0
POLYLINE
  5
213
  8
TEAM-DET3
 66
     1
 10
0.0
 20
0.0
 30
0.0
  0
VERTEX
  5
3C1
  8
TEAM-DET3
 10
-65.750888
 20
1004.360358
 30
0.0
  0
VERTEX
  5
3C2
  8
TEAM-DET3
 10
-65.750888
 20
1003.655857
 30
0.0
  0
SEQEND
  5
3C3
  8
TEAM-DET3
  0
POLYLINE
  5
217
  8
TEAM-DET3
 66
     1
 10
0.0
 20
0.0
 30
0.0
  0
VERTEX
  5
3C4
  8
TEAM-DET3
 10
-65.750888
 20
1001.650872
 30
0.0
  0
VERTEX
  5
3C5
  8
TEAM-DET3
 10
-65.750888
 20
1003.655857
 30
0.0
  0
SEQEND
  5
3C6
  8
TEAM-DET3
  0
POLYLINE
  5
21B
  8
TEAM-DET3
 66
     1
 10
0.0
 20
0.0
 30
0.0
  0
VERTEX
  5
3C7
  8
TEAM-DET3
 10
-52.254103
 20
1021.653523
 30
0.0
  0
VERTEX
  5
3C8
  8
TEAM-DET3
 10
-52.254103
 20
1019.648883
 30
0.0
  0
SEQEND
  5
3C9
  8
TEAM-DET3
  0
POLYLINE
  5
21F
  8
TEAM-DET3
 66
     1
 10
0.0
 20
0.0
 30
0.0
  0
VERTEX
  5
3CA
  8
TEAM-DET3
 10
-52.254103
 20
1019.648883
 30
0.0
  0
VERTEX
  5
3CB
  8
TEAM-DET3
 10
-52.254103
 20
1018.944382
 30
0.0
  0
SEQEND
  5
3CC
  8
TEAM-DET3
  0
POLYLINE
  5
223
  8
TEAM-DET3
 66
     1
 10
0.0
 20
0.0
 30
0.0
  0
VERTEX
  5
3CD
  8
TEAM-DET3
 10
-52.254103
 20
1018.944382
 30
0.0
  0
VERTEX
  5
3CE
  8
TEAM-DET3
 10
-52.254103
 20
1017.822004
 30
0.0
  0
SEQEND
  5
3CF
  8
TEAM-DET3
  0
POLYLINE
  5
227
  8
TEAM-DET3
 66
     1
 10
0.0
 20
0.0
 30
0.0
  0
VERTEX
  5
3D0
  8
TEAM-DET3
 10
-52.254103
 20
1017.822004
 30
0.0
  0
VERTEX
  5
3D1
  8
TEAM-DET3
 10
-52.254103
 20
1016.41128
 30
0.0
  0
SEQEND
  5
3D2
  8
TEAM-DET3
  0
POLYLINE
  5
22B
  8
TEAM-DET3
 66
     1
 10
0.0
 20
0.0
 30
0.0
  0
VERTEX
  5
3D3
  8
TEAM-DET3
 10
-52.254103
 20
1016.41128
 30
0.0
  0
VERTEX
  5
3D4
  8
TEAM-DET3
 10
-52.254103
 20
1006.89346
 30
0.0
  0
SEQEND
  5
3D5
  8
TEAM-DET3
  0
POLYLINE
  5
22F
  8
TEAM-DET3
 66
     1
 10
0.0
 20
0.0
 30
0.0
  0
VERTEX
  5
3D6
  8
TEAM-DET3
 10
-52.254103
 20
1006.89346
 30
0.0
  0
VERTEX
  5
3D7
  8
TEAM-DET3
 10
-52.254103
 20
1005.482736
 30
0.0
  0
SEQEND
  5
3D8
  8
TEAM-DET3
  0
POLYLINE
  5
233
  8
TEAM-DET3
 66
     1
 10
0.0
 20
0.0
 30
0.0
  0
VERTEX
  5
3D9
  8
TEAM-DET3
 10
-52.254103
 20
1005.482736
 30
0.0
  0
VERTEX
  5
3DA
  8
TEAM-DET3
 10
-52.254103
 20
1004.360358
 30
0.0
  0
SEQEND
  5
3DB
  8
TEAM-DET3
  0
POLYLINE
  5
237
  8
TEAM-DET3
 66
     1
 10
0.0
 20
0.0
 30
0.0
  0
VERTEX
  5
3DC
  8
TEAM-DET3
 10
-52.254103
 20
1004.360358
 30
0.0
  0
VERTEX
  5
3DD
  8
TEAM-DET3
 10
-52.254103
 20
1003.655857
 30
0.0
  0
SEQEND
  5
3DE
  8
TEAM-DET3
  0
POLYLINE
  5
23B
  8
TEAM-DET3
 66
     1
 10
0.0
 20
0.0
 30
0.0
  0
VERTEX
  5
3DF
  8
TEAM-DET3
 10
-52.254103
 20
1001.650872
 30
0.0
  0
VERTEX
  5
3E0
  8
TEAM-DET3
 10
-52.254103
 20
1003.655857
 30
0.0
  0
SEQEND
  5
3E1
  8
TEAM-DET3
  0
POLYLINE
  5
23F
  8
TEAM-DET3
 66
     1
 10
0.0
 20
0.0
 30
0.0
  0
VERTEX
  5
3E2
  8
TEAM-DET3
 10
-52.254103
 20
1021.653523
 30
0.0
  0
VERTEX
  5
3E3
  8
TEAM-DET3
 10
-49.304502
 20
1021.653523
 30
0.0
  0
SEQEND
  5
3E4
  8
TEAM-DET3
  0
POLYLINE
  5
243
  8
TEAM-DET3
 66
     1
 10
0.0
 20
0.0
 30
0.0
  0
VERTEX
  5
3E5
  8
TEAM-DET3
 10
-49.304502
 20
1001.650872
 30
0.0
  0
VERTEX
  5
3E6
  8
TEAM-DET3
 10
-49.304502
 20
1021.653523
 30
0.0
  0
SEQEND
  5
3E7
  8
TEAM-DET3
  0
POLYLINE
  5
247
  8
TEAM-DET3
 66
     1
 10
0.0
 20
0.0
 30
0.0
  0
VERTEX
  5
3E8
  8
TEAM-DET3
 10
-52.254103
 20
161.646892
 30
0.0
  0
VERTEX
  5
3E9
  8
TEAM-DET3
 10
-49.304502
 20
161.646892
 30
0.0
  0
SEQEND
  5
3EA
  8
TEAM-DET3
  0
POLYLINE
  5
24B
  8
TEAM-DET3
 66
     1
 10
0.0
 20
0.0
 30
0.0
  0
VERTEX
  5
3EB
  8
TEAM-DET3
 10
-49.304502
 20
141.650787
 30
0.0
  0
VERTEX
  5
3EC
  8
TEAM-DET3
 10
-49.304502
 20
161.646892
 30
0.0
  0
SEQEND
  5
3ED
  8
TEAM-DET3
  0
POLYLINE
  5
24F
  8
TEAM-DET3
 66
     1
 10
0.0
 20
0.0
 30
0.0
  0
VERTEX
  5
3EE
  8
TEAM-DET3
 10
-49.304502
 20
141.650787
 30
0.0
  0
VERTEX
  5
3EF
  8
TEAM-DET3
 10
-52.254103
 20
141.650787
 30
0.0
  0
SEQEND
  5
3F0
  8
TEAM-DET3
  0
POLYLINE
  5
253
  8
TEAM-DET3
 66
     1
 10
0.0
 20
0.0
 30
0.0
  0
VERTEX
  5
3F1
  8
TEAM-DET3
 10
-52.254103
 20
161.646892
 30
0.0
  0
VERTEX
  5
3F2
  8
TEAM-DET3
 10
-52.254103
 20
159.648797
 30
0.0
  0
SEQEND
  5
3F3
  8
TEAM-DET3
  0
POLYLINE
  5
257
  8
TEAM-DET3
 66
     1
 10
0.0
 20
0.0
 30
0.0
  0
VERTEX
  5
3F4
  8
TEAM-DET3
 10
-52.254103
 20
159.648797
 30
0.0
  0
VERTEX
  5
3F5
  8
TEAM-DET3
 10
-52.254103
 20
158.944641
 30
0.0
  0
SEQEND
  5
3F6
  8
TEAM-DET3
  0
POLYLINE
  5
25B
  8
TEAM-DET3
 66
     1
 10
0.0
 20
0.0
 30
0.0
  0
VERTEX
  5
3F7
  8
TEAM-DET3
 10
-52.254103
 20
158.944641
 30
0.0
  0
VERTEX
  5
3F8
  8
TEAM-DET3
 10
-52.254103
 20
157.821574
 30
0.0
  0
SEQEND
  5
3F9
  8
TEAM-DET3
  0
POLYLINE
  5
25F
  8
TEAM-DET3
 66
     1
 10
0.0
 20
0.0
 30
0.0
  0
VERTEX
  5
3FA
  8
TEAM-DET3
 10
-52.254103
 20
157.821574
 30
0.0
  0
VERTEX
  5
3FB
  8
TEAM-DET3
 10
-52.254103
 20
156.404305
 30
0.0
  0
SEQEND
  5
3FC
  8
TEAM-DET3
  0
POLYLINE
  5
263
  8
TEAM-DET3
 66
     1
 10
0.0
 20
0.0
 30
0.0
  0
VERTEX
  5
3FD
  8
TEAM-DET3
 10
-52.254103
 20
156.404305
 30
0.0
  0
VERTEX
  5
3FE
  8
TEAM-DET3
 10
-52.254103
 20
146.893374
 30
0.0
  0
SEQEND
  5
3FF
  8
TEAM-DET3
  0
POLYLINE
  5
267
  8
TEAM-DET3
 66
     1
 10
0.0
 20
0.0
 30
0.0
  0
VERTEX
  5
400
  8
TEAM-DET3
 10
-52.254103
 20
146.893374
 30
0.0
  0
VERTEX
  5
401
  8
TEAM-DET3
 10
-52.254103
 20
145.476105
 30
0.0
  0
SEQEND
  5
402
  8
TEAM-DET3
  0
POLYLINE
  5
26B
  8
TEAM-DET3
 66
     1
 10
0.0
 20
0.0
 30
0.0
  0
VERTEX
  5
403
  8
TEAM-DET3
 10
-52.254103
 20
145.476105
 30
0.0
  0
VERTEX
  5
404
  8
TEAM-DET3
 10
-52.254103
 20
144.353727
 30
0.0
  0
SEQEND
  5
405
  8
TEAM-DET3
  0
POLYLINE
  5
26F
  8
TEAM-DET3
 66
     1
 10
0.0
 20
0.0
 30
0.0
  0
VERTEX
  5
406
  8
TEAM-DET3
 10
-52.254103
 20
144.353727
 30
0.0
  0
VERTEX
  5
407
  8
TEAM-DET3
 10
-52.254103
 20
143.647504
 30
0.0
  0
SEQEND
  5
408
  8
TEAM-DET3
  0
POLYLINE
  5
273
  8
TEAM-DET3
 66
     1
 10
0.0
 20
0.0
 30
0.0
  0
VERTEX
  5
409
  8
TEAM-DET3
 10
-52.254103
 20
141.650787
 30
0.0
  0
VERTEX
  5
40A
  8
TEAM-DET3
 10
-52.254103
 20
143.647504
 30
0.0
  0
SEQEND
  5
40B
  8
TEAM-DET3
  0
POLYLINE
  5
277
  8
TEAM-DET3
 66
     1
 10
0.0
 20
0.0
 30
0.0
  0
VERTEX
  5
40C
  8
TEAM-DET3
 10
-65.750888
 20
141.650787
 30
0.0
  0
VERTEX
  5
40D
  8
TEAM-DET3
 10
-68.708069
 20
141.650787
 30
0.0
  0
SEQEND
  5
40E
  8
TEAM-DET3
  0
POLYLINE
  5
27B
  8
TEAM-DET3
 66
     1
 10
0.0
 20
0.0
 30
0.0
  0
VERTEX
  5
40F
  8
TEAM-DET3
 10
-68.708069
 20
141.650787
 30
0.0
  0
VERTEX
  5
410
  8
TEAM-DET3
 10
-68.708069
 20
161.646892
 30
0.0
  0
SEQEND
  5
411
  8
TEAM-DET3
  0
POLYLINE
  5
27F
  8
TEAM-DET3
 66
     1
 10
0.0
 20
0.0
 30
0.0
  0
VERTEX
  5
412
  8
TEAM-DET3
 10
-68.708069
 20
161.646892
 30
0.0
  0
VERTEX
  5
413
  8
TEAM-DET3
 10
-65.750888
 20
161.646892
 30
0.0
  0
SEQEND
  5
414
  8
TEAM-DET3
  0
POLYLINE
  5
283
  8
TEAM-DET3
 66
     1
 10
0.0
 20
0.0
 30
0.0
  0
VERTEX
  5
415
  8
TEAM-DET3
 10
-65.750888
 20
161.646892
 30
0.0
  0
VERTEX
  5
416
  8
TEAM-DET3
 10
-65.750888
 20
159.648797
 30
0.0
  0
SEQEND
  5
417
  8
TEAM-DET3
  0
POLYLINE
  5
287
  8
TEAM-DET3
 66
     1
 10
0.0
 20
0.0
 30
0.0
  0
VERTEX
  5
418
  8
TEAM-DET3
 10
-65.750888
 20
159.648797
 30
0.0
  0
VERTEX
  5
419
  8
TEAM-DET3
 10
-65.750888
 20
158.944641
 30
0.0
  0
SEQEND
  5
41A
  8
TEAM-DET3
  0
POLYLINE
  5
28B
  8
TEAM-DET3
 66
     1
 10
0.0
 20
0.0
 30
0.0
  0
VERTEX
  5
41B
  8
TEAM-DET3
 10
-65.750888
 20
158.944641
 30
0.0
  0
VERTEX
  5
41C
  8
TEAM-DET3
 10
-65.750888
 20
157.821574
 30
0.0
  0
SEQEND
  5
41D
  8
TEAM-DET3
  0
POLYLINE
  5
28F
  8
TEAM-DET3
 66
     1
 10
0.0
 20
0.0
 30
0.0
  0
VERTEX
  5
41E
  8
TEAM-DET3
 10
-65.750888
 20
157.821574
 30
0.0
  0
VERTEX
  5
41F
  8
TEAM-DET3
 10
-65.750888
 20
156.404305
 30
0.0
  0
SEQEND
  5
420
  8
TEAM-DET3
  0
POLYLINE
  5
293
  8
TEAM-DET3
 66
     1
 10
0.0
 20
0.0
 30
0.0
  0
VERTEX
  5
421
  8
TEAM-DET3
 10
-65.750888
 20
156.404305
 30
0.0
  0
VERTEX
  5
422
  8
TEAM-DET3
 10
-65.750888
 20
146.893374
 30
0.0
  0
SEQEND
  5
423
  8
TEAM-DET3
  0
POLYLINE
  5
297
  8
TEAM-DET3
 66
     1
 10
0.0
 20
0.0
 30
0.0
  0
VERTEX
  5
424
  8
TEAM-DET3
 10
-65.750888
 20
146.893374
 30
0.0
  0
VERTEX
  5
425
  8
TEAM-DET3
 10
-65.750888
 20
145.476105
 30
0.0
  0
SEQEND
  5
426
  8
TEAM-DET3
  0
POLYLINE
  5
29B
  8
TEAM-DET3
 66
     1
 10
0.0
 20
0.0
 30
0.0
  0
VERTEX
  5
427
  8
TEAM-DET3
 10
-65.750888
 20
145.476105
 30
0.0
  0
VERTEX
  5
428
  8
TEAM-DET3
 10
-65.750888
 20
144.353727
 30
0.0
  0
SEQEND
  5
429
  8
TEAM-DET3
  0
POLYLINE
  5
29F
  8
TEAM-DET3
 66
     1
 10
0.0
 20
0.0
 30
0.0
  0
VERTEX
  5
42A
  8
TEAM-DET3
 10
-65.750888
 20
144.353727
 30
0.0
  0
VERTEX
  5
42B
  8
TEAM-DET3
 10
-65.750888
 20
143.647504
 30
0.0
  0
SEQEND
  5
42C
  8
TEAM-DET3
  0
POLYLINE
  5
2A3
  8
TEAM-DET3
 66
     1
 10
0.0
 20
0.0
 30
0.0
  0
VERTEX
  5
42D
  8
TEAM-DET3
 10
-65.750888
 20
141.650787
 30
0.0
  0
VERTEX
  5
42E
  8
TEAM-DET3
 10
-65.750888
 20
143.647504
 30
0.0
  0
SEQEND
  5
42F
  8
TEAM-DET3
  0
POLYLINE
  5
2A7
  8
TEAM-DET3
 66
     1
 10
0.0
 20
0.0
 30
0.0
  0
VERTEX
  5
430
  8
TEAM-DET3
 10
-73.003283
 20
183.419235
 30
0.0
  0
VERTEX
  5
431
  8
TEAM-DET3
 10
-73.003283
 20
167.876814
 30
0.0
  0
SEQEND
  5
432
  8
TEAM-DET3
  0
POLYLINE
  5
2AB
  8
TEAM-DET3
 66
     1
 10
0.0
 20
0.0
 30
0.0
  0
VERTEX
  5
433
  8
TEAM-DET3
 10
-73.003283
 20
1043.425866
 30
0.0
  0
VERTEX
  5
434
  8
TEAM-DET3
 10
-73.003283
 20
1027.876555
 30
0.0
  0
SEQEND
  5
435
  8
TEAM-DET3
  0
POLYLINE
  5
2AF
  8
TEAM-DET3
 66
     1
 10
0.0
 20
0.0
 30
0.0
  0
VERTEX
  5
436
  8
TEAM-DET3
 10
-40.006471
 20
994.151472
 30
0.0
  0
VERTEX
  5
437
  8
TEAM-DET3
 10
-65.504227
 20
994.151472
 30
0.0
  0
SEQEND
  5
438
  8
TEAM-DET3
  0
POLYLINE
  5
2B3
  8
TEAM-DET3
 66
     1
 10
0.0
 20
0.0
 30
0.0
  0
VERTEX
  5
439
  8
TEAM-DET3
 10
-65.504227
 20
862.38285
 30
0.0
  0
VERTEX
  5
43A
  8
TEAM-DET3
 10
-65.504227
 20
591.132533
 30
0.0
  0
SEQEND
  5
43B
  8
TEAM-DET3
  0
POLYLINE
  5
2B7
  8
TEAM-DET3
 66
     1
 10
0.0
 20
0.0
 30
0.0
  0
VERTEX
  5
43C
  8
TEAM-DET3
 10
-65.504227
 20
957.407198
 30
0.0
  0
VERTEX
  5
43D
  8
TEAM-DET3
 10
-65.504227
 20
862.38285
 30
0.0
  0
SEQEND
  5
43E
  8
TEAM-DET3
  0
POLYLINE
  5
2BB
  8
TEAM-DET3
 66
     1
 10
0.0
 20
0.0
 30
0.0
  0
VERTEX
  5
43F
  8
TEAM-DET3
 10
-65.504227
 20
994.151472
 30
0.0
  0
VERTEX
  5
440
  8
TEAM-DET3
 10
-65.504227
 20
957.407198
 30
0.0
  0
SEQEND
  5
441
  8
TEAM-DET3
  0
POLYLINE
  5
2BF
  8
TEAM-DET3
 66
     1
 10
0.0
 20
0.0
 30
0.0
  0
VERTEX
  5
442
  8
TEAM-DET3
 10
-65.504227
 20
591.132533
 30
0.0
  0
VERTEX
  5
443
  8
TEAM-DET3
 10
-40.006471
 20
591.132533
 30
0.0
  0
SEQEND
  5
444
  8
TEAM-DET3
  0
POLYLINE
  5
2C3
  8
TEAM-DET3
 66
     1
 10
0.0
 20
0.0
 30
0.0
  0
VERTEX
  5
445
  8
TEAM-DET3
 10
-74.803636
 20
1051.651815
 30
0.0
  0
VERTEX
  5
446
  8
TEAM-DET3
 10
-73.003283
 20
1051.651815
 30
0.0
  0
SEQEND
  5
447
  8
TEAM-DET3
  0
POLYLINE
  5
2C7
  8
TEAM-DET3
 66
     1
 10
0.0
 20
0.0
 30
0.0
  0
VERTEX
  5
448
  8
TEAM-DET3
 10
-75.0
 20
993.650225
 30
0.0
  0
VERTEX
  5
449
  8
TEAM-DET3
 10
-75.0
 20
191.645184
 30
0.0
  0
VERTEX
  5
44A
  8
TEAM-DET3
 10
-73.003283
 20
191.645184
 30
0.0
  0
SEQEND
  5
44B
  8
TEAM-DET3
  0
POLYLINE
  5
2CC
  8
TEAM-DET3
 66
     1
 10
0.0
 20
0.0
 30
0.0
  0
VERTEX
  5
44C
  8
TEAM-DET3
 10
-75.0
 20
993.650225
 30
0.0
  0
VERTEX
  5
44D
  8
TEAM-DET3
 10
-73.003283
 20
993.650225
 30
0.0
  0
SEQEND
  5
44E
  8
TEAM-DET3
  0
POLYLINE
  5
2D0
  8
TEAM-DET3
 66
     1
 10
0.0
 20
0.0
 30
0.0
  0
VERTEX
  5
44F
  8
TEAM-DET3
 10
-74.803636
 20
133.65014
 30
0.0
  0
VERTEX
  5
450
  8
TEAM-DET3
 10
-73.003283
 20
133.65014
 30
0.0
  0
SEQEND
  5
451
  8
TEAM-DET3
  0
POLYLINE
  5
2D4
  8
TEAM-DET3
 66
     1
 10
0.0
 20
0.0
 30
0.0
  0
VERTEX
  5
452
  8
TEAM-DET3
 10
-68.708069
 20
183.045109
 30
0.0
  0
VERTEX
  5
453
  8
TEAM-DET3
 10
-68.708069
 20
168.25094
 30
0.0
  0
SEQEND
  5
454
  8
TEAM-DET3
  0
POLYLINE
  5
2D8
  8
TEAM-DET3
 66
     1
 10
0.0
 20
0.0
 30
0.0
  0
VERTEX
  5
455
  8
TEAM-DET3
 10
-40.006471
 20
827.332134
 30
0.0
  0
VERTEX
  5
456
  8
TEAM-DET3
 10
-65.504227
 20
827.332134
 30
0.0
  0
SEQEND
  5
457
  8
TEAM-DET3
  0
POLYLINE
  5
2DC
  8
TEAM-DET3
 66
     1
 10
0.0
 20
0.0
 30
0.0
  0
VERTEX
  5
458
  8
TEAM-DET3
 10
-52.176246
 20
1021.653523
 30
0.0
  0
VERTEX
  5
459
  8
TEAM-DET3
 10
-52.254103
 20
1021.62493
 30
0.0
  0
SEQEND
  5
45A
  8
TEAM-DET3
  0
POLYLINE
  5
2E0
  8
TEAM-DET3
 66
     1
 10
0.0
 20
0.0
 30
0.0
  0
VERTEX
  5
45B
  8
TEAM-DET3
 10
9.996194
 20
738.714973
 30
0.0
  0
VERTEX
  5
45C
  8
TEAM-DET3
 10
9.996194
 20
728.958414
 30
0.0
  0
SEQEND
  5
45D
  8
TEAM-DET3
  0
POLYLINE
  5
2E4
  8
TEAM-DET3
 66
     1
 10
0.0
 20
0.0
 30
0.0
  0
VERTEX
  5
45E
  8
TEAM-DET3
 10
9.996194
 20
728.958414
 30
0.0
  0
VERTEX
  5
45F
  8
TEAM-DET3
 10
9.996194
 20
701.217281
 30
0.0
  0
SEQEND
  5
460
  8
TEAM-DET3
  0
POLYLINE
  5
2E8
  8
TEAM-DET3
 66
     1
 10
0.0
 20
0.0
 30
0.0
  0
VERTEX
  5
461
  8
TEAM-DET3
 10
6.496083
 20
742.22163
 30
0.0
  0
VERTEX
  5
462
  8
TEAM-DET3
 10
0.993055
 20
742.22163
 30
0.0
  0
SEQEND
  5
463
  8
TEAM-DET3
  0
POLYLINE
  5
2EC
  8
TEAM-DET3
 66
     1
 10
0.0
 20
0.0
 30
0.0
  0
VERTEX
  5
464
  8
TEAM-DET3
 10
6.496083
 20
697.71717
 30
0.0
  0
VERTEX
  5
465
  8
TEAM-DET3
 10
0.993055
 20
697.71717
 30
0.0
  0
SEQEND
  5
466
  8
TEAM-DET3
  0
POLYLINE
  5
2F0
  8
TEAM-AXE
 66
     1
 10
0.0
 20
0.0
 30
0.0
  0
VERTEX
  5
467
  8
TEAM-AXE
 10
-16.258082
 20
558.636967
 30
0.0
  0
VERTEX
  5
468
  8
TEAM-AXE
 10
-13.732214
 20
558.636967
 30
0.0
  0
SEQEND
  5
469
  8
TEAM-AXE
  0
POLYLINE
  5
2F4
  8
TEAM-AXE
 66
     1
 10
0.0
 20
0.0
 30
0.0
  0
VERTEX
  5
46A
  8
TEAM-AXE
 10
-22.254433
 20
558.636967
 30
0.0
  0
VERTEX
  5
46B
  8
TEAM-AXE
 10
-24.7803
 20
558.636967
 30
0.0
  0
SEQEND
  5
46C
  8
TEAM-AXE
  0
POLYLINE
  5
2F8
  8
TEAM-AXE
 66
     1
 10
0.0
 20
0.0
 30
0.0
  0
VERTEX
  5
46D
  8
TEAM-AXE
 10
-18.254799
 20
558.636967
 30
0.0
  0
VERTEX
  5
46E
  8
TEAM-AXE
 10
-20.257716
 20
558.636967
 30
0.0
  0
SEQEND
  5
46F
  8
TEAM-AXE
  0
POLYLINE
  5
2FC
  8
TEAM-AXE
 66
     1
 10
0.0
 20
0.0
 30
0.0
  0
VERTEX
  5
470
  8
TEAM-AXE
 10
-17.753208
 20
558.636967
 30
0.0
  0
VERTEX
  5
471
  8
TEAM-AXE
 10
-15.22734
 20
558.636967
 30
0.0
  0
SEQEND
  5
472
  8
TEAM-AXE
  0
POLYLINE
  5
300
  8
TEAM-AXE
 66
     1
 10
0.0
 20
0.0
 30
0.0
  0
VERTEX
  5
473
  8
TEAM-AXE
 10
-23.757827
 20
558.636967
 30
0.0
  0
VERTEX
  5
474
  8
TEAM-AXE
 10
-26.282316
 20
558.636967
 30
0.0
  0
SEQEND
  5
475
  8
TEAM-AXE
  0
POLYLINE
  5
304
  8
TEAM-AXE
 66
     1
 10
0.0
 20
0.0
 30
0.0
  0
VERTEX
  5
476
  8
TEAM-AXE
 10
-19.756815
 20
558.636967
 30
0.0
  0
VERTEX
  5
477
  8
TEAM-AXE
 10
-21.752842
 20
558.636967
 30
0.0
  0
SEQEND
  5
478
  8
TEAM-AXE
  0
POLYLINE
  5
308
  8
TEAM-AXE
 66
     1
 10
0.0
 20
0.0
 30
0.0
  0
VERTEX
  5
479
  8
TEAM-AXE
 10
1.995547
 20
719.970433
 30
0.0
  0
VERTEX
  5
47A
  8
TEAM-AXE
 10
-1.003662
 20
719.970433
 30
0.0
  0
SEQEND
  5
47B
  8
TEAM-AXE
  0
POLYLINE
  5
30C
  8
TEAM-AXE
 66
     1
 10
0.0
 20
0.0
 30
0.0
  0
VERTEX
  5
47C
  8
TEAM-AXE
 10
7.991209
 20
719.970433
 30
0.0
  0
VERTEX
  5
47D
  8
TEAM-AXE
 10
10.996619
 20
719.970433
 30
0.0
  0
SEQEND
  5
47E
  8
TEAM-AXE
  0
POLYLINE
  5
310
  8
TEAM-AXE
 66
     1
 10
0.0
 20
0.0
 30
0.0
  0
VERTEX
  5
47F
  8
TEAM-AXE
 10
3.991575
 20
719.970433
 30
0.0
  0
VERTEX
  5
480
  8
TEAM-AXE
 10
5.994493
 20
719.970433
 30
0.0
  0
SEQEND
  5
481
  8
TEAM-AXE
  0
POLYLINE
  5
314
  8
TEAM-AXE
 66
     1
 10
0.0
 20
0.0
 30
0.0
  0
VERTEX
  5
482
  8
TEAM-AXE
 10
6.172599
 20
719.970433
 30
0.0
  0
VERTEX
  5
483
  8
TEAM-AXE
 10
9.996194
 20
719.970433
 30
0.0
  0
SEQEND
  5
484
  8
TEAM-AXE
  0
POLYLINE
  5
318
  8
TEAM-AXE
 66
     1
 10
0.0
 20
0.0
 30
0.0
  0
VERTEX
  5
485
  8
TEAM-AXE
 10
0.168324
 20
719.970433
 30
0.0
  0
VERTEX
  5
486
  8
TEAM-AXE
 10
-3.655271
 20
719.970433
 30
0.0
  0
SEQEND
  5
487
  8
TEAM-AXE
  0
POLYLINE
  5
31C
  8
TEAM-AXE
 66
     1
 10
0.0
 20
0.0
 30
0.0
  0
VERTEX
  5
488
  8
TEAM-AXE
 10
4.169681
 20
719.970433
 30
0.0
  0
VERTEX
  5
489
  8
TEAM-AXE
 10
2.171586
 20
719.970433
 30
0.0
  0
SEQEND
  5
48A
  8
TEAM-AXE
  0
LINE
  5
320
  8
TEAM-HIDE
 10
-39.999969
 20
1091.317859
 30
0.0
 11
-75.0
 21
1091.317859
 31
0.0
  0
LINE
  5
321
  8
TEAM-HIDE
 10
-39.999969
 20
1091.317859
 30
0.0
 11
-39.999978
 21
1120.00034
 31
0.0
  0
TEXT
  5
322
  8
TEAM-TXT
 10
-330.010007
 20
781.120461
 30
0.0
 40
30.0
  1
team 871109
 41
0.8
 51
15.0
  7
TEAM
  0
ENDSEC
  0
EOF
