  0
SECTION
  2
HEADER
  9
$ACADVER
  1
AC1009
  9
$INSBASE
 10
0.0
 20
0.0
 30
0.0
  9
$EXTMIN
 10
-979.270698
 20
-499.654306
 30
-0.001526
  9
$EXTMAX
 10
972.384519
 20
400.096093
 30
0.0
  9
$LIMMIN
 10
-979.270698
 20
-499.654306
  9
$LIMMAX
 10
972.384519
 20
400.096093
  9
$ORTHOMODE
 70
     1
  9
$REGENMODE
 70
     1
  9
$FILLMODE
 70
     1
  9
$QTEXTMODE
 70
     0
  9
$MIRRTEXT
 70
     0
  9
$DRAGMODE
 70
     2
  9
$LTSCALE
 40
50.0
  9
$OSMODE
 70
     7
  9
$ATTMODE
 70
     1
  9
$TEXTSIZE
 40
200.0
  9
$TRACEWID
 40
1.0
  9
$TEXTSTYLE
  7
STANDARD
  9
$CLAYER
  8
TEAM-MAS
  9
$CELTYPE
  6
BYLAYER
  9
$CECOLOR
 62
   256
  9
$DIMSCALE
 40
0.0
  9
$DIMASZ
 40
20.0
  9
$DIMEXO
 40
10.0
  9
$DIMDLI
 40
1.0
  9
$DIMRND
 40
0.0
  9
$DIMDLE
 40
0.0
  9
$DIMEXE
 40
1.0
  9
$DIMTP
 40
0.0
  9
$DIMTM
 40
0.0
  9
$DIMTXT
 40
35.0
  9
$DIMCEN
 40
1.0
  9
$DIMTSZ
 40
0.0
  9
$DIMTOL
 70
     0
  9
$DIMLIM
 70
     0
  9
$DIMTIH
 70
     0
  9
$DIMTOH
 70
     0
  9
$DIMSE1
 70
     0
  9
$DIMSE2
 70
     0
  9
$DIMTAD
 70
     0
  9
$DIMZIN
 70
     0
  9
$DIMBLK
  1

  9
$DIMASO
 70
     1
  9
$DIMSHO
 70
     0
  9
$DIMPOST
  1

  9
$DIMAPOST
  1

  9
$DIMALT
 70
     0
  9
$DIMALTD
 70
     2
  9
$DIMALTF
 40
25.4
  9
$DIMLFAC
 40
1.0
  9
$DIMTOFL
 70
     0
  9
$DIMTVP
 40
0.0
  9
$DIMTIX
 70
     0
  9
$DIMSOXD
 70
     0
  9
$DIMSAH
 70
     0
  9
$DIMBLK1
  1

  9
$DIMBLK2
  1

  9
$DIMSTYLE
  2
TEAM
  9
$DIMCLRD
 70
     9
  9
$DIMCLRE
 70
     9
  9
$DIMCLRT
 70
    11
  9
$DIMTFAC
 40
1.0
  9
$DIMGAP
 40
7.0
  9
$LUNITS
 70
     2
  9
$LUPREC
 70
     1
  9
$SKETCHINC
 40
1.0
  9
$FILLETRAD
 40
5.0
  9
$AUNITS
 70
     0
  9
$AUPREC
 70
     0
  9
$MENU
  1
ROPLANS
  9
$ELEVATION
 40
0.0
  9
$PELEVATION
 40
0.0
  9
$THICKNESS
 40
0.0
  9
$LIMCHECK
 70
     0
  9
$BLIPMODE
 70
     1
  9
$CHAMFERA
 40
0.0
  9
$CHAMFERB
 40
0.0
  9
$SKPOLY
 70
     0
  9
$TDCREATE
 40
2450392.957851
  9
$TDUPDATE
 40
2455944.698999
  9
$TDINDWG
 40
3.037655
  9
$TDUSRTIMER
 40
3.037655
  9
$USRTIMER
 70
     1
  9
$ANGBASE
 50
0.0
  9
$ANGDIR
 70
     0
  9
$PDMODE
 70
     0
  9
$PDSIZE
 40
0.0
  9
$PLINEWID
 40
0.0
  9
$COORDS
 70
     2
  9
$SPLFRAME
 70
     0
  9
$SPLINETYPE
 70
     6
  9
$SPLINESEGS
 70
     8
  9
$ATTDIA
 70
     0
  9
$ATTREQ
 70
     0
  9
$HANDLING
 70
     1
  9
$HANDSEED
  5
104
  9
$SURFTAB1
 70
    24
  9
$SURFTAB2
 70
    24
  9
$SURFTYPE
 70
     6
  9
$SURFU
 70
     6
  9
$SURFV
 70
     6
  9
$UCSNAME
  2

  9
$UCSORG
 10
0.0
 20
0.0
 30
0.0
  9
$UCSXDIR
 10
1.0
 20
0.0
 30
0.0
  9
$UCSYDIR
 10
0.0
 20
1.0
 30
0.0
  9
$PUCSNAME
  2

  9
$PUCSORG
 10
0.0
 20
0.0
 30
0.0
  9
$PUCSXDIR
 10
1.0
 20
0.0
 30
0.0
  9
$PUCSYDIR
 10
0.0
 20
1.0
 30
0.0
  9
$USERI1
 70
     0
  9
$USERI2
 70
     0
  9
$USERI3
 70
     0
  9
$USERI4
 70
     0
  9
$USERI5
 70
     0
  9
$USERR1
 40
0.0
  9
$USERR2
 40
0.0
  9
$USERR3
 40
0.0
  9
$USERR4
 40
0.0
  9
$USERR5
 40
0.0
  9
$WORLDVIEW
 70
     1
  9
$SHADEDGE
 70
     0
  9
$SHADEDIF
 70
    70
  9
$TILEMODE
 70
     1
  9
$MAXACTVP
 70
    16
  9
$PLIMCHECK
 70
     0
  9
$PEXTMIN
 10
-0.805942
 20
0.005011
 30
0.0
  9
$PEXTMAX
 10
20.250094
 20
11.356329
 30
0.0
  9
$PLIMMIN
 10
0.0
 20
0.0
  9
$PLIMMAX
 10
12.0
 20
9.0
  9
$UNITMODE
 70
     0
  9
$VISRETAIN
 70
     0
  9
$PLINEGEN
 70
     0
  9
$PSLTSCALE
 70
     0
  0
ENDSEC
  0
SECTION
  2
TABLES
  0
TABLE
  2
VPORT
 70
     2
  0
VPORT
  2
*ACTIVE
 70
     0
 10
0.0
 20
0.0
 11
1.0
 21
1.0
 12
-3.443089
 22
-49.779107
 13
0.0
 23
0.0
 14
1.0
 24
1.0
 15
20.0
 25
20.0
 16
0.0
 26
0.0
 36
1.0
 17
0.0
 27
0.0
 37
0.0
 40
1028.531259
 41
1.903766
 42
50.0
 43
0.0
 44
0.0
 50
0.0
 51
0.0
 71
     0
 72
   100
 73
     1
 74
     1
 75
     0
 76
     0
 77
     0
 78
     0
  0
ENDTAB
  0
TABLE
  2
LTYPE
 70
     2
  0
LTYPE
  2
CONTINUOUS
 70
     0
  3
Solid Line
 72
    65
 73
     0
 40
0.0
  0
LTYPE
  2
31
 70
     0
  3

 72
    65
 73
     4
 40
2.1
 49
1.5
 49
-0.3
 49
0.0
 49
-0.3
  0
ENDTAB
  0
TABLE
  2
LAYER
 70
     8
  0
LAYER
  2
0
 70
     0
 62
     7
  6
CONTINUOUS
  0
LAYER
  2
DEFPOINTS
 70
     0
 62
     7
  6
CONTINUOUS
  0
LAYER
  2
TEAM-BODY
 70
     0
 62
     2
  6
CONTINUOUS
  0
LAYER
  2
TEAM-AXE
 70
     0
 62
    10
  6
31
  0
LAYER
  2
TEAM-MAS
 70
     0
 62
     9
  6
CONTINUOUS
  0
LAYER
  2
TEAM-TXT
 70
     0
 62
    11
  6
CONTINUOUS
  0
LAYER
  2
TEAM-DET1
 70
     0
 62
     4
  6
CONTINUOUS
  0
LAYER
  2
TEAM-INSP
 70
     0
 62
     5
  6
CONTINUOUS
  0
ENDTAB
  0
TABLE
  2
STYLE
 70
     2
  0
STYLE
  2
STANDARD
 70
     0
 40
0.0
 41
1.0
 50
0.0
 71
     0
 42
200.0
  3
txt
  4

  0
STYLE
  2
TEAM
 70
     0
 40
0.0
 41
0.8
 50
15.0
 71
     0
 42
7.0
  3
ROMANS.shx
  4

  0
ENDTAB
  0
TABLE
  2
VIEW
 70
     0
  0
ENDTAB
  0
TABLE
  2
UCS
 70
     0
  0
ENDTAB
  0
TABLE
  2
APPID
 70
     1
  0
APPID
  2
ACAD
 70
     0
  0
ENDTAB
  0
TABLE
  2
DIMSTYLE
 70
     1
  0
DIMSTYLE
  2
TEAM
 70
     0
  3

  4

  5

  6

  7

 40
0.0
 41
20.0
 42
10.0
 43
1.0
 44
1.0
 45
0.0
 46
0.0
 47
0.0
 48
0.0
140
35.0
141
1.0
142
0.0
143
25.4
144
1.0
145
0.0
146
1.0
147
7.0
 71
     0
 72
     0
 73
     0
 74
     0
 75
     0
 76
     0
 77
     0
 78
     0
170
     0
171
     2
172
     0
173
     0
174
     0
175
     0
176
     9
177
     9
178
    11
  0
ENDTAB
  0
ENDSEC
  0
SECTION
  2
BLOCKS
  0
BLOCK
  8
0
  2
$MODEL_SPACE
 70
     0
 10
0.0
 20
0.0
 30
0.0
  3
$MODEL_SPACE
  1

  0
ENDBLK
  5
DD
  8
0
  0
BLOCK
 67
     1
  8
0
  2
$PAPER_SPACE
 70
     0
 10
0.0
 20
0.0
 30
0.0
  3
$PAPER_SPACE
  1

  0
ENDBLK
  5
DB
 67
     1
  8
0
  0
BLOCK
  8
0
  2
*D0
 70
     1
 10
0.0
 20
0.0
 30
0.0
  3
*D0
  1

  0
LINE
  5
55
  8
0
  6
BYBLOCK
 62
     9
 10
-504.92
 20
275600.0
 30
0.0
 11
-962.711146
 21
275600.0
 31
0.0
  0
LINE
  5
56
  8
0
  6
BYBLOCK
 62
     9
 10
40.0
 20
276000.0
 30
0.0
 11
-962.711146
 21
276000.0
 31
0.0
  0
LINE
  5
57
  8
0
  6
BYBLOCK
 62
     9
 10
-961.711146
 20
275620.0
 30
0.0
 11
-961.711146
 21
275752.166667
 31
0.0
  0
LINE
  5
58
  8
0
  6
BYBLOCK
 62
     9
 10
-961.711146
 20
275980.0
 30
0.0
 11
-961.711146
 21
275847.833333
 31
0.0
  0
SOLID
  5
59
  8
0
  6
BYBLOCK
 62
     9
 10
-965.044479
 20
275620.0
 30
0.0
 11
-958.377813
 21
275620.0
 31
0.0
 12
-961.711146
 22
275600.0
 32
0.0
 13
-961.711146
 23
275600.0
 33
0.0
  0
SOLID
  5
5A
  8
0
  6
BYBLOCK
 62
     9
 10
-965.044479
 20
275980.0
 30
0.0
 11
-958.377813
 21
275980.0
 31
0.0
 12
-961.711146
 22
276000.0
 32
0.0
 13
-961.711146
 23
276000.0
 33
0.0
  0
TEXT
  5
5B
  8
0
  6
BYBLOCK
 62
    11
 10
-944.211146
 20
275759.166667
 30
0.0
 40
35.0
  1
400
 50
90.0
  0
POINT
  5
5C
  8
DEFPOINTS
  6
BYBLOCK
 62
     0
 10
-494.92
 20
275600.0
 30
0.0
  0
POINT
  5
5D
  8
DEFPOINTS
  6
BYBLOCK
 62
     0
 10
50.0
 20
276000.0
 30
0.0
  0
POINT
  5
5E
  8
DEFPOINTS
  6
BYBLOCK
 62
     0
 10
-961.711146
 20
276000.0
 30
0.0
  0
ENDBLK
  5
60
  8
0
  0
BLOCK
  8
0
  2
*D1
 70
     1
 10
0.0
 20
0.0
 30
0.0
  3
*D1
  1

  0
LINE
  5
3F
  8
0
  6
BYBLOCK
 62
     9
 10
899.998805
 20
275990.0
 30
0.0
 11
899.998805
 21
275516.873147
 31
0.0
  0
LINE
  5
40
  8
0
  6
BYBLOCK
 62
     9
 10
-899.998805
 20
275990.0
 30
0.0
 11
-899.998805
 21
275516.873147
 31
0.0
  0
LINE
  5
41
  8
0
  6
BYBLOCK
 62
     9
 10
879.998805
 20
275517.873147
 30
0.0
 11
59.5
 21
275517.873147
 31
0.0
  0
LINE
  5
42
  8
0
  6
BYBLOCK
 62
     9
 10
-879.998805
 20
275517.873147
 30
0.0
 11
-59.5
 21
275517.873147
 31
0.0
  0
SOLID
  5
43
  8
0
  6
BYBLOCK
 62
     9
 10
879.998805
 20
275521.20648
 30
0.0
 11
879.998805
 21
275514.539813
 31
0.0
 12
899.998805
 22
275517.873147
 32
0.0
 13
899.998805
 23
275517.873147
 33
0.0
  0
SOLID
  5
44
  8
0
  6
BYBLOCK
 62
     9
 10
-879.998805
 20
275521.20648
 30
0.0
 11
-879.998805
 21
275514.539813
 31
0.0
 12
-899.998805
 22
275517.873147
 32
0.0
 13
-899.998805
 23
275517.873147
 33
0.0
  0
TEXT
  5
45
  8
0
  6
BYBLOCK
 62
    11
 10
-52.5
 20
275500.373147
 30
0.0
 40
35.0
  1
1800
  0
POINT
  5
46
  8
DEFPOINTS
  6
BYBLOCK
 62
     0
 10
899.998805
 20
276000.0
 30
0.0
  0
POINT
  5
47
  8
DEFPOINTS
  6
BYBLOCK
 62
     0
 10
-899.998805
 20
276000.0
 30
0.0
  0
POINT
  5
48
  8
DEFPOINTS
  6
BYBLOCK
 62
     0
 10
-899.998805
 20
275517.873147
 30
0.0
  0
ENDBLK
  5
4A
  8
0
  0
BLOCK
  8
0
  2
*D2
 70
     1
 10
0.0
 20
0.0
 30
0.0
  3
*D2
  1

  0
LINE
  5
31
  8
0
  6
BYBLOCK
 62
     9
 10
0.0
 20
275940.0
 30
0.0
 11
0.0
 21
275562.79739
 31
0.0
  0
LINE
  5
32
  8
0
  6
BYBLOCK
 62
     9
 10
899.998805
 20
275990.0
 30
0.0
 11
899.998805
 21
275562.79739
 31
0.0
  0
LINE
  5
33
  8
0
  6
BYBLOCK
 62
     9
 10
20.0
 20
275563.79739
 30
0.0
 11
402.166069
 21
275563.79739
 31
0.0
  0
LINE
  5
34
  8
0
  6
BYBLOCK
 62
     9
 10
879.998805
 20
275563.79739
 30
0.0
 11
497.832736
 21
275563.79739
 31
0.0
  0
SOLID
  5
35
  8
0
  6
BYBLOCK
 62
     9
 10
20.0
 20
275567.130723
 30
0.0
 11
20.0
 21
275560.464057
 31
0.0
 12
0.0
 22
275563.79739
 32
0.0
 13
0.0
 23
275563.79739
 33
0.0
  0
SOLID
  5
36
  8
0
  6
BYBLOCK
 62
     9
 10
879.998805
 20
275567.130723
 30
0.0
 11
879.998805
 21
275560.464057
 31
0.0
 12
899.998805
 22
275563.79739
 32
0.0
 13
899.998805
 23
275563.79739
 33
0.0
  0
TEXT
  5
37
  8
0
  6
BYBLOCK
 62
    11
 10
409.166069
 20
275546.29739
 30
0.0
 40
35.0
  1
900
  0
POINT
  5
38
  8
DEFPOINTS
  6
BYBLOCK
 62
     0
 10
0.0
 20
275950.0
 30
0.0
  0
POINT
  5
39
  8
DEFPOINTS
  6
BYBLOCK
 62
     0
 10
899.998805
 20
276000.0
 30
0.0
  0
POINT
  5
3A
  8
DEFPOINTS
  6
BYBLOCK
 62
     0
 10
899.998805
 20
275563.79739
 30
0.0
  0
ENDBLK
  5
3C
  8
0
  0
BLOCK
  8
0
  2
*D3
 70
     1
 10
0.0
 20
0.0
 30
0.0
  3
*D3
  1

  0
LINE
  5
22
  8
0
  6
BYBLOCK
 62
     9
 10
504.92
 20
275600.0
 30
0.0
 11
955.824958
 21
275600.0
 31
0.0
  0
LINE
  5
23
  8
0
  6
BYBLOCK
 62
     9
 10
504.92
 20
276400.0
 30
0.0
 11
955.824958
 21
276400.0
 31
0.0
  0
LINE
  5
24
  8
0
  6
BYBLOCK
 62
     9
 10
954.824958
 20
275620.0
 30
0.0
 11
954.824958
 21
275952.166667
 31
0.0
  0
LINE
  5
25
  8
0
  6
BYBLOCK
 62
     9
 10
954.824958
 20
276380.0
 30
0.0
 11
954.824958
 21
276047.833333
 31
0.0
  0
SOLID
  5
26
  8
0
  6
BYBLOCK
 62
     9
 10
951.491625
 20
275620.0
 30
0.0
 11
958.158292
 21
275620.0
 31
0.0
 12
954.824958
 22
275600.0
 32
0.0
 13
954.824958
 23
275600.0
 33
0.0
  0
SOLID
  5
27
  8
0
  6
BYBLOCK
 62
     9
 10
951.491625
 20
276380.0
 30
0.0
 11
958.158292
 21
276380.0
 31
0.0
 12
954.824958
 22
276400.0
 32
0.0
 13
954.824958
 23
276400.0
 33
0.0
  0
TEXT
  5
28
  8
0
  6
BYBLOCK
 62
    11
 10
972.324958
 20
275959.166667
 30
0.0
 40
35.0
  1
800
 50
90.0
  0
POINT
  5
29
  8
DEFPOINTS
  6
BYBLOCK
 62
     0
 10
494.92
 20
275600.0
 30
0.0
  0
POINT
  5
2B
  8
DEFPOINTS
  6
BYBLOCK
 62
     0
 10
494.92
 20
276400.0
 30
0.0
  0
POINT
  5
2C
  8
DEFPOINTS
  6
BYBLOCK
 62
     0
 10
954.824958
 20
276400.0
 30
0.0
  0
ENDBLK
  5
2E
  8
0
  0
ENDSEC
  0
SECTION
  2
ENTITIES
  0
DIMENSION
  5
20
  8
TEAM-MAS
  2
*D3
 10
954.824958
 20
400.0
 30
0.0
 11
954.824958
 21
0.0
 31
0.0
 12
0.0
 22
-276000.0
 32
0.0
 13
494.92
 23
-400.0
 33
0.0
 14
494.92
 24
400.0
 34
0.0
 50
90.0
  0
DIMENSION
  5
2F
  8
TEAM-MAS
  2
*D2
 10
899.998805
 20
-436.20261
 30
0.0
 11
449.999403
 21
-436.20261
 31
0.0
 12
0.0
 22
-276000.0
 32
0.0
 13
0.0
 23
-50.0
 33
0.0
 14
899.998805
 24
0.0
 34
0.0
  0
DIMENSION
  5
3D
  8
TEAM-MAS
  2
*D1
 10
-899.998805
 20
-482.126853
 30
0.0
 11
0.0
 21
-482.126853
 31
0.0
 12
0.0
 22
-276000.0
 32
0.0
 13
899.998805
 23
0.0
 33
0.0
 14
-899.998805
 24
0.0
 34
0.0
1001
ACAD
1000
DSTYLE
1002
{
1070
    78
1070
     0
1070
    40
1040
1.0
1002
}
  0
LINE
  5
4B
  8
TEAM-AXE
 10
-813.68298
 20
0.0
 30
0.0
 11
915.650102
 21
0.0
 31
0.0
  0
POLYLINE
  5
4E
  8
TEAM-DET1
 66
     1
 10
0.0
 20
0.0
 30
0.0
 70
     1
  0
VERTEX
  5
E3
  8
TEAM-DET1
 10
-494.92
 20
-304.0
 30
0.0
  0
VERTEX
  5
E4
  8
TEAM-DET1
 10
494.92
 20
-304.0
 30
0.0
 42
1.021514
  0
VERTEX
  5
E5
  8
TEAM-DET1
 10
494.92
 20
304.0
 30
0.0
  0
VERTEX
  5
E6
  8
TEAM-DET1
 10
-494.92
 20
304.0
 30
0.0
 42
1.021514
  0
SEQEND
  5
E7
  8
TEAM-DET1
  0
POLYLINE
  5
50
  8
TEAM-BODY
 66
     1
 10
0.0
 20
0.0
 30
0.0
 70
     1
  0
VERTEX
  5
E8
  8
TEAM-BODY
 10
-494.92
 20
400.0
 30
0.0
 42
1.012697
  0
VERTEX
  5
E9
  8
TEAM-BODY
 10
-494.92
 20
-400.0
 30
0.0
  0
VERTEX
  5
EA
  8
TEAM-BODY
 10
494.92
 20
-400.0
 30
0.0
 42
1.012697
  0
VERTEX
  5
EB
  8
TEAM-BODY
 10
494.92
 20
400.0
 30
0.0
  0
SEQEND
  5
EC
  8
TEAM-BODY
  0
POLYLINE
  5
52
  8
TEAM-BODY
 66
     1
 10
0.0
 20
0.0
 30
0.0
 70
     1
  0
VERTEX
  5
ED
  8
TEAM-BODY
 10
359.92
 20
-200.0
 30
0.0
 42
1.047588
  0
VERTEX
  5
EE
  8
TEAM-BODY
 10
359.92
 20
200.0
 30
0.0
  0
VERTEX
  5
EF
  8
TEAM-BODY
 10
-359.92
 20
200.0
 30
0.0
 42
1.047588
  0
VERTEX
  5
F0
  8
TEAM-BODY
 10
-359.92
 20
-200.0
 30
0.0
  0
SEQEND
  5
F1
  8
TEAM-BODY
  0
DIMENSION
  5
53
  8
TEAM-MAS
  2
*D0
 10
-961.711146
 20
0.0
 30
0.0
 11
-961.711146
 21
-200.0
 31
0.0
 12
0.0
 22
-276000.0
 32
0.0
 13
-494.92
 23
-400.0
 33
0.0
 14
50.0
 24
0.0
 34
0.0
 50
90.0
  0
CIRCLE
  5
61
  8
TEAM-INSP
 10
0.0
 20
0.0
 30
0.0
 40
7.1
  0
LINE
  5
63
  8
TEAM-AXE
 10
0.0
 20
50.0
 30
0.0
 11
0.0
 21
-50.0
 31
0.0
  0
LINE
  5
64
  8
TEAM-AXE
 10
-50.0
 20
0.0
 30
0.0
 11
50.0
 21
0.0
 31
0.0
  0
CIRCLE
  5
65
  8
TEAM-DET1
 10
0.0
 20
0.0
 30
0.0
 40
35.0
  0
CIRCLE
  5
66
  8
TEAM-BODY
 10
0.0
 20
0.0
 30
0.0
 40
20.0
  0
POLYLINE
  5
67
  8
TEAM-DET1
 66
     1
 10
0.0
 20
0.0
 30
0.0
 70
     1
  0
VERTEX
  5
F2
  8
TEAM-DET1
 10
-0.031112
 20
-298.434726
 30
0.0
 42
0.040279
  0
VERTEX
  5
F3
  8
TEAM-DET1
 10
10.372615
 20
-297.595253
 30
0.0
 42
0.053224
  0
VERTEX
  5
F4
  8
TEAM-DET1
 10
18.000111
 20
-295.505793
 30
0.0
 42
0.096378
  0
VERTEX
  5
F5
  8
TEAM-DET1
 10
24.090847
 20
-291.637054
 30
0.0
 42
0.206029
  0
VERTEX
  5
F6
  8
TEAM-DET1
 10
25.468888
 20
-288.434726
 30
0.0
 42
0.206029
  0
VERTEX
  5
F7
  8
TEAM-DET1
 10
24.090847
 20
-285.232398
 30
0.0
 42
0.096378
  0
VERTEX
  5
F8
  8
TEAM-DET1
 10
18.000111
 20
-281.363658
 30
0.0
 42
0.053224
  0
VERTEX
  5
F9
  8
TEAM-DET1
 10
10.372615
 20
-279.274198
 30
0.0
 42
0.040279
  0
VERTEX
  5
FA
  8
TEAM-DET1
 10
-0.031112
 20
-278.434726
 30
0.0
 42
0.040279
  0
VERTEX
  5
FB
  8
TEAM-DET1
 10
-10.43484
 20
-279.274198
 30
0.0
 42
0.053224
  0
VERTEX
  5
FC
  8
TEAM-DET1
 10
-18.062335
 20
-281.363658
 30
0.0
 42
0.096378
  0
VERTEX
  5
FD
  8
TEAM-DET1
 10
-24.153071
 20
-285.232398
 30
0.0
 42
0.206029
  0
VERTEX
  5
FE
  8
TEAM-DET1
 10
-25.531112
 20
-288.434726
 30
0.0
 42
0.206029
  0
VERTEX
  5
FF
  8
TEAM-DET1
 10
-24.153071
 20
-291.637054
 30
0.0
 42
0.096378
  0
VERTEX
  5
100
  8
TEAM-DET1
 10
-18.062335
 20
-295.505793
 30
0.0
 42
0.053224
  0
VERTEX
  5
101
  8
TEAM-DET1
 10
-10.43484
 20
-297.595253
 30
0.0
 42
0.040279
  0
SEQEND
  5
102
  8
TEAM-DET1
  0
TEXT
  5
68
  8
TEAM-TXT
 10
-408.820132
 20
340.637889
 30
0.0
 40
30.0
  1
team 111360
 41
0.7
 51
15.0
  7
TEAM
  0
ENDSEC
  0
EOF
