  0
SECTION
  2
HEADER
  9
$ACADVER
  1
AC1009
  9
$INSBASE
 10
0.0
 20
0.0
 30
0.0
  9
$EXTMIN
 10
-601.307714
 20
-10.033643
 30
0.0
  9
$EXTMAX
 10
508.554352
 20
697.857824
 30
0.000005
  9
$LIMMIN
 10
-601.307714
 20
-10.033643
  9
$LIMMAX
 10
508.554352
 20
697.857824
  9
$ORTHOMODE
 70
     1
  9
$REGENMODE
 70
     1
  9
$FILLMODE
 70
     1
  9
$QTEXTMODE
 70
     0
  9
$MIRRTEXT
 70
     0
  9
$DRAGMODE
 70
     2
  9
$LTSCALE
 40
50.0
  9
$OSMODE
 70
     7
  9
$ATTMODE
 70
     1
  9
$TEXTSIZE
 40
200.0
  9
$TRACEWID
 40
1.0
  9
$TEXTSTYLE
  7
STANDARD
  9
$CLAYER
  8
TEAM-MAS
  9
$CELTYPE
  6
BYLAYER
  9
$CECOLOR
 62
   256
  9
$DIMSCALE
 40
1.0
  9
$DIMASZ
 40
20.0
  9
$DIMEXO
 40
10.0
  9
$DIMDLI
 40
1.0
  9
$DIMRND
 40
0.0
  9
$DIMDLE
 40
0.0
  9
$DIMEXE
 40
1.0
  9
$DIMTP
 40
0.0
  9
$DIMTM
 40
0.0
  9
$DIMTXT
 40
35.0
  9
$DIMCEN
 40
1.0
  9
$DIMTSZ
 40
0.0
  9
$DIMTOL
 70
     0
  9
$DIMLIM
 70
     0
  9
$DIMTIH
 70
     0
  9
$DIMTOH
 70
     0
  9
$DIMSE1
 70
     0
  9
$DIMSE2
 70
     0
  9
$DIMTAD
 70
     0
  9
$DIMZIN
 70
     0
  9
$DIMBLK
  1

  9
$DIMASO
 70
     1
  9
$DIMSHO
 70
     0
  9
$DIMPOST
  1

  9
$DIMAPOST
  1

  9
$DIMALT
 70
     0
  9
$DIMALTD
 70
     2
  9
$DIMALTF
 40
25.4
  9
$DIMLFAC
 40
1.0
  9
$DIMTOFL
 70
     0
  9
$DIMTVP
 40
0.0
  9
$DIMTIX
 70
     0
  9
$DIMSOXD
 70
     0
  9
$DIMSAH
 70
     0
  9
$DIMBLK1
  1

  9
$DIMBLK2
  1

  9
$DIMSTYLE
  2
TEAM
  9
$DIMCLRD
 70
     9
  9
$DIMCLRE
 70
     9
  9
$DIMCLRT
 70
    11
  9
$DIMTFAC
 40
1.0
  9
$DIMGAP
 40
15.0
  9
$LUNITS
 70
     2
  9
$LUPREC
 70
     1
  9
$SKETCHINC
 40
1.0
  9
$FILLETRAD
 40
300.0
  9
$AUNITS
 70
     0
  9
$AUPREC
 70
     0
  9
$MENU
  1
ROPLANS
  9
$ELEVATION
 40
0.0
  9
$PELEVATION
 40
0.0
  9
$THICKNESS
 40
0.0
  9
$LIMCHECK
 70
     0
  9
$BLIPMODE
 70
     1
  9
$CHAMFERA
 40
0.0
  9
$CHAMFERB
 40
0.0
  9
$SKPOLY
 70
     0
  9
$TDCREATE
 40
2450392.957851
  9
$TDUPDATE
 40
2455843.591272
  9
$TDINDWG
 40
2.850297
  9
$TDUSRTIMER
 40
2.850297
  9
$USRTIMER
 70
     1
  9
$ANGBASE
 50
0.0
  9
$ANGDIR
 70
     0
  9
$PDMODE
 70
     0
  9
$PDSIZE
 40
0.0
  9
$PLINEWID
 40
0.0
  9
$COORDS
 70
     2
  9
$SPLFRAME
 70
     0
  9
$SPLINETYPE
 70
     6
  9
$SPLINESEGS
 70
     8
  9
$ATTDIA
 70
     0
  9
$ATTREQ
 70
     0
  9
$HANDLING
 70
     1
  9
$HANDSEED
  5
C6
  9
$SURFTAB1
 70
    64
  9
$SURFTAB2
 70
    64
  9
$SURFTYPE
 70
     6
  9
$SURFU
 70
     6
  9
$SURFV
 70
     6
  9
$UCSNAME
  2

  9
$UCSORG
 10
0.0
 20
0.0
 30
0.0
  9
$UCSXDIR
 10
1.0
 20
0.0
 30
0.0
  9
$UCSYDIR
 10
0.0
 20
1.0
 30
0.0
  9
$PUCSNAME
  2

  9
$PUCSORG
 10
0.0
 20
0.0
 30
0.0
  9
$PUCSXDIR
 10
1.0
 20
0.0
 30
0.0
  9
$PUCSYDIR
 10
0.0
 20
1.0
 30
0.0
  9
$USERI1
 70
     0
  9
$USERI2
 70
     0
  9
$USERI3
 70
     0
  9
$USERI4
 70
     0
  9
$USERI5
 70
     0
  9
$USERR1
 40
0.0
  9
$USERR2
 40
0.0
  9
$USERR3
 40
0.0
  9
$USERR4
 40
0.0
  9
$USERR5
 40
0.0
  9
$WORLDVIEW
 70
     1
  9
$SHADEDGE
 70
     0
  9
$SHADEDIF
 70
    70
  9
$TILEMODE
 70
     1
  9
$MAXACTVP
 70
    16
  9
$PLIMCHECK
 70
     0
  9
$PEXTMIN
 10
-0.805942
 20
0.005011
 30
0.0
  9
$PEXTMAX
 10
20.250094
 20
11.356329
 30
0.0
  9
$PLIMMIN
 10
0.0
 20
0.0
  9
$PLIMMAX
 10
12.0
 20
9.0
  9
$UNITMODE
 70
     0
  9
$VISRETAIN
 70
     0
  9
$PLINEGEN
 70
     0
  9
$PSLTSCALE
 70
     0
  0
ENDSEC
  0
SECTION
  2
TABLES
  0
TABLE
  2
VPORT
 70
     2
  0
VPORT
  2
*ACTIVE
 70
     0
 10
0.0
 20
0.0
 11
1.0
 21
1.0
 12
-46.376681
 22
343.91209
 13
0.0
 23
0.0
 14
1.0
 24
1.0
 15
50.0
 25
50.0
 16
0.0
 26
0.0
 36
1.0
 17
0.0
 27
0.0
 37
0.0
 40
712.329658
 41
1.903766
 42
50.0
 43
0.0
 44
0.0
 50
0.0
 51
0.0
 71
     0
 72
   100
 73
     1
 74
     1
 75
     0
 76
     0
 77
     0
 78
     0
  0
ENDTAB
  0
TABLE
  2
LTYPE
 70
     2
  0
LTYPE
  2
CONTINUOUS
 70
     0
  3
Solid Line
 72
    65
 73
     0
 40
0.0
  0
LTYPE
  2
31
 70
     0
  3

 72
    65
 73
     4
 40
2.1
 49
1.5
 49
-0.3
 49
0.0
 49
-0.3
  0
ENDTAB
  0
TABLE
  2
LAYER
 70
     9
  0
LAYER
  2
0
 70
     0
 62
     7
  6
CONTINUOUS
  0
LAYER
  2
DEFPOINTS
 70
     0
 62
     7
  6
CONTINUOUS
  0
LAYER
  2
TEAM-BODY
 70
     0
 62
     2
  6
CONTINUOUS
  0
LAYER
  2
TEAM-AXE
 70
     0
 62
    10
  6
31
  0
LAYER
  2
TEAM-MAS
 70
     0
 62
     9
  6
CONTINUOUS
  0
LAYER
  2
TEAM-TXT
 70
     0
 62
    11
  6
CONTINUOUS
  0
LAYER
  2
TEAM-DET1
 70
     0
 62
     4
  6
CONTINUOUS
  0
LAYER
  2
TEAM-KAN
 70
     0
 62
     6
  6
CONTINUOUS
  0
LAYER
  2
TEAM-INSP
 70
     0
 62
     5
  6
CONTINUOUS
  0
ENDTAB
  0
TABLE
  2
STYLE
 70
     2
  0
STYLE
  2
STANDARD
 70
     0
 40
0.0
 41
1.0
 50
0.0
 71
     0
 42
200.0
  3
txt
  4

  0
STYLE
  2
TEAM
 70
     0
 40
0.0
 41
0.8
 50
15.0
 71
     0
 42
7.0
  3
ROMANS.shx
  4

  0
ENDTAB
  0
TABLE
  2
VIEW
 70
     0
  0
ENDTAB
  0
TABLE
  2
UCS
 70
     0
  0
ENDTAB
  0
TABLE
  2
APPID
 70
     1
  0
APPID
  2
ACAD
 70
     0
  0
ENDTAB
  0
TABLE
  2
DIMSTYLE
 70
     1
  0
DIMSTYLE
  2
TEAM
 70
     0
  3

  4

  5

  6

  7

 40
1.0
 41
20.0
 42
10.0
 43
1.0
 44
1.0
 45
0.0
 46
0.0
 47
0.0
 48
0.0
140
35.0
141
1.0
142
0.0
143
25.4
144
1.0
145
0.0
146
1.0
147
15.0
 71
     0
 72
     0
 73
     0
 74
     0
 75
     0
 76
     0
 77
     0
 78
     0
170
     0
171
     2
172
     0
173
     0
174
     0
175
     0
176
     9
177
     9
178
    11
  0
ENDTAB
  0
ENDSEC
  0
SECTION
  2
BLOCKS
  0
BLOCK
  8
0
  2
$MODEL_SPACE
 70
     0
 10
0.0
 20
0.0
 30
0.0
  3
$MODEL_SPACE
  1

  0
ENDBLK
  5
BF
  8
0
  0
BLOCK
 67
     1
  8
0
  2
$PAPER_SPACE
 70
     0
 10
0.0
 20
0.0
 30
0.0
  3
$PAPER_SPACE
  1

  0
ENDBLK
  5
BD
 67
     1
  8
0
  0
BLOCK
  8
0
  2
*D0
 70
     1
 10
0.0
 20
0.0
 30
0.0
  3
*D0
  1

  0
LINE
  5
31
  8
0
  6
BYBLOCK
 62
     9
 10
8404.0
 20
8600.0
 30
0.0
 11
8492.017187
 21
8600.0
 31
0.0
  0
LINE
  5
32
  8
0
  6
BYBLOCK
 62
     9
 10
8010.0
 20
8000.0
 30
0.0
 11
8492.017187
 21
8000.0
 31
0.0
  0
LINE
  5
33
  8
0
  6
BYBLOCK
 62
     9
 10
8491.017187
 20
8580.0
 30
0.0
 11
8491.017187
 21
8355.833333
 31
0.0
  0
LINE
  5
34
  8
0
  6
BYBLOCK
 62
     9
 10
8491.017187
 20
8020.0
 30
0.0
 11
8491.017187
 21
8244.166667
 31
0.0
  0
SOLID
  5
35
  8
0
  6
BYBLOCK
 62
     9
 10
8487.683853
 20
8580.0
 30
0.0
 11
8494.35052
 21
8580.0
 31
0.0
 12
8491.017187
 22
8600.0
 32
0.0
 13
8491.017187
 23
8600.0
 33
0.0
  0
SOLID
  5
36
  8
0
  6
BYBLOCK
 62
     9
 10
8487.683853
 20
8020.0
 30
0.0
 11
8494.35052
 21
8020.0
 31
0.0
 12
8491.017187
 22
8000.0
 32
0.0
 13
8491.017187
 23
8000.0
 33
0.0
  0
TEXT
  5
37
  8
0
  6
BYBLOCK
 62
    11
 10
8508.517187
 20
8259.166667
 30
0.0
 40
35.0
  1
600
 50
90.0
  0
POINT
  5
38
  8
DEFPOINTS
  6
BYBLOCK
 62
     0
 10
8394.0
 20
8600.0
 30
0.0
  0
POINT
  5
39
  8
DEFPOINTS
  6
BYBLOCK
 62
     0
 10
8000.0
 20
8000.0
 30
0.0
  0
POINT
  5
3A
  8
DEFPOINTS
  6
BYBLOCK
 62
     0
 10
8491.017187
 20
8000.0
 30
0.0
  0
ENDBLK
  5
3C
  8
0
  0
BLOCK
  8
0
  2
*D1
 70
     1
 10
0.0
 20
0.0
 30
0.0
  3
*D1
  1

  0
LINE
  5
3F
  8
0
  6
BYBLOCK
 62
     9
 10
8400.0
 20
8604.0
 30
0.0
 11
8400.0
 21
8637.225557
 31
0.0
  0
LINE
  5
40
  8
0
  6
BYBLOCK
 62
     9
 10
7800.0
 20
8604.0
 30
0.0
 11
7800.0
 21
8637.225557
 31
0.0
  0
LINE
  5
41
  8
0
  6
BYBLOCK
 62
     9
 10
8380.0
 20
8636.225557
 30
0.0
 11
8155.833333
 21
8636.225557
 31
0.0
  0
LINE
  5
42
  8
0
  6
BYBLOCK
 62
     9
 10
7820.0
 20
8636.225557
 30
0.0
 11
8044.166667
 21
8636.225557
 31
0.0
  0
SOLID
  5
43
  8
0
  6
BYBLOCK
 62
     9
 10
8380.0
 20
8639.558891
 30
0.0
 11
8380.0
 21
8632.892224
 31
0.0
 12
8400.0
 22
8636.225557
 32
0.0
 13
8400.0
 23
8636.225557
 33
0.0
  0
SOLID
  5
44
  8
0
  6
BYBLOCK
 62
     9
 10
7820.0
 20
8639.558891
 30
0.0
 11
7820.0
 21
8632.892224
 31
0.0
 12
7800.0
 22
8636.225557
 32
0.0
 13
7800.0
 23
8636.225557
 33
0.0
  0
TEXT
  5
45
  8
0
  6
BYBLOCK
 62
    11
 10
8059.166667
 20
8618.725557
 30
0.0
 40
35.0
  1
600
  0
POINT
  5
46
  8
DEFPOINTS
  6
BYBLOCK
 62
     0
 10
8400.0
 20
8594.0
 30
0.0
  0
POINT
  5
47
  8
DEFPOINTS
  6
BYBLOCK
 62
     0
 10
7800.0
 20
8594.0
 30
0.0
  0
POINT
  5
48
  8
DEFPOINTS
  6
BYBLOCK
 62
     0
 10
7800.0
 20
8636.225557
 30
0.0
  0
ENDBLK
  5
4A
  8
0
  0
BLOCK
  8
0
  2
*D2
 70
     1
 10
0.0
 20
0.0
 30
0.0
  3
*D2
  1

  0
LINE
  5
4D
  8
0
  6
BYBLOCK
 62
     9
 10
8089.83
 20
8072.685052
 30
0.0
 11
8089.83
 21
8044.556898
 31
0.0
  0
LINE
  5
4E
  8
0
  6
BYBLOCK
 62
     9
 10
8037.83
 20
8072.685052
 30
0.0
 11
8037.83
 21
8044.556898
 31
0.0
  0
LINE
  5
4F
  8
0
  6
BYBLOCK
 62
     9
 10
8109.83
 20
8045.556898
 30
0.0
 11
8129.83
 21
8045.556898
 31
0.0
  0
LINE
  5
50
  8
0
  6
BYBLOCK
 62
     9
 10
8017.83
 20
8045.556898
 30
0.0
 11
7997.83
 21
8045.556898
 31
0.0
  0
TEXT
  5
51
  8
0
  6
BYBLOCK
 62
    11
 10
8170.184572
 20
8028.528811
 30
0.0
 40
35.0
  1
52
  0
LINE
  5
52
  8
0
  6
BYBLOCK
 62
     9
 10
8089.83
 20
8045.556898
 30
0.0
 11
8037.83
 21
8045.556898
 31
0.0
  0
SOLID
  5
53
  8
0
  6
BYBLOCK
 62
     9
 10
8109.83
 20
8048.890231
 30
0.0
 11
8109.83
 21
8042.223565
 31
0.0
 12
8089.83
 22
8045.556898
 32
0.0
 13
8089.83
 23
8045.556898
 33
0.0
  0
SOLID
  5
54
  8
0
  6
BYBLOCK
 62
     9
 10
8017.83
 20
8048.890231
 30
0.0
 11
8017.83
 21
8042.223565
 31
0.0
 12
8037.83
 22
8045.556898
 32
0.0
 13
8037.83
 23
8045.556898
 33
0.0
  0
POINT
  5
55
  8
DEFPOINTS
  6
BYBLOCK
 62
     0
 10
8089.83
 20
8082.685052
 30
0.0
  0
POINT
  5
56
  8
DEFPOINTS
  6
BYBLOCK
 62
     0
 10
8037.83
 20
8082.685052
 30
0.0
  0
POINT
  5
57
  8
DEFPOINTS
  6
BYBLOCK
 62
     0
 10
8037.83
 20
8045.556898
 30
0.0
  0
ENDBLK
  5
59
  8
0
  0
BLOCK
  8
0
  2
*D3
 70
     1
 10
0.0
 20
0.0
 30
0.0
  3
*D3
  1

  0
LINE
  5
75
  8
0
  6
BYBLOCK
 62
     9
 10
8404.505
 20
8600.0
 30
0.0
 11
8446.349707
 21
8600.0
 31
0.0
  0
LINE
  5
76
  8
0
  6
BYBLOCK
 62
     9
 10
8074.997892
 20
8110.0
 30
0.0
 11
8446.349707
 21
8110.0
 31
0.0
  0
LINE
  5
77
  8
0
  6
BYBLOCK
 62
     9
 10
8445.349707
 20
8580.0
 30
0.0
 11
8445.349707
 21
8413.75
 31
0.0
  0
LINE
  5
78
  8
0
  6
BYBLOCK
 62
     9
 10
8445.349707
 20
8130.0
 30
0.0
 11
8445.349707
 21
8296.25
 31
0.0
  0
SOLID
  5
79
  8
0
  6
BYBLOCK
 62
     9
 10
8442.016374
 20
8580.0
 30
0.0
 11
8448.683041
 21
8580.0
 31
0.0
 12
8445.349707
 22
8600.0
 32
0.0
 13
8445.349707
 23
8600.0
 33
0.0
  0
SOLID
  5
7A
  8
0
  6
BYBLOCK
 62
     9
 10
8442.016374
 20
8130.0
 30
0.0
 11
8448.683041
 21
8130.0
 31
0.0
 12
8445.349707
 22
8110.0
 32
0.0
 13
8445.349707
 23
8110.0
 33
0.0
  0
TEXT
  5
7B
  8
0
  6
BYBLOCK
 62
    11
 10
8462.849707
 20
8311.25
 30
0.0
 40
35.0
  1
490
 50
90.0
  0
POINT
  5
7C
  8
DEFPOINTS
  6
BYBLOCK
 62
     0
 10
8394.505
 20
8600.0
 30
0.0
  0
POINT
  5
7D
  8
DEFPOINTS
  6
BYBLOCK
 62
     0
 10
8064.997892
 20
8110.0
 30
0.0
  0
POINT
  5
7E
  8
DEFPOINTS
  6
BYBLOCK
 62
     0
 10
8445.349707
 20
8110.0
 30
0.0
  0
ENDBLK
  5
80
  8
0
  0
BLOCK
  8
0
  2
*D4
 70
     1
 10
0.0
 20
0.0
 30
0.0
  3
*D4
  1

  0
LINE
  5
22
  8
0
  6
BYBLOCK
 62
     9
 10
8400.0
 20
8604.0
 30
0.0
 11
8400.0
 21
8681.339381
 31
0.0
  0
LINE
  5
23
  8
0
  6
BYBLOCK
 62
     9
 10
7400.0
 20
8604.0
 30
0.0
 11
7400.0
 21
8681.339381
 31
0.0
  0
LINE
  5
24
  8
0
  6
BYBLOCK
 62
     9
 10
8380.0
 20
8680.339381
 30
0.0
 11
7964.583333
 21
8680.339381
 31
0.0
  0
LINE
  5
25
  8
0
  6
BYBLOCK
 62
     9
 10
7420.0
 20
8680.339381
 30
0.0
 11
7835.416667
 21
8680.339381
 31
0.0
  0
SOLID
  5
26
  8
0
  6
BYBLOCK
 62
     9
 10
8380.0
 20
8683.672715
 30
0.0
 11
8380.0
 21
8677.006048
 31
0.0
 12
8400.0
 22
8680.339381
 32
0.0
 13
8400.0
 23
8680.339381
 33
0.0
  0
SOLID
  5
27
  8
0
  6
BYBLOCK
 62
     9
 10
7420.0
 20
8683.672715
 30
0.0
 11
7420.0
 21
8677.006048
 31
0.0
 12
7400.0
 22
8680.339381
 32
0.0
 13
7400.0
 23
8680.339381
 33
0.0
  0
TEXT
  5
28
  8
0
  6
BYBLOCK
 62
    11
 10
7850.416667
 20
8662.839381
 30
0.0
 40
35.0
  1
1000
  0
POINT
  5
29
  8
DEFPOINTS
  6
BYBLOCK
 62
     0
 10
8400.0
 20
8594.0
 30
0.0
  0
POINT
  5
2B
  8
DEFPOINTS
  6
BYBLOCK
 62
     0
 10
7400.0
 20
8594.0
 30
0.0
  0
POINT
  5
2C
  8
DEFPOINTS
  6
BYBLOCK
 62
     0
 10
7400.0
 20
8680.339381
 30
0.0
  0
ENDBLK
  5
2E
  8
0
  0
ENDSEC
  0
SECTION
  2
ENTITIES
  0
DIMENSION
  5
20
  8
TEAM-MAS
  2
*D4
 10
-600.0
 20
680.339381
 30
0.0
 11
-100.0
 21
680.339381
 31
0.0
 12
-8000.0
 22
-8000.0
 32
0.0
 13
400.0
 23
594.0
 33
0.0
 14
-600.0
 24
594.0
 34
0.0
1001
ACAD
1000
DSTYLE
1002
{
1070
    40
1040
1.0
1002
}
  0
DIMENSION
  5
2F
  8
TEAM-MAS
  2
*D0
 10
491.017187
 20
0.0
 30
0.0
 11
491.017187
 21
300.0
 31
0.0
 12
-8000.0
 22
-8000.0
 32
0.0
 13
394.0
 23
600.0
 33
0.0
 14
0.0
 24
0.0
 34
0.0
 50
90.0
1001
ACAD
1000
DSTYLE
1002
{
1070
    40
1040
1.0
1002
}
  0
DIMENSION
  5
3D
  8
TEAM-MAS
  2
*D1
 10
-200.0
 20
636.225557
 30
0.0
 11
100.0
 21
636.225557
 31
0.0
 12
-8000.0
 22
-8000.0
 32
0.0
 13
400.0
 23
594.0
 33
0.0
 14
-200.0
 24
594.0
 34
0.0
1001
ACAD
1000
DSTYLE
1002
{
1070
    40
1040
1.0
1002
}
  0
DIMENSION
  5
4B
  8
TEAM-MAS
  2
*D2
 10
37.83
 20
45.556898
 30
0.0
 11
199.351238
 21
46.028811
 31
0.0
 12
-8000.0
 22
-8000.0
 32
0.0
 70
   128
 13
89.83
 23
82.685052
 33
0.0
 14
37.83
 24
82.685052
 34
0.0
1001
ACAD
1000
DSTYLE
1002
{
1070
    78
1070
     0
1070
    40
1040
1.0
1002
}
  0
LINE
  5
5A
  8
TEAM-DET1
 10
394.0
 20
568.0
 30
0.0
 11
-594.0
 21
568.0
 31
0.0
  0
LINE
  5
5C
  8
TEAM-BODY
 10
-594.0
 20
600.0
 30
0.0
 11
394.0
 21
600.0
 31
0.0
  0
LINE
  5
5E
  8
TEAM-BODY
 10
-8.834216
 20
110.0
 30
0.0
 11
138.83
 21
110.0
 31
0.0
  0
LINE
  5
5F
  8
TEAM-KAN
 10
37.83
 20
82.685052
 30
0.0
 11
89.83
 21
82.685052
 31
0.0
  0
LINE
  5
61
  8
TEAM-BODY
 10
-600.0
 20
594.0
 30
0.0
 11
-600.0
 21
574.0
 31
0.0
  0
ARC
  5
62
  8
TEAM-BODY
 10
-594.0
 20
574.0
 30
0.0
 40
6.0
 50
180.0
 51
270.0
  0
ARC
  5
63
  8
TEAM-BODY
 10
-594.0
 20
594.0
 30
0.0
 40
6.0
 50
90.0
 51
180.0
  0
ARC
  5
64
  8
TEAM-BODY
 10
-194.0
 20
594.0
 30
0.0
 40
6.0
 50
90.0
 51
180.0
  0
ARC
  5
65
  8
TEAM-BODY
 10
-194.0
 20
574.0
 30
0.0
 40
6.0
 50
180.0
 51
270.0
  0
LINE
  5
66
  8
TEAM-BODY
 10
-200.0
 20
594.0
 30
0.0
 11
-200.0
 21
574.0
 31
0.0
  0
ARC
  5
67
  8
TEAM-BODY
 10
-35.313801
 20
1962.521181
 30
0.0
 40
1851.513648
 50
258.65915
 51
270.74716
  0
ARC
  5
68
  8
TEAM-BODY
 10
-388.951956
 20
239.9912
 30
0.0
 40
93.47685
 50
191.811067
 51
263.267807
  0
CIRCLE
  5
69
  8
TEAM-INSP
 10
0.0
 20
0.0
 30
0.0
 40
10.0
  0
ARC
  5
6B
  8
TEAM-BODY
 10
123.705404
 20
285.610938
 30
0.0
 40
220.505724
 50
202.203203
 51
232.290084
  0
LINE
  5
6C
  8
TEAM-DET1
 10
-11.17
 20
111.164958
 30
0.0
 11
37.83
 21
86.726504
 31
0.0
  0
LINE
  5
6D
  8
TEAM-KAN
 10
37.83
 20
82.685052
 30
0.0
 11
37.83
 21
86.726504
 31
0.0
  0
ARC
  5
6E
  8
TEAM-BODY
 10
4250.901563
 20
935.808964
 30
0.0
 40
4785.058533
 50
184.408454
 51
188.592921
  0
TEXT
  5
6F
  8
TEAM-TXT
 10
-470.258896
 20
515.75601
 30
0.0
 40
30.0
  1
team 121077
 41
0.8
 51
15.0
  7
TEAM
  0
ARC
  5
72
  8
TEAM-BODY
 10
5169.762885
 20
955.145824
 30
0.0
 40
5303.91113
 50
184.185886
 51
188.160394
  0
DIMENSION
  5
73
  8
TEAM-MAS
  2
*D3
 10
445.349707
 20
110.0
 30
0.0
 11
445.349707
 21
355.0
 31
0.0
 12
-8000.0
 22
-8000.0
 32
0.0
 13
394.505
 23
600.0
 33
0.0
 14
64.997892
 24
110.0
 34
0.0
 50
90.0
1001
ACAD
1000
DSTYLE
1002
{
1070
    40
1040
1.0
1002
}
  0
ARC
  5
81
  8
TEAM-BODY
 10
394.0
 20
594.0
 30
0.0
 40
6.0
 50
0.0
 51
90.0
  0
ARC
  5
82
  8
TEAM-BODY
 10
394.0
 20
574.0
 30
0.0
 40
6.0
 50
270.0
 51
0.0
  0
LINE
  5
83
  8
TEAM-BODY
 10
400.0
 20
594.0
 30
0.0
 11
400.0
 21
574.0
 31
0.0
  0
LINE
  5
84
  8
TEAM-AXE
 10
63.83
 20
67.004764
 30
0.0
 11
63.83
 21
108.36534
 31
0.0
  0
LINE
  5
87
  8
TEAM-KAN
 10
89.83
 20
82.685052
 30
0.0
 11
89.83
 21
86.726504
 31
0.0
  0
LINE
  5
88
  8
TEAM-DET1
 10
89.83
 20
86.726504
 30
0.0
 11
138.83
 21
110.0
 31
0.0
  0
ARC
  5
89
  8
TEAM-BODY
 10
137.389485
 20
219.601147
 30
0.0
 40
109.610614
 50
270.753009
 51
340.472896
  0
ARC
  5
8A
  8
TEAM-BODY
 10
-5649.423509
 20
1596.900175
 30
0.0
 40
6057.446046
 50
346.501423
 51
350.22049
  0
ENDSEC
  0
EOF
