  0
SECTION
  2
HEADER
  9
$ACADVER
  1
AC1009
  9
$INSBASE
 10
0.0
 20
0.0
 30
0.0
  9
$EXTMIN
 10
-1025.315528
 20
-10.020112
 30
0.0
  9
$EXTMAX
 10
1113.575427
 20
683.979384
 30
0.0
  9
$LIMMIN
 10
-1025.315528
 20
-10.020112
  9
$LIMMAX
 10
1113.575427
 20
683.979384
  9
$ORTHOMODE
 70
     1
  9
$REGENMODE
 70
     1
  9
$FILLMODE
 70
     1
  9
$QTEXTMODE
 70
     0
  9
$MIRRTEXT
 70
     0
  9
$DRAGMODE
 70
     2
  9
$LTSCALE
 40
25.0
  9
$OSMODE
 70
     0
  9
$ATTMODE
 70
     1
  9
$TEXTSIZE
 40
200.0
  9
$TRACEWID
 40
1.0
  9
$TEXTSTYLE
  7
STANDARD
  9
$CLAYER
  8
TEAM-MAS
  9
$CELTYPE
  6
BYLAYER
  9
$CECOLOR
 62
   256
  9
$DIMSCALE
 40
0.0
  9
$DIMASZ
 40
20.0
  9
$DIMEXO
 40
10.0
  9
$DIMDLI
 40
1.0
  9
$DIMRND
 40
0.0
  9
$DIMDLE
 40
0.0
  9
$DIMEXE
 40
1.0
  9
$DIMTP
 40
0.0
  9
$DIMTM
 40
0.0
  9
$DIMTXT
 40
35.0
  9
$DIMCEN
 40
1.0
  9
$DIMTSZ
 40
0.0
  9
$DIMTOL
 70
     0
  9
$DIMLIM
 70
     0
  9
$DIMTIH
 70
     0
  9
$DIMTOH
 70
     0
  9
$DIMSE1
 70
     0
  9
$DIMSE2
 70
     0
  9
$DIMTAD
 70
     0
  9
$DIMZIN
 70
     0
  9
$DIMBLK
  1

  9
$DIMASO
 70
     1
  9
$DIMSHO
 70
     0
  9
$DIMPOST
  1

  9
$DIMAPOST
  1

  9
$DIMALT
 70
     0
  9
$DIMALTD
 70
     2
  9
$DIMALTF
 40
25.4
  9
$DIMLFAC
 40
1.0
  9
$DIMTOFL
 70
     0
  9
$DIMTVP
 40
0.0
  9
$DIMTIX
 70
     0
  9
$DIMSOXD
 70
     0
  9
$DIMSAH
 70
     0
  9
$DIMBLK1
  1

  9
$DIMBLK2
  1

  9
$DIMSTYLE
  2
TEAM
  9
$DIMCLRD
 70
     9
  9
$DIMCLRE
 70
     9
  9
$DIMCLRT
 70
    11
  9
$DIMTFAC
 40
1.0
  9
$DIMGAP
 40
15.0
  9
$LUNITS
 70
     2
  9
$LUPREC
 70
     1
  9
$SKETCHINC
 40
1.0
  9
$FILLETRAD
 40
50.0
  9
$AUNITS
 70
     0
  9
$AUPREC
 70
     0
  9
$MENU
  1
ROPLANS
  9
$ELEVATION
 40
0.0
  9
$PELEVATION
 40
0.0
  9
$THICKNESS
 40
0.0
  9
$LIMCHECK
 70
     0
  9
$BLIPMODE
 70
     1
  9
$CHAMFERA
 40
0.0
  9
$CHAMFERB
 40
0.0
  9
$SKPOLY
 70
     0
  9
$TDCREATE
 40
2450392.957851
  9
$TDUPDATE
 40
2455493.945579
  9
$TDINDWG
 40
1.992456
  9
$TDUSRTIMER
 40
1.992456
  9
$USRTIMER
 70
     1
  9
$ANGBASE
 50
0.0
  9
$ANGDIR
 70
     0
  9
$PDMODE
 70
     0
  9
$PDSIZE
 40
0.0
  9
$PLINEWID
 40
0.0
  9
$COORDS
 70
     2
  9
$SPLFRAME
 70
     0
  9
$SPLINETYPE
 70
     6
  9
$SPLINESEGS
 70
     8
  9
$ATTDIA
 70
     0
  9
$ATTREQ
 70
     0
  9
$HANDLING
 70
     1
  9
$HANDSEED
  5
588
  9
$SURFTAB1
 70
    24
  9
$SURFTAB2
 70
    24
  9
$SURFTYPE
 70
     6
  9
$SURFU
 70
     6
  9
$SURFV
 70
     6
  9
$UCSNAME
  2

  9
$UCSORG
 10
0.0
 20
0.0
 30
0.0
  9
$UCSXDIR
 10
1.0
 20
0.0
 30
0.0
  9
$UCSYDIR
 10
0.0
 20
1.0
 30
0.0
  9
$PUCSNAME
  2

  9
$PUCSORG
 10
0.0
 20
0.0
 30
0.0
  9
$PUCSXDIR
 10
1.0
 20
0.0
 30
0.0
  9
$PUCSYDIR
 10
0.0
 20
1.0
 30
0.0
  9
$USERI1
 70
     0
  9
$USERI2
 70
     0
  9
$USERI3
 70
     0
  9
$USERI4
 70
     0
  9
$USERI5
 70
     0
  9
$USERR1
 40
0.0
  9
$USERR2
 40
0.0
  9
$USERR3
 40
0.0
  9
$USERR4
 40
0.0
  9
$USERR5
 40
0.0
  9
$WORLDVIEW
 70
     1
  9
$SHADEDGE
 70
     0
  9
$SHADEDIF
 70
    70
  9
$TILEMODE
 70
     1
  9
$MAXACTVP
 70
    16
  9
$PLIMCHECK
 70
     0
  9
$PEXTMIN
 10
-0.805942
 20
0.005011
 30
0.0
  9
$PEXTMAX
 10
20.250094
 20
11.356329
 30
0.0
  9
$PLIMMIN
 10
0.0
 20
0.0
  9
$PLIMMAX
 10
12.0
 20
9.0
  9
$UNITMODE
 70
     0
  9
$VISRETAIN
 70
     0
  9
$PLINEGEN
 70
     0
  9
$PSLTSCALE
 70
     0
  0
ENDSEC
  0
SECTION
  2
TABLES
  0
TABLE
  2
VPORT
 70
     2
  0
VPORT
  2
*ACTIVE
 70
     0
 10
0.0
 20
0.0
 11
1.0
 21
1.0
 12
44.12995
 22
336.979636
 13
0.0
 23
0.0
 14
1.0
 24
1.0
 15
50.0
 25
50.0
 16
0.0
 26
0.0
 36
1.0
 17
0.0
 27
0.0
 37
0.0
 40
1150.153108
 41
1.865779
 42
50.0
 43
0.0
 44
0.0
 50
0.0
 51
0.0
 71
     0
 72
   100
 73
     1
 74
     1
 75
     0
 76
     0
 77
     0
 78
     0
  0
ENDTAB
  0
TABLE
  2
LTYPE
 70
     2
  0
LTYPE
  2
CONTINUOUS
 70
     0
  3
Solid Line
 72
    65
 73
     0
 40
0.0
  0
LTYPE
  2
31
 70
     0
  3

 72
    65
 73
     4
 40
2.1
 49
1.5
 49
-0.3
 49
0.0
 49
-0.3
  0
ENDTAB
  0
TABLE
  2
LAYER
 70
     9
  0
LAYER
  2
0
 70
     0
 62
     7
  6
CONTINUOUS
  0
LAYER
  2
DEFPOINTS
 70
     0
 62
     7
  6
CONTINUOUS
  0
LAYER
  2
TEAM-BODY
 70
     0
 62
     2
  6
CONTINUOUS
  0
LAYER
  2
TEAM-AXE
 70
     0
 62
    10
  6
31
  0
LAYER
  2
TEAM-MAS
 70
     0
 62
     9
  6
CONTINUOUS
  0
LAYER
  2
TEAM-TXT
 70
     0
 62
    11
  6
CONTINUOUS
  0
LAYER
  2
TEAM-DET1
 70
     0
 62
     4
  6
CONTINUOUS
  0
LAYER
  2
TEAM-DET2
 70
     0
 62
     5
  6
CONTINUOUS
  0
LAYER
  2
TEAM-KAN
 70
     0
 62
     6
  6
CONTINUOUS
  0
ENDTAB
  0
TABLE
  2
STYLE
 70
     2
  0
STYLE
  2
STANDARD
 70
     0
 40
0.0
 41
1.0
 50
0.0
 71
     0
 42
200.0
  3
txt
  4

  0
STYLE
  2
TEAM
 70
     0
 40
0.0
 41
0.8
 50
15.0
 71
     0
 42
7.0
  3
ROMANS.shx
  4

  0
ENDTAB
  0
TABLE
  2
VIEW
 70
     0
  0
ENDTAB
  0
TABLE
  2
UCS
 70
     0
  0
ENDTAB
  0
TABLE
  2
APPID
 70
     1
  0
APPID
  2
ACAD
 70
     0
  0
ENDTAB
  0
TABLE
  2
DIMSTYLE
 70
     1
  0
DIMSTYLE
  2
TEAM
 70
     0
  3

  4

  5

  6

  7

 40
0.0
 41
20.0
 42
10.0
 43
1.0
 44
1.0
 45
0.0
 46
0.0
 47
0.0
 48
0.0
140
35.0
141
1.0
142
0.0
143
25.4
144
1.0
145
0.0
146
1.0
147
15.0
 71
     0
 72
     0
 73
     0
 74
     0
 75
     0
 76
     0
 77
     0
 78
     0
170
     0
171
     2
172
     0
173
     0
174
     0
175
     0
176
     9
177
     9
178
    11
  0
ENDTAB
  0
ENDSEC
  0
SECTION
  2
BLOCKS
  0
BLOCK
  8
0
  2
$MODEL_SPACE
 70
     0
 10
0.0
 20
0.0
 30
0.0
  3
$MODEL_SPACE
  1

  0
ENDBLK
  5
4DE
  8
0
  0
BLOCK
 67
     1
  8
0
  2
$PAPER_SPACE
 70
     0
 10
0.0
 20
0.0
 30
0.0
  3
$PAPER_SPACE
  1

  0
ENDBLK
  5
4DC
 67
     1
  8
0
  0
BLOCK
  8
0
  2
*D0
 70
     1
 10
0.0
 20
0.0
 30
0.0
  3
*D0
  1

  0
LINE
  5
37
  8
0
  6
BYBLOCK
 62
     9
 10
13025.123919
 20
144595.000452
 30
0.0
 11
13025.123919
 21
144667.456603
 31
0.0
  0
LINE
  5
38
  8
0
  6
BYBLOCK
 62
     9
 10
10974.756236
 20
144595.000452
 30
0.0
 11
10974.756236
 21
144667.456603
 31
0.0
  0
LINE
  5
39
  8
0
  6
BYBLOCK
 62
     9
 10
13005.123919
 20
144666.456603
 30
0.0
 11
12059.148247
 21
144666.456603
 31
0.0
  0
LINE
  5
3A
  8
0
  6
BYBLOCK
 62
     9
 10
10994.756236
 20
144666.456603
 30
0.0
 11
11940.731908
 21
144666.456603
 31
0.0
  0
SOLID
  5
3B
  8
0
  6
BYBLOCK
 62
     9
 10
13005.123919
 20
144669.789937
 30
0.0
 11
13005.123919
 21
144663.12327
 31
0.0
 12
13025.123919
 22
144666.456603
 32
0.0
 13
13025.123919
 23
144666.456603
 33
0.0
  0
SOLID
  5
3C
  8
0
  6
BYBLOCK
 62
     9
 10
10994.756236
 20
144669.789937
 30
0.0
 11
10994.756236
 21
144663.12327
 31
0.0
 12
10974.756236
 22
144666.456603
 32
0.0
 13
10974.756236
 23
144666.456603
 33
0.0
  0
TEXT
  5
3D
  8
0
  6
BYBLOCK
 62
    11
 10
11951.370688
 20
144648.956603
 30
0.0
 40
35.0
  1
2050
  0
POINT
  5
3E
  8
DEFPOINTS
  6
BYBLOCK
 62
     0
 10
13025.123919
 20
144585.000452
 30
0.0
  0
POINT
  5
3F
  8
DEFPOINTS
  6
BYBLOCK
 62
     0
 10
10974.756236
 20
144585.000452
 30
0.0
  0
POINT
  5
40
  8
DEFPOINTS
  6
BYBLOCK
 62
     0
 10
10974.756236
 20
144666.456603
 30
0.0
  0
ENDBLK
  5
42
  8
0
  0
BLOCK
  8
0
  2
*D1
 70
     1
 10
0.0
 20
0.0
 30
0.0
  3
*D1
  1

  0
LINE
  5
26
  8
0
  6
BYBLOCK
 62
     9
 10
13035.123919
 20
144600.0
 30
0.0
 11
13098.723062
 21
144600.0
 31
0.0
  0
LINE
  5
27
  8
0
  6
BYBLOCK
 62
     9
 10
12028.384223
 20
144120.014394
 30
0.0
 11
13098.723062
 21
144120.014394
 31
0.0
  0
LINE
  5
28
  8
0
  6
BYBLOCK
 62
     9
 10
13097.723062
 20
144580.0
 30
0.0
 11
13097.723062
 21
144408.270977
 31
0.0
  0
LINE
  5
29
  8
0
  6
BYBLOCK
 62
     9
 10
13097.723062
 20
144140.014394
 30
0.0
 11
13097.723062
 21
144311.743418
 31
0.0
  0
SOLID
  5
2A
  8
0
  6
BYBLOCK
 62
     9
 10
13094.389728
 20
144580.0
 30
0.0
 11
13101.056395
 21
144580.0
 31
0.0
 12
13097.723062
 22
144600.0
 32
0.0
 13
13097.723062
 23
144600.0
 33
0.0
  0
SOLID
  5
2B
  8
0
  6
BYBLOCK
 62
     9
 10
13094.389728
 20
144140.014394
 30
0.0
 11
13101.056395
 21
144140.014394
 31
0.0
 12
13097.723062
 22
144120.014394
 32
0.0
 13
13097.723062
 23
144120.014394
 33
0.0
  0
TEXT
  5
2C
  8
0
  6
BYBLOCK
 62
    11
 10
13115.223062
 20
144321.493418
 30
0.0
 40
35.0
  1
480
 50
90.0
  0
POINT
  5
2D
  8
DEFPOINTS
  6
BYBLOCK
 62
     0
 10
13025.123919
 20
144600.0
 30
0.0
  0
POINT
  5
2F
  8
DEFPOINTS
  6
BYBLOCK
 62
     0
 10
12018.384223
 20
144120.014394
 30
0.0
  0
POINT
  5
30
  8
DEFPOINTS
  6
BYBLOCK
 62
     0
 10
13097.723062
 20
144120.014394
 30
0.0
  0
ENDBLK
  5
32
  8
0
  0
BLOCK
  8
0
  2
*D2
 70
     1
 10
0.0
 20
0.0
 30
0.0
  3
*D2
  1

  0
LINE
  5
56
  8
0
  6
BYBLOCK
 62
     9
 10
11974.043149
 20
144079.912816
 30
0.0
 11
11974.043149
 21
144050.007995
 31
0.0
  0
LINE
  5
57
  8
0
  6
BYBLOCK
 62
     9
 10
12026.042732
 20
144080.12117
 30
0.0
 11
12026.042732
 21
144050.007995
 31
0.0
  0
LINE
  5
58
  8
0
  6
BYBLOCK
 62
     9
 10
11954.043149
 20
144051.007995
 30
0.0
 11
11934.043149
 21
144051.007995
 31
0.0
  0
LINE
  5
59
  8
0
  6
BYBLOCK
 62
     9
 10
12046.042732
 20
144051.007995
 30
0.0
 11
12066.042732
 21
144051.007995
 31
0.0
  0
TEXT
  5
5A
  8
0
  6
BYBLOCK
 62
    11
 10
12030.491698
 20
144033.507995
 30
0.0
 40
35.0
  1
52
  0
LINE
  5
5B
  8
0
  6
BYBLOCK
 62
     9
 10
11974.043149
 20
144051.007995
 30
0.0
 11
12026.042732
 21
144051.007995
 31
0.0
  0
SOLID
  5
5C
  8
0
  6
BYBLOCK
 62
     9
 10
11954.043149
 20
144054.341328
 30
0.0
 11
11954.043149
 21
144047.674661
 31
0.0
 12
11974.043149
 22
144051.007995
 32
0.0
 13
11974.043149
 23
144051.007995
 33
0.0
  0
SOLID
  5
5D
  8
0
  6
BYBLOCK
 62
     9
 10
12046.042732
 20
144054.341328
 30
0.0
 11
12046.042732
 21
144047.674661
 31
0.0
 12
12026.042732
 22
144051.007995
 32
0.0
 13
12026.042732
 23
144051.007995
 33
0.0
  0
POINT
  5
5E
  8
DEFPOINTS
  6
BYBLOCK
 62
     0
 10
11974.043149
 20
144089.912816
 30
0.0
  0
POINT
  5
5F
  8
DEFPOINTS
  6
BYBLOCK
 62
     0
 10
12026.042732
 20
144090.12117
 30
0.0
  0
POINT
  5
60
  8
DEFPOINTS
  6
BYBLOCK
 62
     0
 10
12026.042732
 20
144051.007995
 30
0.0
  0
ENDBLK
  5
62
  8
0
  0
ENDSEC
  0
SECTION
  2
ENTITIES
  0
POLYLINE
  5
20
  8
TEAM-BODY
 66
     1
 10
0.0
 20
0.0
 30
0.0
 70
   128
  0
VERTEX
  5
4E4
  8
TEAM-BODY
 10
25.581642
 20
120.033007
 30
0.0
  0
VERTEX
  5
4E5
  8
TEAM-BODY
 10
65.514649
 20
120.280844
 30
0.0
  0
VERTEX
  5
4E6
  8
TEAM-BODY
 10
113.136041
 20
120.878449
 30
0.0
  0
VERTEX
  5
4E7
  8
TEAM-BODY
 10
161.875068
 20
121.749915
 30
0.0
  0
VERTEX
  5
4E8
  8
TEAM-BODY
 10
211.731773
 20
122.857212
 30
0.0
  0
VERTEX
  5
4E9
  8
TEAM-BODY
 10
262.706197
 20
124.16804
 30
0.0
  0
VERTEX
  5
4EA
  8
TEAM-BODY
 10
317.306839
 20
125.724726
 30
0.0
  0
VERTEX
  5
4EB
  8
TEAM-BODY
 10
373.134267
 20
127.434544
 30
0.0
  0
VERTEX
  5
4EC
  8
TEAM-BODY
 10
430.18852
 20
129.265707
 30
0.0
  0
VERTEX
  5
4ED
  8
TEAM-BODY
 10
488.469629
 20
131.191664
 30
0.0
  0
VERTEX
  5
4EE
  8
TEAM-BODY
 10
547.977617
 20
133.193255
 30
0.0
  0
VERTEX
  5
4EF
  8
TEAM-BODY
 10
601.491925
 20
135.015291
 30
0.0
  0
SEQEND
  5
4F0
  8
TEAM-BODY
  0
POLYLINE
  5
22
  8
TEAM-BODY
 66
     1
 10
0.0
 20
0.0
 30
0.0
 70
   128
  0
VERTEX
  5
4F1
  8
TEAM-BODY
 10
0.306773
 20
290.682025
 30
0.0
  0
VERTEX
  5
4F2
  8
TEAM-BODY
 10
29.126961
 20
291.54953
 30
0.0
  0
VERTEX
  5
4F3
  8
TEAM-BODY
 10
57.911292
 20
292.417036
 30
0.0
  0
VERTEX
  5
4F4
  8
TEAM-BODY
 10
86.624625
 20
293.284542
 30
0.0
  0
VERTEX
  5
4F5
  8
TEAM-BODY
 10
115.232522
 20
294.152048
 30
0.0
  0
VERTEX
  5
4F6
  8
TEAM-BODY
 10
143.708503
 20
295.019554
 30
0.0
  0
VERTEX
  5
4F7
  8
TEAM-BODY
 10
171.524596
 20
295.871568
 30
0.0
  0
VERTEX
  5
4F8
  8
TEAM-BODY
 10
199.167121
 20
296.723583
 30
0.0
  0
VERTEX
  5
4F9
  8
TEAM-BODY
 10
226.605141
 20
297.575598
 30
0.0
  0
VERTEX
  5
4FA
  8
TEAM-BODY
 10
253.796654
 20
298.427612
 30
0.0
  0
VERTEX
  5
4FB
  8
TEAM-BODY
 10
281.24603
 20
299.297015
 30
0.0
  0
VERTEX
  5
4FC
  8
TEAM-BODY
 10
308.363677
 20
300.166418
 30
0.0
  0
VERTEX
  5
4FD
  8
TEAM-BODY
 10
335.122476
 20
301.03582
 30
0.0
  0
VERTEX
  5
4FE
  8
TEAM-BODY
 10
361.492069
 20
301.905223
 30
0.0
  0
VERTEX
  5
4FF
  8
TEAM-BODY
 10
387.438278
 20
302.774626
 30
0.0
  0
VERTEX
  5
500
  8
TEAM-BODY
 10
412.899428
 20
303.644028
 30
0.0
  0
VERTEX
  5
501
  8
TEAM-BODY
 10
437.792324
 20
304.513431
 30
0.0
  0
VERTEX
  5
502
  8
TEAM-BODY
 10
459.418579
 20
305.28799
 30
0.0
  0
VERTEX
  5
503
  8
TEAM-BODY
 10
480.447361
 20
306.062548
 30
0.0
  0
VERTEX
  5
504
  8
TEAM-BODY
 10
500.787442
 20
306.837107
 30
0.0
  0
VERTEX
  5
505
  8
TEAM-BODY
 10
520.347679
 20
307.611666
 30
0.0
  0
VERTEX
  5
506
  8
TEAM-BODY
 10
539.114228
 20
308.386225
 30
0.0
  0
VERTEX
  5
507
  8
TEAM-BODY
 10
556.837127
 20
309.146952
 30
0.0
  0
VERTEX
  5
508
  8
TEAM-BODY
 10
573.920576
 20
309.907679
 30
0.0
  0
VERTEX
  5
509
  8
TEAM-BODY
 10
590.347981
 20
310.668407
 30
0.0
  0
VERTEX
  5
50A
  8
TEAM-BODY
 10
605.997347
 20
311.429134
 30
0.0
  0
VERTEX
  5
50B
  8
TEAM-BODY
 10
616.815056
 20
311.98239
 30
0.0
  0
VERTEX
  5
50C
  8
TEAM-BODY
 10
627.069019
 20
312.535647
 30
0.0
  0
VERTEX
  5
50D
  8
TEAM-BODY
 10
636.597622
 20
313.088903
 30
0.0
  0
VERTEX
  5
50E
  8
TEAM-BODY
 10
645.226304
 20
313.642159
 30
0.0
  0
VERTEX
  5
50F
  8
TEAM-BODY
 10
652.785236
 20
314.195415
 30
0.0
  0
VERTEX
  5
510
  8
TEAM-BODY
 10
659.187904
 20
314.748672
 30
0.0
  0
VERTEX
  5
511
  8
TEAM-BODY
 10
664.422791
 20
315.301928
 30
0.0
  0
VERTEX
  5
512
  8
TEAM-BODY
 10
668.18935
 20
315.809079
 30
0.0
  0
VERTEX
  5
513
  8
TEAM-BODY
 10
670.964035
 20
316.316231
 30
0.0
  0
VERTEX
  5
514
  8
TEAM-BODY
 10
672.740139
 20
316.823383
 30
0.0
  0
VERTEX
  5
515
  8
TEAM-BODY
 10
673.507478
 20
317.330534
 30
0.0
  0
VERTEX
  5
516
  8
TEAM-BODY
 10
673.494589
 20
317.356554
 30
0.0
  0
SEQEND
  5
517
  8
TEAM-BODY
  0
LINE
  5
23
  8
TEAM-BODY
 10
601.491925
 20
135.015291
 30
0.0
 11
-599.483358
 21
135.015291
 31
0.0
  0
DIMENSION
  5
24
  8
0
  2
*D1
 10
1097.723062
 20
120.014394
 30
0.0
 11
1097.723062
 21
360.007197
 31
0.0
 12
-12000.0
 22
-144000.0
 32
0.0
 13
1025.123919
 23
600.0
 33
0.0
 14
18.384223
 24
120.014394
 34
0.0
 50
90.0
1001
ACAD
1000
DSTYLE
1002
{
1070
    78
1070
     0
1070
    40
1040
1.0
1002
}
  0
LINE
  5
33
  8
TEAM-BODY
 10
0.0
 20
600.0
 30
0.0
 11
1025.123919
 21
600.0
 31
0.0
  0
LINE
  5
34
  8
TEAM-BODY
 10
0.0
 20
570.000904
 30
0.0
 11
1025.123919
 21
570.000904
 31
0.0
  0
DIMENSION
  5
35
  8
0
  2
*D0
 10
-1025.243764
 20
666.456603
 30
0.0
 11
-0.059922
 21
666.456603
 31
0.0
 12
-12000.0
 22
-144000.0
 32
0.0
 13
1025.123919
 23
585.000452
 33
0.0
 14
-1025.243764
 24
585.000452
 34
0.0
1001
ACAD
1000
DSTYLE
1002
{
1070
    78
1070
     0
1070
    40
1040
1.0
1002
}
  0
TEXT
  5
43
  8
TEAM-TXT
 10
-318.370608
 20
450.404292
 30
0.0
 40
30.0
  1
team 121857
 41
0.8
 51
15.0
  7
TEAM
  0
ARC
  5
46
  8
TEAM-KAN
 10
46.001202
 20
100.525905
 30
0.0
 40
20.0
 50
90.229574
 51
180.229574
  0
LINE
  5
48
  8
TEAM-KAN
 10
26.001202
 20
100.525905
 30
0.0
 11
26.042732
 21
90.12117
 31
0.0
  0
LINE
  5
49
  8
TEAM-AXE
 10
-0.208064
 20
152.660891
 30
0.0
 11
0.166952
 21
59.06703
 31
0.0
  0
POLYLINE
  5
4C
  8
TEAM-BODY
 66
     1
 10
0.0
 20
0.0
 30
0.0
 70
   128
  0
VERTEX
  5
518
  8
TEAM-BODY
 10
0.0
 20
120.014559
 30
0.0
  0
VERTEX
  5
519
  8
TEAM-BODY
 10
-5.072196
 20
120.014549
 30
0.0
  0
VERTEX
  5
51A
  8
TEAM-BODY
 10
-9.949469
 20
120.014519
 30
0.0
  0
VERTEX
  5
51B
  8
TEAM-BODY
 10
-14.050296
 20
120.01448
 30
0.0
  0
SEQEND
  5
51C
  8
TEAM-BODY
  0
LINE
  5
4D
  8
TEAM-KAN
 10
-25.956851
 20
89.912816
 30
0.0
 11
-25.99822
 21
100.237414
 31
0.0
  0
ARC
  5
4E
  8
TEAM-KAN
 10
-45.998059
 20
100.157278
 30
0.0
 40
20.0
 50
0.229574
 51
90.229574
  0
LINE
  5
4F
  8
TEAM-AXE
 10
0.147477
 20
546.001626
 30
0.0
 11
0.147477
 21
494.003192
 31
0.0
  0
ARC
  5
50
  8
TEAM-DET1
 10
0.147477
 20
520.002409
 30
0.0
 40
25.999217
 50
90.228482
 51
269.889545
  0
CIRCLE
  5
52
  8
TEAM-DET2
 10
0.0
 20
0.0
 30
0.0
 40
10.0
  0
DIMENSION
  5
54
  8
0
  2
*D2
 10
26.042732
 20
51.007995
 30
0.0
 11
56.042732
 21
51.007995
 31
0.0
 12
-12000.0
 22
-144000.0
 32
0.0
 70
   128
 13
-25.956851
 23
89.912816
 33
0.0
 14
26.042732
 24
90.12117
 34
0.0
1001
ACAD
1000
DSTYLE
1002
{
1070
    78
1070
     0
1070
    40
1040
1.0
1002
}
  0
POLYLINE
  5
63
  8
TEAM-BODY
 66
     1
 10
0.0
 20
0.0
 30
0.0
 70
   128
  0
VERTEX
  5
51D
  8
TEAM-BODY
 10
-25.591652
 20
120.014292
 30
0.0
  0
VERTEX
  5
51E
  8
TEAM-BODY
 10
-25.49965
 20
120.014291
 30
0.0
  0
VERTEX
  5
51F
  8
TEAM-BODY
 10
-24.020145
 20
120.014304
 30
0.0
  0
VERTEX
  5
520
  8
TEAM-BODY
 10
-21.617559
 20
120.01434
 30
0.0
  0
VERTEX
  5
521
  8
TEAM-BODY
 10
-18.384223
 20
120.0144
 30
0.0
  0
VERTEX
  5
522
  8
TEAM-BODY
 10
-14.444391
 20
120.014473
 30
0.0
  0
VERTEX
  5
523
  8
TEAM-BODY
 10
-9.949469
 20
120.014546
 30
0.0
  0
VERTEX
  5
524
  8
TEAM-BODY
 10
-5.072195
 20
120.014599
 30
0.0
  0
VERTEX
  5
525
  8
TEAM-BODY
 10
0.0
 20
120.014617
 30
0.0
  0
VERTEX
  5
526
  8
TEAM-BODY
 10
5.072196
 20
120.014596
 30
0.0
  0
VERTEX
  5
527
  8
TEAM-BODY
 10
9.949469
 20
120.01454
 30
0.0
  0
VERTEX
  5
528
  8
TEAM-BODY
 10
14.444391
 20
120.014467
 30
0.0
  0
VERTEX
  5
529
  8
TEAM-BODY
 10
18.384223
 20
120.014394
 30
0.0
  0
VERTEX
  5
52A
  8
TEAM-BODY
 10
21.617559
 20
120.014337
 30
0.0
  0
VERTEX
  5
52B
  8
TEAM-BODY
 10
24.020145
 20
120.014303
 30
0.0
  0
VERTEX
  5
52C
  8
TEAM-BODY
 10
25.49965
 20
120.014292
 30
0.0
  0
VERTEX
  5
52D
  8
TEAM-BODY
 10
25.581758
 20
120.014293
 30
0.0
  0
SEQEND
  5
52E
  8
TEAM-BODY
  0
LINE
  5
64
  8
TEAM-KAN
 10
-25.956851
 20
89.912816
 30
0.0
 11
26.042732
 21
90.12117
 31
0.0
  0
ARC
  5
65
  8
TEAM-DET1
 10
0.147477
 20
520.002409
 30
0.0
 40
25.999217
 50
269.889545
 51
90.228482
  0
LINE
  5
66
  8
TEAM-AXE
 10
-25.85174
 20
520.002409
 30
0.0
 11
26.146694
 21
520.002409
 31
0.0
  0
POLYLINE
  5
67
  8
TEAM-BODY
 66
     1
 10
0.0
 20
0.0
 30
0.0
 70
   128
  0
VERTEX
  5
52F
  8
TEAM-BODY
 10
-798.026038
 20
570.000904
 30
0.0
  0
VERTEX
  5
530
  8
TEAM-BODY
 10
-787.653215
 20
554.503217
 30
0.0
  0
VERTEX
  5
531
  8
TEAM-BODY
 10
-777.122798
 20
537.509231
 30
0.0
  0
VERTEX
  5
532
  8
TEAM-BODY
 10
-766.886075
 20
519.816324
 30
0.0
  0
VERTEX
  5
533
  8
TEAM-BODY
 10
-756.942762
 20
501.56252
 30
0.0
  0
VERTEX
  5
534
  8
TEAM-BODY
 10
-747.29248
 20
482.898074
 30
0.0
  0
VERTEX
  5
535
  8
TEAM-BODY
 10
-737.934976
 20
463.966666
 30
0.0
  0
VERTEX
  5
536
  8
TEAM-BODY
 10
-727.599147
 20
442.198444
 30
0.0
  0
VERTEX
  5
537
  8
TEAM-BODY
 10
-717.64576
 20
420.487302
 30
0.0
  0
VERTEX
  5
538
  8
TEAM-BODY
 10
-708.075111
 20
398.993156
 30
0.0
  0
VERTEX
  5
539
  8
TEAM-BODY
 10
-698.887649
 20
377.835968
 30
0.0
  0
VERTEX
  5
53A
  8
TEAM-BODY
 10
-690.08376
 20
357.121471
 30
0.0
  0
VERTEX
  5
53B
  8
TEAM-BODY
 10
-681.663714
 20
336.947616
 30
0.0
  0
VERTEX
  5
53C
  8
TEAM-BODY
 10
-673.627692
 20
317.400314
 30
0.0
  0
SEQEND
  5
53D
  8
TEAM-BODY
  0
ARC
  5
68
  8
TEAM-BODY
 10
-12170.102528
 20
-4368.903718
 30
0.0
 40
12414.925915
 50
21.271177
 51
22.177208
  0
LINE
  5
69
  8
TEAM-BODY
 10
-598.011815
 20
135.014005
 30
0.0
 11
-600.954902
 21
135.014005
 31
0.0
  0
LINE
  5
6A
  8
TEAM-BODY
 10
-1025.243764
 20
600.0
 30
0.0
 11
-1025.243764
 21
570.000904
 31
0.0
  0
POLYLINE
  5
6B
  8
TEAM-BODY
 66
     1
 10
0.0
 20
0.0
 30
0.0
 70
   128
  0
VERTEX
  5
53E
  8
TEAM-BODY
 10
-600.948524
 20
135.014037
 30
0.0
  0
VERTEX
  5
53F
  8
TEAM-BODY
 10
-581.000709
 20
134.337039
 30
0.0
  0
VERTEX
  5
540
  8
TEAM-BODY
 10
-552.70223
 20
133.380335
 30
0.0
  0
VERTEX
  5
541
  8
TEAM-BODY
 10
-523.285747
 20
132.390008
 30
0.0
  0
VERTEX
  5
542
  8
TEAM-BODY
 10
-492.751264
 20
131.367549
 30
0.0
  0
VERTEX
  5
543
  8
TEAM-BODY
 10
-461.098783
 20
130.31562
 30
0.0
  0
VERTEX
  5
544
  8
TEAM-BODY
 10
-428.32831
 20
129.238417
 30
0.0
  0
VERTEX
  5
545
  8
TEAM-BODY
 10
-394.439851
 20
128.142063
 30
0.0
  0
VERTEX
  5
546
  8
TEAM-BODY
 10
-359.433417
 20
127.03507
 30
0.0
  0
VERTEX
  5
547
  8
TEAM-BODY
 10
-321.560927
 20
125.87642
 30
0.0
  0
VERTEX
  5
548
  8
TEAM-BODY
 10
-282.461489
 20
124.735846
 30
0.0
  0
VERTEX
  5
549
  8
TEAM-BODY
 10
-242.135129
 20
123.635515
 30
0.0
  0
VERTEX
  5
54A
  8
TEAM-BODY
 10
-200.581881
 20
122.603434
 30
0.0
  0
VERTEX
  5
54B
  8
TEAM-BODY
 10
-157.801787
 20
121.674403
 30
0.0
  0
VERTEX
  5
54C
  8
TEAM-BODY
 10
-113.794897
 20
120.891096
 30
0.0
  0
VERTEX
  5
54D
  8
TEAM-BODY
 10
-70.643966
 20
120.331784
 30
0.0
  0
VERTEX
  5
54E
  8
TEAM-BODY
 10
-26.375367
 20
120.017027
 30
0.0
  0
VERTEX
  5
54F
  8
TEAM-BODY
 10
-25.591651
 20
120.016599
 30
0.0
  0
SEQEND
  5
550
  8
TEAM-BODY
  0
POLYLINE
  5
6C
  8
TEAM-BODY
 66
     1
 10
0.0
 20
0.0
 30
0.0
 70
   128
  0
VERTEX
  5
551
  8
TEAM-BODY
 10
-673.502809
 20
317.389255
 30
0.0
  0
VERTEX
  5
552
  8
TEAM-BODY
 10
-673.509645
 20
317.238325
 30
0.0
  0
VERTEX
  5
553
  8
TEAM-BODY
 10
-672.328351
 20
316.685068
 30
0.0
  0
VERTEX
  5
554
  8
TEAM-BODY
 10
-669.953513
 20
316.131812
 30
0.0
  0
VERTEX
  5
555
  8
TEAM-BODY
 10
-666.398651
 20
315.578556
 30
0.0
  0
VERTEX
  5
556
  8
TEAM-BODY
 10
-661.670655
 20
315.0253
 30
0.0
  0
VERTEX
  5
557
  8
TEAM-BODY
 10
-655.775929
 20
314.472043
 30
0.0
  0
VERTEX
  5
558
  8
TEAM-BODY
 10
-649.354459
 20
313.964892
 30
0.0
  0
VERTEX
  5
559
  8
TEAM-BODY
 10
-641.980426
 20
313.45774
 30
0.0
  0
VERTEX
  5
55A
  8
TEAM-BODY
 10
-633.757981
 20
312.950589
 30
0.0
  0
VERTEX
  5
55B
  8
TEAM-BODY
 10
-624.821178
 20
312.443437
 30
0.0
  0
VERTEX
  5
55C
  8
TEAM-BODY
 10
-615.304045
 20
311.936286
 30
0.0
  0
VERTEX
  5
55D
  8
TEAM-BODY
 10
-605.328618
 20
311.429134
 30
0.0
  0
VERTEX
  5
55E
  8
TEAM-BODY
 10
-589.335259
 20
310.654575
 30
0.0
  0
VERTEX
  5
55F
  8
TEAM-BODY
 10
-572.547126
 20
309.880017
 30
0.0
  0
VERTEX
  5
560
  8
TEAM-BODY
 10
-555.090638
 20
309.105458
 30
0.0
  0
VERTEX
  5
561
  8
TEAM-BODY
 10
-536.975052
 20
308.330899
 30
0.0
  0
VERTEX
  5
562
  8
TEAM-BODY
 10
-518.13268
 20
307.55634
 30
0.0
  0
VERTEX
  5
563
  8
TEAM-BODY
 10
-498.85619
 20
306.795613
 30
0.0
  0
VERTEX
  5
564
  8
TEAM-BODY
 10
-478.836488
 20
306.034886
 30
0.0
  0
VERTEX
  5
565
  8
TEAM-BODY
 10
-458.160404
 20
305.274158
 30
0.0
  0
VERTEX
  5
566
  8
TEAM-BODY
 10
-436.913883
 20
304.513431
 30
0.0
  0
VERTEX
  5
567
  8
TEAM-BODY
 10
-412.078797
 20
303.645925
 30
0.0
  0
VERTEX
  5
568
  8
TEAM-BODY
 10
-386.681858
 20
302.778419
 30
0.0
  0
VERTEX
  5
569
  8
TEAM-BODY
 10
-360.805042
 20
301.910914
 30
0.0
  0
VERTEX
  5
56A
  8
TEAM-BODY
 10
-334.509176
 20
301.043408
 30
0.0
  0
VERTEX
  5
56B
  8
TEAM-BODY
 10
-307.827567
 20
300.175902
 30
0.0
  0
VERTEX
  5
56C
  8
TEAM-BODY
 10
-281.275818
 20
299.323887
 30
0.0
  0
VERTEX
  5
56D
  8
TEAM-BODY
 10
-254.405999
 20
298.471873
 30
0.0
  0
VERTEX
  5
56E
  8
TEAM-BODY
 10
-227.247312
 20
297.619858
 30
0.0
  0
VERTEX
  5
56F
  8
TEAM-BODY
 10
-199.840771
 20
296.767843
 30
0.0
  0
VERTEX
  5
570
  8
TEAM-BODY
 10
-171.662793
 20
295.898441
 30
0.0
  0
VERTEX
  5
571
  8
TEAM-BODY
 10
-143.303551
 20
295.029038
 30
0.0
  0
VERTEX
  5
572
  8
TEAM-BODY
 10
-114.787708
 20
294.159635
 30
0.0
  0
VERTEX
  5
573
  8
TEAM-BODY
 10
-86.138988
 20
293.290233
 30
0.0
  0
VERTEX
  5
574
  8
TEAM-BODY
 10
-57.383922
 20
292.42083
 30
0.0
  0
VERTEX
  5
575
  8
TEAM-BODY
 10
-28.556936
 20
291.551427
 30
0.0
  0
VERTEX
  5
576
  8
TEAM-BODY
 10
0.306773
 20
290.682025
 30
0.0
  0
SEQEND
  5
577
  8
TEAM-BODY
  0
LINE
  5
6D
  8
TEAM-BODY
 10
-1025.243764
 20
600.0
 30
0.0
 11
0.0
 21
600.0
 31
0.0
  0
LINE
  5
6E
  8
TEAM-BODY
 10
-1025.243764
 20
570.000904
 30
0.0
 11
0.0
 21
570.000904
 31
0.0
  0
POLYLINE
  5
6F
  8
TEAM-BODY
 66
     1
 10
0.0
 20
0.0
 30
0.0
 70
   128
  0
VERTEX
  5
578
  8
TEAM-BODY
 10
673.519657
 20
317.357048
 30
0.0
  0
VERTEX
  5
579
  8
TEAM-BODY
 10
681.496328
 20
336.90295
 30
0.0
  0
VERTEX
  5
57A
  8
TEAM-BODY
 10
689.864494
 20
357.076218
 30
0.0
  0
VERTEX
  5
57B
  8
TEAM-BODY
 10
698.625058
 20
377.791028
 30
0.0
  0
VERTEX
  5
57C
  8
TEAM-BODY
 10
707.778832
 20
398.949492
 30
0.0
  0
VERTEX
  5
57D
  8
TEAM-BODY
 10
717.326587
 20
420.445904
 30
0.0
  0
VERTEX
  5
57E
  8
TEAM-BODY
 10
727.269019
 20
442.160289
 30
0.0
  0
VERTEX
  5
57F
  8
TEAM-BODY
 10
737.606551
 20
463.932694
 30
0.0
  0
VERTEX
  5
580
  8
TEAM-BODY
 10
746.976081
 20
482.868469
 30
0.0
  0
VERTEX
  5
581
  8
TEAM-BODY
 10
756.648111
 20
501.537823
 30
0.0
  0
VERTEX
  5
582
  8
TEAM-BODY
 10
766.622293
 20
519.796883
 30
0.0
  0
VERTEX
  5
583
  8
TEAM-BODY
 10
776.898115
 20
537.49513
 30
0.0
  0
VERTEX
  5
584
  8
TEAM-BODY
 10
787.475119
 20
554.494192
 30
0.0
  0
VERTEX
  5
585
  8
TEAM-BODY
 10
797.902489
 20
570.000904
 30
0.0
  0
SEQEND
  5
586
  8
TEAM-BODY
  0
ARC
  5
70
  8
TEAM-BODY
 10
14414.119868
 20
-5215.821237
 30
0.0
 40
14812.83778
 50
158.065977
 51
158.824272
  0
LINE
  5
71
  8
TEAM-BODY
 10
1025.123919
 20
600.0
 30
0.0
 11
1025.123919
 21
570.000904
 31
0.0
  0
ENDSEC
  0
EOF
