  0
SECTION
  2
HEADER
  9
$ACADVER
  1
AC1009
  9
$INSBASE
 10
0.0
 20
0.0
 30
0.0
  9
$EXTMIN
 10
-232.244789
 20
-320.023304
 30
-0.00061
  9
$EXTMAX
 10
314.877589
 20
60.112837
 30
10.00061
  9
$LIMMIN
 10
-232.244789
 20
-320.023304
  9
$LIMMAX
 10
314.877589
 20
60.112837
  9
$ORTHOMODE
 70
     1
  9
$REGENMODE
 70
     1
  9
$FILLMODE
 70
     1
  9
$QTEXTMODE
 70
     0
  9
$MIRRTEXT
 70
     0
  9
$DRAGMODE
 70
     2
  9
$LTSCALE
 40
25.0
  9
$OSMODE
 70
     0
  9
$ATTMODE
 70
     1
  9
$TEXTSIZE
 40
200.0
  9
$TRACEWID
 40
1.0
  9
$TEXTSTYLE
  7
STANDARD
  9
$CLAYER
  8
TEAM-MAS
  9
$CELTYPE
  6
BYLAYER
  9
$CECOLOR
 62
   256
  9
$DIMSCALE
 40
1.0
  9
$DIMASZ
 40
20.0
  9
$DIMEXO
 40
10.0
  9
$DIMDLI
 40
1.0
  9
$DIMRND
 40
0.0
  9
$DIMDLE
 40
0.0
  9
$DIMEXE
 40
1.0
  9
$DIMTP
 40
0.0
  9
$DIMTM
 40
0.0
  9
$DIMTXT
 40
35.0
  9
$DIMCEN
 40
1.0
  9
$DIMTSZ
 40
0.0
  9
$DIMTOL
 70
     0
  9
$DIMLIM
 70
     0
  9
$DIMTIH
 70
     0
  9
$DIMTOH
 70
     0
  9
$DIMSE1
 70
     0
  9
$DIMSE2
 70
     0
  9
$DIMTAD
 70
     0
  9
$DIMZIN
 70
     0
  9
$DIMBLK
  1

  9
$DIMASO
 70
     1
  9
$DIMSHO
 70
     0
  9
$DIMPOST
  1

  9
$DIMAPOST
  1

  9
$DIMALT
 70
     0
  9
$DIMALTD
 70
     2
  9
$DIMALTF
 40
25.4
  9
$DIMLFAC
 40
1.0
  9
$DIMTOFL
 70
     0
  9
$DIMTVP
 40
0.0
  9
$DIMTIX
 70
     0
  9
$DIMSOXD
 70
     0
  9
$DIMSAH
 70
     0
  9
$DIMBLK1
  1

  9
$DIMBLK2
  1

  9
$DIMSTYLE
  2
TEAM
  9
$DIMCLRD
 70
     9
  9
$DIMCLRE
 70
     9
  9
$DIMCLRT
 70
    11
  9
$DIMTFAC
 40
1.0
  9
$DIMGAP
 40
15.0
  9
$LUNITS
 70
     2
  9
$LUPREC
 70
     1
  9
$SKETCHINC
 40
1.0
  9
$FILLETRAD
 40
50.0
  9
$AUNITS
 70
     0
  9
$AUPREC
 70
     0
  9
$MENU
  1
ROPLANS
  9
$ELEVATION
 40
0.0
  9
$PELEVATION
 40
0.0
  9
$THICKNESS
 40
0.0
  9
$LIMCHECK
 70
     0
  9
$BLIPMODE
 70
     1
  9
$CHAMFERA
 40
0.0
  9
$CHAMFERB
 40
0.0
  9
$SKPOLY
 70
     0
  9
$TDCREATE
 40
2450392.957851
  9
$TDUPDATE
 40
2455523.423855
  9
$TDINDWG
 40
2.626044
  9
$TDUSRTIMER
 40
2.626044
  9
$USRTIMER
 70
     1
  9
$ANGBASE
 50
0.0
  9
$ANGDIR
 70
     0
  9
$PDMODE
 70
     0
  9
$PDSIZE
 40
0.0
  9
$PLINEWID
 40
0.0
  9
$COORDS
 70
     2
  9
$SPLFRAME
 70
     0
  9
$SPLINETYPE
 70
     6
  9
$SPLINESEGS
 70
     8
  9
$ATTDIA
 70
     0
  9
$ATTREQ
 70
     0
  9
$HANDLING
 70
     1
  9
$HANDSEED
  5
FD
  9
$SURFTAB1
 70
    36
  9
$SURFTAB2
 70
    36
  9
$SURFTYPE
 70
     6
  9
$SURFU
 70
     6
  9
$SURFV
 70
     6
  9
$UCSNAME
  2

  9
$UCSORG
 10
0.0
 20
0.0
 30
0.0
  9
$UCSXDIR
 10
1.0
 20
0.0
 30
0.0
  9
$UCSYDIR
 10
0.0
 20
1.0
 30
0.0
  9
$PUCSNAME
  2

  9
$PUCSORG
 10
0.0
 20
0.0
 30
0.0
  9
$PUCSXDIR
 10
1.0
 20
0.0
 30
0.0
  9
$PUCSYDIR
 10
0.0
 20
1.0
 30
0.0
  9
$USERI1
 70
     0
  9
$USERI2
 70
     0
  9
$USERI3
 70
     0
  9
$USERI4
 70
     0
  9
$USERI5
 70
     0
  9
$USERR1
 40
0.0
  9
$USERR2
 40
0.0
  9
$USERR3
 40
0.0
  9
$USERR4
 40
0.0
  9
$USERR5
 40
0.0
  9
$WORLDVIEW
 70
     1
  9
$SHADEDGE
 70
     0
  9
$SHADEDIF
 70
    70
  9
$TILEMODE
 70
     1
  9
$MAXACTVP
 70
    16
  9
$PLIMCHECK
 70
     0
  9
$PEXTMIN
 10
-0.805942
 20
0.005011
 30
0.0
  9
$PEXTMAX
 10
20.250094
 20
11.356329
 30
0.0
  9
$PLIMMIN
 10
0.0
 20
0.0
  9
$PLIMMAX
 10
12.0
 20
9.0
  9
$UNITMODE
 70
     0
  9
$VISRETAIN
 70
     0
  9
$PLINEGEN
 70
     0
  9
$PSLTSCALE
 70
     0
  0
ENDSEC
  0
SECTION
  2
TABLES
  0
TABLE
  2
VPORT
 70
     2
  0
VPORT
  2
*ACTIVE
 70
     0
 10
0.0
 20
0.0
 11
1.0
 21
1.0
 12
41.3164
 22
-129.955234
 13
0.0
 23
0.0
 14
1.0
 24
1.0
 15
50.0
 25
50.0
 16
0.0
 26
0.0
 36
1.0
 17
0.0
 27
0.0
 37
0.0
 40
382.470652
 41
1.865779
 42
50.0
 43
0.0
 44
0.0
 50
0.0
 51
0.0
 71
     0
 72
   100
 73
     1
 74
     1
 75
     0
 76
     0
 77
     0
 78
     0
  0
ENDTAB
  0
TABLE
  2
LTYPE
 70
     2
  0
LTYPE
  2
CONTINUOUS
 70
     0
  3
Solid Line
 72
    65
 73
     0
 40
0.0
  0
LTYPE
  2
31
 70
     0
  3

 72
    65
 73
     4
 40
2.1
 49
1.5
 49
-0.3
 49
0.0
 49
-0.3
  0
ENDTAB
  0
TABLE
  2
LAYER
 70
     8
  0
LAYER
  2
0
 70
     0
 62
     7
  6
CONTINUOUS
  0
LAYER
  2
DEFPOINTS
 70
     0
 62
     7
  6
CONTINUOUS
  0
LAYER
  2
TEAM-BODY
 70
     0
 62
     2
  6
CONTINUOUS
  0
LAYER
  2
TEAM-AXE
 70
     0
 62
    10
  6
31
  0
LAYER
  2
TEAM-MAS
 70
     0
 62
     9
  6
CONTINUOUS
  0
LAYER
  2
TEAM-TXT
 70
     0
 62
    11
  6
CONTINUOUS
  0
LAYER
  2
TEAM-DET1
 70
     0
 62
     4
  6
CONTINUOUS
  0
LAYER
  2
TEAM-INSP
 70
     0
 62
     5
  6
CONTINUOUS
  0
ENDTAB
  0
TABLE
  2
STYLE
 70
     2
  0
STYLE
  2
STANDARD
 70
     0
 40
0.0
 41
1.0
 50
0.0
 71
     0
 42
200.0
  3
txt
  4

  0
STYLE
  2
TEAM
 70
     0
 40
0.0
 41
0.8
 50
15.0
 71
     0
 42
7.0
  3
ROMANS.shx
  4

  0
ENDTAB
  0
TABLE
  2
VIEW
 70
     0
  0
ENDTAB
  0
TABLE
  2
UCS
 70
     0
  0
ENDTAB
  0
TABLE
  2
APPID
 70
     1
  0
APPID
  2
ACAD
 70
     0
  0
ENDTAB
  0
TABLE
  2
DIMSTYLE
 70
     1
  0
DIMSTYLE
  2
TEAM
 70
     0
  3

  4

  5

  6

  7

 40
1.0
 41
20.0
 42
10.0
 43
1.0
 44
1.0
 45
0.0
 46
0.0
 47
0.0
 48
0.0
140
35.0
141
1.0
142
0.0
143
25.4
144
1.0
145
0.0
146
1.0
147
15.0
 71
     0
 72
     0
 73
     0
 74
     0
 75
     0
 76
     0
 77
     0
 78
     0
170
     0
171
     2
172
     0
173
     0
174
     0
175
     0
176
     9
177
     9
178
    11
  0
ENDTAB
  0
ENDSEC
  0
SECTION
  2
BLOCKS
  0
BLOCK
  8
0
  2
$MODEL_SPACE
 70
     0
 10
0.0
 20
0.0
 30
0.0
  3
$MODEL_SPACE
  1

  0
ENDBLK
  5
EF
  8
0
  0
BLOCK
 67
     1
  8
0
  2
$PAPER_SPACE
 70
     0
 10
0.0
 20
0.0
 30
0.0
  3
$PAPER_SPACE
  1

  0
ENDBLK
  5
ED
 67
     1
  8
0
  0
BLOCK
  8
0
  2
*D0
 70
     1
 10
0.0
 20
0.0
 30
0.0
  3
*D0
  1

  0
LINE
  5
3F
  8
0
  6
BYBLOCK
 62
     9
 10
4290.0
 20
40000.0
 30
0.0
 11
4296.636731
 21
40000.0
 31
0.0
  0
LINE
  5
40
  8
0
  6
BYBLOCK
 62
     9
 10
4010.0
 20
39680.0
 30
0.0
 11
4298.636731
 21
39680.0
 31
0.0
  0
LINE
  5
41
  8
0
  6
BYBLOCK
 62
     9
 10
4297.636731
 20
39980.0
 30
0.0
 11
4297.636731
 21
39898.75
 31
0.0
  0
LINE
  5
42
  8
0
  6
BYBLOCK
 62
     9
 10
4297.636731
 20
39700.0
 30
0.0
 11
4297.636731
 21
39781.25
 31
0.0
  0
SOLID
  5
43
  8
0
  6
BYBLOCK
 62
     9
 10
4294.303398
 20
39980.0
 30
0.0
 11
4300.970065
 21
39980.0
 31
0.0
 12
4297.636731
 22
40000.0
 32
0.0
 13
4297.636731
 23
40000.0
 33
0.0
  0
SOLID
  5
44
  8
0
  6
BYBLOCK
 62
     9
 10
4294.303398
 20
39700.0
 30
0.0
 11
4300.970065
 21
39700.0
 31
0.0
 12
4297.636731
 22
39680.0
 32
0.0
 13
4297.636731
 23
39680.0
 33
0.0
  0
TEXT
  5
45
  8
0
  6
BYBLOCK
 62
    11
 10
4315.136731
 20
39796.25
 30
0.0
 40
35.0
  1
320
 50
90.0
  0
POINT
  5
46
  8
DEFPOINTS
  6
BYBLOCK
 62
     0
 10
4300.0
 20
40000.0
 30
10.0
  0
POINT
  5
47
  8
DEFPOINTS
  6
BYBLOCK
 62
     0
 10
4000.0
 20
39680.0
 30
0.0
  0
POINT
  5
48
  8
DEFPOINTS
  6
BYBLOCK
 62
     0
 10
4297.636731
 20
39680.0
 30
10.0
  0
ENDBLK
  5
4A
  8
0
  0
BLOCK
  8
0
  2
*D1
 70
     1
 10
0.0
 20
0.0
 30
0.0
  3
*D1
  1

  0
LINE
  5
22
  8
0
  6
BYBLOCK
 62
     9
 10
4235.0
 20
40000.0
 30
0.0
 11
4253.74548
 21
40000.0
 31
0.0
  0
LINE
  5
23
  8
0
  6
BYBLOCK
 62
     9
 10
4051.5
 20
39835.0
 30
0.0
 11
4253.74548
 21
39835.0
 31
0.0
  0
LINE
  5
24
  8
0
  6
BYBLOCK
 62
     9
 10
4252.74548
 20
40020.0
 30
0.0
 11
4252.74548
 21
40040.0
 31
0.0
  0
LINE
  5
25
  8
0
  6
BYBLOCK
 62
     9
 10
4252.74548
 20
39815.0
 30
0.0
 11
4252.74548
 21
39795.0
 31
0.0
  0
SOLID
  5
26
  8
0
  6
BYBLOCK
 62
     9
 10
4249.412147
 20
40020.0
 30
0.0
 11
4256.078813
 21
40020.0
 31
0.0
 12
4252.74548
 22
40000.0
 32
0.0
 13
4252.74548
 23
40000.0
 33
0.0
  0
SOLID
  5
27
  8
0
  6
BYBLOCK
 62
     9
 10
4249.412147
 20
39815.0
 30
0.0
 11
4256.078813
 21
39815.0
 31
0.0
 12
4252.74548
 22
39835.0
 32
0.0
 13
4252.74548
 23
39835.0
 33
0.0
  0
TEXT
  5
28
  8
0
  6
BYBLOCK
 62
    11
 10
4270.24548
 20
39876.666667
 30
0.0
 40
35.0
  1
165
 50
90.0
  0
POINT
  5
29
  8
DEFPOINTS
  6
BYBLOCK
 62
     0
 10
4225.0
 20
40000.0
 30
0.0
  0
POINT
  5
2B
  8
DEFPOINTS
  6
BYBLOCK
 62
     0
 10
4041.5
 20
39835.0
 30
0.0
  0
POINT
  5
2C
  8
DEFPOINTS
  6
BYBLOCK
 62
     0
 10
4252.74548
 20
39835.0
 30
0.0
  0
ENDBLK
  5
2E
  8
0
  0
BLOCK
  8
0
  2
*D2
 70
     1
 10
0.0
 20
0.0
 30
0.0
  3
*D2
  1

  0
LINE
  5
31
  8
0
  6
BYBLOCK
 62
     9
 10
3775.0
 20
40010.0
 30
0.0
 11
3775.0
 21
40045.337549
 31
0.0
  0
LINE
  5
32
  8
0
  6
BYBLOCK
 62
     9
 10
4225.0
 20
40010.0
 30
0.0
 11
4225.0
 21
40045.337549
 31
0.0
  0
LINE
  5
33
  8
0
  6
BYBLOCK
 62
     9
 10
3795.0
 20
40044.337549
 30
0.0
 11
3941.25
 21
40044.337549
 31
0.0
  0
LINE
  5
34
  8
0
  6
BYBLOCK
 62
     9
 10
4205.0
 20
40044.337549
 30
0.0
 11
4058.75
 21
40044.337549
 31
0.0
  0
SOLID
  5
35
  8
0
  6
BYBLOCK
 62
     9
 10
3795.0
 20
40047.670883
 30
0.0
 11
3795.0
 21
40041.004216
 31
0.0
 12
3775.0
 22
40044.337549
 32
0.0
 13
3775.0
 23
40044.337549
 33
0.0
  0
SOLID
  5
36
  8
0
  6
BYBLOCK
 62
     9
 10
4205.0
 20
40047.670883
 30
0.0
 11
4205.0
 21
40041.004216
 31
0.0
 12
4225.0
 22
40044.337549
 32
0.0
 13
4225.0
 23
40044.337549
 33
0.0
  0
TEXT
  5
37
  8
0
  6
BYBLOCK
 62
    11
 10
3956.25
 20
40026.837549
 30
0.0
 40
35.0
  1
450
  0
POINT
  5
38
  8
DEFPOINTS
  6
BYBLOCK
 62
     0
 10
3775.0
 20
40000.0
 30
0.0
  0
POINT
  5
39
  8
DEFPOINTS
  6
BYBLOCK
 62
     0
 10
4225.0
 20
40000.0
 30
0.0
  0
POINT
  5
3A
  8
DEFPOINTS
  6
BYBLOCK
 62
     0
 10
4225.0
 20
40044.337549
 30
0.0
  0
ENDBLK
  5
3C
  8
0
  0
ENDSEC
  0
SECTION
  2
ENTITIES
  0
DIMENSION
  5
20
  8
TEAM-MAS
  2
*D1
 10
252.74548
 20
-165.0
 30
0.0
 11
252.74548
 21
-82.5
 31
0.0
 12
-4000.0
 22
-40000.0
 32
0.0
 13
225.0
 23
0.0
 33
0.0
 14
41.5
 24
-165.0
 34
0.0
 50
90.0
1001
ACAD
1000
DSTYLE
1002
{
1070
    40
1040
1.0
1002
}
  0
DIMENSION
  5
2F
  8
TEAM-MAS
  2
*D2
 10
225.0
 20
44.337549
 30
0.0
 11
0.0
 21
44.337549
 31
0.0
 12
-4000.0
 22
-40000.0
 32
0.0
 13
-225.0
 23
0.0
 33
0.0
 14
225.0
 24
0.0
 34
0.0
1001
ACAD
1000
DSTYLE
1002
{
1070
    40
1040
1.0
1002
}
  0
DIMENSION
  5
3D
  8
TEAM-MAS
  2
*D0
 10
297.636731
 20
-320.0
 30
10.0
 11
297.636731
 21
-160.0
 31
0.0
 12
-4000.0
 22
-40000.0
 32
0.0
 13
300.0
 23
0.0
 33
10.0
 14
0.0
 24
-320.0
 34
0.0
 50
90.0
1001
ACAD
1000
DSTYLE
1002
{
1070
    40
1040
1.0
1002
}
  0
LINE
  5
4B
  8
TEAM-BODY
 10
194.738108
 20
-35.0
 30
0.0
 11
213.370992
 21
-35.0
 31
0.0
  0
ARC
  5
4D
  8
TEAM-BODY
 10
212.466283
 20
-37.560812
 30
0.0
 40
9.629267
 50
30.197305
 51
96.836
  0
LINE
  5
4E
  8
TEAM-BODY
 10
220.0
 20
0.0
 30
0.0
 11
220.0
 21
-28.0
 31
0.0
  0
ARC
  5
4F
  8
TEAM-BODY
 10
188.0
 20
-42.0
 30
0.0
 40
7.0
 50
0.0
 51
90.0
  0
ARC
  5
50
  8
TEAM-BODY
 10
185.0
 20
-125.0
 30
0.0
 40
10.0
 50
0.0
 51
90.0
  0
ARC
  5
51
  8
TEAM-BODY
 10
188.0
 20
-275.33566
 30
0.0
 40
7.0
 50
274.669056
 51
0.0
  0
LINE
  5
52
  8
TEAM-BODY
 10
195.0
 20
-42.0
 30
0.0
 11
195.0
 21
-275.33566
 31
0.0
  0
ARC
  5
53
  8
TEAM-BODY
 10
-188.0
 20
-42.0
 30
0.0
 40
7.0
 50
90.0
 51
180.0
  0
ARC
  5
54
  8
TEAM-BODY
 10
-185.0
 20
-125.0
 30
0.0
 40
10.0
 50
90.0
 51
180.0
  0
ARC
  5
55
  8
TEAM-BODY
 10
-212.466283
 20
-37.560812
 30
0.0
 40
9.629267
 50
83.164
 51
149.802695
  0
LINE
  5
56
  8
TEAM-BODY
 10
-220.0
 20
0.0
 30
0.0
 11
-220.0
 21
-28.0
 31
0.0
  0
LINE
  5
57
  8
TEAM-BODY
 10
-194.738108
 20
-35.0
 30
0.0
 11
-213.370992
 21
-35.0
 31
0.0
  0
ARC
  5
58
  8
TEAM-BODY
 10
-188.0
 20
-275.33566
 30
0.0
 40
7.0
 50
180.0
 51
265.330944
  0
LINE
  5
59
  8
TEAM-BODY
 10
-195.0
 20
-42.0
 30
0.0
 11
-195.0
 21
-275.33566
 31
0.0
  0
LINE
  5
5A
  8
TEAM-BODY
 10
-185.0
 20
-115.0
 30
0.0
 11
185.0
 21
-115.0
 31
0.0
  0
LINE
  5
5B
  8
TEAM-BODY
 10
-211.320132
 20
-28.0
 30
0.0
 11
211.320132
 21
-28.0
 31
0.0
  0
LINE
  5
5C
  8
TEAM-BODY
 10
-188.0
 20
-35.0
 30
0.0
 11
188.0
 21
-35.0
 31
0.0
  0
ARC
  5
5D
  8
TEAM-BODY
 10
0.0
 20
2026.575472
 30
0.0
 40
2316.575472
 50
265.330944
 51
274.669056
  0
POLYLINE
  5
5E
  8
TEAM-BODY
 66
     1
 10
0.0
 20
0.0
 30
0.0
 70
     1
  0
VERTEX
  5
F5
  8
TEAM-BODY
 10
225.0
 20
0.0
 30
0.0
  0
VERTEX
  5
F6
  8
TEAM-BODY
 10
-225.0
 20
0.0
 30
0.0
  0
VERTEX
  5
F7
  8
TEAM-BODY
 10
-225.0
 20
-275.370661
 30
0.0
 42
0.390649
  0
VERTEX
  5
F8
  8
TEAM-BODY
 10
-190.9981
 20
-312.248994
 30
0.0
 42
0.040582
  0
VERTEX
  5
F9
  8
TEAM-BODY
 10
190.9981
 20
-312.248994
 30
0.0
 42
0.390649
  0
VERTEX
  5
FA
  8
TEAM-BODY
 10
225.0
 20
-275.370661
 30
0.0
  0
SEQEND
  5
FB
  8
TEAM-BODY
  0
TEXT
  5
5F
  8
TEAM-TXT
 10
-138.185706
 20
-266.098868
 30
0.0
 40
30.0
  1
team 221066
 41
0.8
 51
15.0
  7
TEAM
  0
CIRCLE
  5
62
  8
TEAM-INSP
 10
0.0
 20
0.0
 30
0.0
 40
10.0
  0
CIRCLE
  5
64
  8
TEAM-DET1
 10
0.0
 20
-74.259672
 30
0.0
 40
15.0
  0
LINE
  5
66
  8
TEAM-AXE
 10
22.5
 20
-74.259672
 30
0.0
 11
-22.5
 21
-74.259672
 31
0.0
  0
LINE
  5
69
  8
TEAM-AXE
 10
0.0
 20
-51.759672
 30
0.0
 11
0.0
 21
-96.759667
 31
0.0
  0
LINE
  5
6A
  8
TEAM-AXE
 10
45.212708
 20
-165.0
 30
0.0
 11
-44.787292
 21
-165.0
 31
0.0
  0
CIRCLE
  5
6B
  8
TEAM-DET1
 10
0.427754
 20
-165.0
 30
0.0
 40
37.5
  0
ARC
  5
6C
  8
TEAM-BODY
 10
0.427754
 20
-165.0
 30
0.0
 40
23.75
 50
180.0
 51
0.0
  0
ARC
  5
6D
  8
TEAM-BODY
 10
0.427754
 20
-165.0
 30
0.0
 40
23.75
 50
0.0
 51
180.0
  0
LINE
  5
6E
  8
TEAM-AXE
 10
0.427754
 20
-121.0
 30
0.0
 11
0.427754
 21
-211.0
 31
0.0
  0
ENDSEC
  0
EOF
