  0
SECTION
  2
HEADER
  9
$ACADVER
  1
AC1009
  9
$INSBASE
 10
0.0
 20
-200.0
 30
0.0
  9
$EXTMIN
 10
-251.984902
 20
-496.052615
 30
-0.000006
  9
$EXTMAX
 10
295.159064
 20
10.006111
 30
0.0
  9
$LIMMIN
 10
-251.984902
 20
-496.052615
  9
$LIMMAX
 10
295.159064
 20
10.006111
  9
$ORTHOMODE
 70
     1
  9
$REGENMODE
 70
     1
  9
$FILLMODE
 70
     1
  9
$QTEXTMODE
 70
     0
  9
$MIRRTEXT
 70
     0
  9
$DRAGMODE
 70
     2
  9
$LTSCALE
 40
50.0
  9
$OSMODE
 70
     7
  9
$ATTMODE
 70
     1
  9
$TEXTSIZE
 40
200.0
  9
$TRACEWID
 40
1.0
  9
$TEXTSTYLE
  7
STANDARD
  9
$CLAYER
  8
TEAM-MAS
  9
$CELTYPE
  6
BYLAYER
  9
$CECOLOR
 62
   256
  9
$DIMSCALE
 40
1.0
  9
$DIMASZ
 40
20.0
  9
$DIMEXO
 40
10.0
  9
$DIMDLI
 40
1.0
  9
$DIMRND
 40
0.0
  9
$DIMDLE
 40
0.0
  9
$DIMEXE
 40
1.0
  9
$DIMTP
 40
0.0
  9
$DIMTM
 40
0.0
  9
$DIMTXT
 40
35.0
  9
$DIMCEN
 40
1.0
  9
$DIMTSZ
 40
0.0
  9
$DIMTOL
 70
     0
  9
$DIMLIM
 70
     0
  9
$DIMTIH
 70
     0
  9
$DIMTOH
 70
     0
  9
$DIMSE1
 70
     0
  9
$DIMSE2
 70
     0
  9
$DIMTAD
 70
     0
  9
$DIMZIN
 70
     0
  9
$DIMBLK
  1

  9
$DIMASO
 70
     1
  9
$DIMSHO
 70
     0
  9
$DIMPOST
  1

  9
$DIMAPOST
  1

  9
$DIMALT
 70
     0
  9
$DIMALTD
 70
     2
  9
$DIMALTF
 40
25.4
  9
$DIMLFAC
 40
1.0
  9
$DIMTOFL
 70
     0
  9
$DIMTVP
 40
0.0
  9
$DIMTIX
 70
     0
  9
$DIMSOXD
 70
     0
  9
$DIMSAH
 70
     0
  9
$DIMBLK1
  1

  9
$DIMBLK2
  1

  9
$DIMSTYLE
  2
TEAM
  9
$DIMCLRD
 70
     9
  9
$DIMCLRE
 70
     9
  9
$DIMCLRT
 70
    11
  9
$DIMTFAC
 40
1.0
  9
$DIMGAP
 40
7.0
  9
$LUNITS
 70
     2
  9
$LUPREC
 70
     1
  9
$SKETCHINC
 40
1.0
  9
$FILLETRAD
 40
44.0
  9
$AUNITS
 70
     0
  9
$AUPREC
 70
     0
  9
$MENU
  1
ROPLANS
  9
$ELEVATION
 40
0.0
  9
$PELEVATION
 40
0.0
  9
$THICKNESS
 40
0.0
  9
$LIMCHECK
 70
     0
  9
$BLIPMODE
 70
     1
  9
$CHAMFERA
 40
0.0
  9
$CHAMFERB
 40
0.0
  9
$SKPOLY
 70
     0
  9
$TDCREATE
 40
2450392.957851
  9
$TDUPDATE
 40
2455981.928629
  9
$TDINDWG
 40
3.777306
  9
$TDUSRTIMER
 40
3.777306
  9
$USRTIMER
 70
     1
  9
$ANGBASE
 50
0.0
  9
$ANGDIR
 70
     0
  9
$PDMODE
 70
     0
  9
$PDSIZE
 40
0.0
  9
$PLINEWID
 40
0.0
  9
$COORDS
 70
     2
  9
$SPLFRAME
 70
     0
  9
$SPLINETYPE
 70
     6
  9
$SPLINESEGS
 70
     8
  9
$ATTDIA
 70
     0
  9
$ATTREQ
 70
     0
  9
$HANDLING
 70
     1
  9
$HANDSEED
  5
F9
  9
$SURFTAB1
 70
    36
  9
$SURFTAB2
 70
    36
  9
$SURFTYPE
 70
     6
  9
$SURFU
 70
     6
  9
$SURFV
 70
     6
  9
$UCSNAME
  2

  9
$UCSORG
 10
0.0
 20
0.0
 30
0.0
  9
$UCSXDIR
 10
1.0
 20
0.0
 30
0.0
  9
$UCSYDIR
 10
0.0
 20
1.0
 30
0.0
  9
$PUCSNAME
  2

  9
$PUCSORG
 10
0.0
 20
0.0
 30
0.0
  9
$PUCSXDIR
 10
1.0
 20
0.0
 30
0.0
  9
$PUCSYDIR
 10
0.0
 20
1.0
 30
0.0
  9
$USERI1
 70
     0
  9
$USERI2
 70
     0
  9
$USERI3
 70
     0
  9
$USERI4
 70
     0
  9
$USERI5
 70
     0
  9
$USERR1
 40
0.0
  9
$USERR2
 40
0.0
  9
$USERR3
 40
0.0
  9
$USERR4
 40
0.0
  9
$USERR5
 40
0.0
  9
$WORLDVIEW
 70
     1
  9
$SHADEDGE
 70
     0
  9
$SHADEDIF
 70
    70
  9
$TILEMODE
 70
     1
  9
$MAXACTVP
 70
    16
  9
$PLIMCHECK
 70
     0
  9
$PEXTMIN
 10
-0.805942
 20
0.005011
 30
0.0
  9
$PEXTMAX
 10
20.250094
 20
11.356329
 30
0.0
  9
$PLIMMIN
 10
0.0
 20
0.0
  9
$PLIMMAX
 10
12.0
 20
9.0
  9
$UNITMODE
 70
     0
  9
$VISRETAIN
 70
     0
  9
$PLINEGEN
 70
     0
  9
$PSLTSCALE
 70
     0
  0
ENDSEC
  0
SECTION
  2
TABLES
  0
TABLE
  2
VPORT
 70
     2
  0
VPORT
  2
*ACTIVE
 70
     0
 10
0.0
 20
0.0
 11
1.0
 21
1.0
 12
21.587081
 22
-243.023252
 13
0.0
 23
0.0
 14
1.0
 24
1.0
 15
50.0
 25
50.0
 16
0.0
 26
0.0
 36
1.0
 17
0.0
 27
0.0
 37
0.0
 40
509.231508
 41
1.903766
 42
50.0
 43
0.0
 44
0.0
 50
0.0
 51
0.0
 71
     0
 72
   100
 73
     1
 74
     1
 75
     0
 76
     0
 77
     0
 78
     0
  0
ENDTAB
  0
TABLE
  2
LTYPE
 70
     2
  0
LTYPE
  2
CONTINUOUS
 70
     0
  3
Solid Line
 72
    65
 73
     0
 40
0.0
  0
LTYPE
  2
31
 70
     0
  3

 72
    65
 73
     4
 40
2.1
 49
1.5
 49
-0.3
 49
0.0
 49
-0.3
  0
ENDTAB
  0
TABLE
  2
LAYER
 70
     9
  0
LAYER
  2
0
 70
     0
 62
     7
  6
CONTINUOUS
  0
LAYER
  2
DEFPOINTS
 70
     0
 62
     7
  6
CONTINUOUS
  0
LAYER
  2
TEAM-BODY
 70
     0
 62
     2
  6
CONTINUOUS
  0
LAYER
  2
TEAM-AXE
 70
     0
 62
    10
  6
31
  0
LAYER
  2
TEAM-MAS
 70
     0
 62
     9
  6
CONTINUOUS
  0
LAYER
  2
TEAM-TXT
 70
     0
 62
    11
  6
CONTINUOUS
  0
LAYER
  2
TEAM-DET1
 70
     0
 62
     4
  6
CONTINUOUS
  0
LAYER
  2
TEAM-KAN
 70
     0
 62
     6
  6
CONTINUOUS
  0
LAYER
  2
TEAM-INSP
 70
     0
 62
     5
  6
CONTINUOUS
  0
ENDTAB
  0
TABLE
  2
STYLE
 70
     2
  0
STYLE
  2
STANDARD
 70
     0
 40
0.0
 41
1.0
 50
0.0
 71
     0
 42
200.0
  3
txt
  4

  0
STYLE
  2
TEAM
 70
     0
 40
0.0
 41
0.8
 50
15.0
 71
     0
 42
7.0
  3
ROMANS.shx
  4

  0
ENDTAB
  0
TABLE
  2
VIEW
 70
     0
  0
ENDTAB
  0
TABLE
  2
UCS
 70
     0
  0
ENDTAB
  0
TABLE
  2
APPID
 70
     1
  0
APPID
  2
ACAD
 70
     0
  0
ENDTAB
  0
TABLE
  2
DIMSTYLE
 70
     1
  0
DIMSTYLE
  2
TEAM
 70
     0
  3

  4

  5

  6

  7

 40
1.0
 41
20.0
 42
10.0
 43
1.0
 44
1.0
 45
0.0
 46
0.0
 47
0.0
 48
0.0
140
35.0
141
1.0
142
0.0
143
25.4
144
1.0
145
0.0
146
1.0
147
7.0
 71
     0
 72
     0
 73
     0
 74
     0
 75
     0
 76
     0
 77
     0
 78
     0
170
     0
171
     2
172
     0
173
     0
174
     0
175
     0
176
     9
177
     9
178
    11
  0
ENDTAB
  0
ENDSEC
  0
SECTION
  2
BLOCKS
  0
BLOCK
  8
0
  2
$MODEL_SPACE
 70
     0
 10
0.0
 20
0.0
 30
0.0
  3
$MODEL_SPACE
  1

  0
ENDBLK
  5
D0
  8
0
  0
BLOCK
 67
     1
  8
0
  2
$PAPER_SPACE
 70
     0
 10
0.0
 20
0.0
 30
0.0
  3
$PAPER_SPACE
  1

  0
ENDBLK
  5
CE
 67
     1
  8
0
  0
BLOCK
  8
0
  2
*D0
 70
     1
 10
0.0
 20
0.0
 30
0.0
  3
*D0
  1

  0
LINE
  5
3F
  8
0
  6
BYBLOCK
 62
     9
 10
4175.0
 20
139790.0
 30
0.0
 11
4175.0
 21
139565.169325
 31
0.0
  0
LINE
  5
40
  8
0
  6
BYBLOCK
 62
     9
 10
3825.0
 20
139790.0
 30
0.0
 11
3825.0
 21
139565.169325
 31
0.0
  0
LINE
  5
41
  8
0
  6
BYBLOCK
 62
     9
 10
4155.0
 20
139566.169325
 30
0.0
 11
4050.75
 21
139566.169325
 31
0.0
  0
LINE
  5
42
  8
0
  6
BYBLOCK
 62
     9
 10
3845.0
 20
139566.169325
 30
0.0
 11
3949.25
 21
139566.169325
 31
0.0
  0
SOLID
  5
43
  8
0
  6
BYBLOCK
 62
     9
 10
4155.0
 20
139569.502658
 30
0.0
 11
4155.0
 21
139562.835992
 31
0.0
 12
4175.0
 22
139566.169325
 32
0.0
 13
4175.0
 23
139566.169325
 33
0.0
  0
SOLID
  5
44
  8
0
  6
BYBLOCK
 62
     9
 10
3845.0
 20
139569.502658
 30
0.0
 11
3845.0
 21
139562.835992
 31
0.0
 12
3825.0
 22
139566.169325
 32
0.0
 13
3825.0
 23
139566.169325
 33
0.0
  0
TEXT
  5
45
  8
0
  6
BYBLOCK
 62
    11
 10
3956.25
 20
139548.669325
 30
0.0
 40
35.0
  1
350
  0
POINT
  5
46
  8
DEFPOINTS
  6
BYBLOCK
 62
     0
 10
4175.0
 20
139800.0
 30
0.0
  0
POINT
  5
47
  8
DEFPOINTS
  6
BYBLOCK
 62
     0
 10
3825.0
 20
139800.0
 30
0.0
  0
POINT
  5
48
  8
DEFPOINTS
  6
BYBLOCK
 62
     0
 10
3825.0
 20
139566.169325
 30
0.0
  0
ENDBLK
  5
4A
  8
0
  0
BLOCK
  8
0
  2
*D1
 70
     1
 10
0.0
 20
0.0
 30
0.0
  3
*D1
  1

  0
LINE
  5
31
  8
0
  6
BYBLOCK
 62
     9
 10
3800.0
 20
139790.0
 30
0.0
 11
3800.0
 21
139520.454455
 31
0.0
  0
LINE
  5
32
  8
0
  6
BYBLOCK
 62
     9
 10
4200.0
 20
139790.0
 30
0.0
 11
4200.0
 21
139520.454455
 31
0.0
  0
LINE
  5
33
  8
0
  6
BYBLOCK
 62
     9
 10
3820.0
 20
139521.454455
 30
0.0
 11
3952.166667
 21
139521.454455
 31
0.0
  0
LINE
  5
34
  8
0
  6
BYBLOCK
 62
     9
 10
4180.0
 20
139521.454455
 30
0.0
 11
4047.833333
 21
139521.454455
 31
0.0
  0
SOLID
  5
35
  8
0
  6
BYBLOCK
 62
     9
 10
3820.0
 20
139524.787788
 30
0.0
 11
3820.0
 21
139518.121121
 31
0.0
 12
3800.0
 22
139521.454455
 32
0.0
 13
3800.0
 23
139521.454455
 33
0.0
  0
SOLID
  5
36
  8
0
  6
BYBLOCK
 62
     9
 10
4180.0
 20
139524.787788
 30
0.0
 11
4180.0
 21
139518.121121
 31
0.0
 12
4200.0
 22
139521.454455
 32
0.0
 13
4200.0
 23
139521.454455
 33
0.0
  0
TEXT
  5
37
  8
0
  6
BYBLOCK
 62
    11
 10
3959.166667
 20
139503.954455
 30
0.0
 40
35.0
  1
400
  0
POINT
  5
38
  8
DEFPOINTS
  6
BYBLOCK
 62
     0
 10
3800.0
 20
139800.0
 30
0.0
  0
POINT
  5
39
  8
DEFPOINTS
  6
BYBLOCK
 62
     0
 10
4200.0
 20
139800.0
 30
0.0
  0
POINT
  5
3A
  8
DEFPOINTS
  6
BYBLOCK
 62
     0
 10
4200.0
 20
139521.454455
 30
0.0
  0
ENDBLK
  5
3C
  8
0
  0
BLOCK
  8
0
  2
*D2
 70
     1
 10
0.0
 20
0.0
 30
0.0
  3
*D2
  1

  0
LINE
  5
22
  8
0
  6
BYBLOCK
 62
     9
 10
3990.0
 20
139625.0
 30
0.0
 11
3764.516856
 21
139625.0
 31
0.0
  0
LINE
  5
23
  8
0
  6
BYBLOCK
 62
     9
 10
3990.0
 20
139975.0
 30
0.0
 11
3764.516856
 21
139975.0
 31
0.0
  0
LINE
  5
24
  8
0
  6
BYBLOCK
 62
     9
 10
3765.516856
 20
139645.0
 30
0.0
 11
3765.516856
 21
139749.25
 31
0.0
  0
LINE
  5
25
  8
0
  6
BYBLOCK
 62
     9
 10
3765.516856
 20
139955.0
 30
0.0
 11
3765.516856
 21
139850.75
 31
0.0
  0
SOLID
  5
26
  8
0
  6
BYBLOCK
 62
     9
 10
3762.183523
 20
139645.0
 30
0.0
 11
3768.85019
 21
139645.0
 31
0.0
 12
3765.516856
 22
139625.0
 32
0.0
 13
3765.516856
 23
139625.0
 33
0.0
  0
SOLID
  5
27
  8
0
  6
BYBLOCK
 62
     9
 10
3762.183523
 20
139955.0
 30
0.0
 11
3768.85019
 21
139955.0
 31
0.0
 12
3765.516856
 22
139975.0
 32
0.0
 13
3765.516856
 23
139975.0
 33
0.0
  0
TEXT
  5
28
  8
0
  6
BYBLOCK
 62
    11
 10
3783.016856
 20
139756.25
 30
0.0
 40
35.0
  1
350
 50
90.0
  0
POINT
  5
29
  8
DEFPOINTS
  6
BYBLOCK
 62
     0
 10
4000.0
 20
139625.0
 30
0.0
  0
POINT
  5
2B
  8
DEFPOINTS
  6
BYBLOCK
 62
     0
 10
4000.0
 20
139975.0
 30
0.0
  0
POINT
  5
2C
  8
DEFPOINTS
  6
BYBLOCK
 62
     0
 10
3765.516856
 20
139975.0
 30
0.0
  0
ENDBLK
  5
2E
  8
0
  0
BLOCK
  8
0
  2
*D3
 70
     1
 10
0.0
 20
0.0
 30
0.0
  3
*D3
  1

  0
LINE
  5
67
  8
0
  6
BYBLOCK
 62
     9
 10
4010.0
 20
139800.0
 30
0.0
 11
4232.046513
 21
139800.0
 31
0.0
  0
LINE
  5
68
  8
0
  6
BYBLOCK
 62
     9
 10
4010.0
 20
140000.0
 30
0.0
 11
4232.046513
 21
140000.0
 31
0.0
  0
LINE
  5
69
  8
0
  6
BYBLOCK
 62
     9
 10
4231.046513
 20
139820.0
 30
0.0
 11
4231.046513
 21
139852.166667
 31
0.0
  0
LINE
  5
6A
  8
0
  6
BYBLOCK
 62
     9
 10
4231.046513
 20
139980.0
 30
0.0
 11
4231.046513
 21
139947.833333
 31
0.0
  0
SOLID
  5
6B
  8
0
  6
BYBLOCK
 62
     9
 10
4227.71318
 20
139820.0
 30
0.0
 11
4234.379846
 21
139820.0
 31
0.0
 12
4231.046513
 22
139800.0
 32
0.0
 13
4231.046513
 23
139800.0
 33
0.0
  0
SOLID
  5
6C
  8
0
  6
BYBLOCK
 62
     9
 10
4227.71318
 20
139980.0
 30
0.0
 11
4234.379846
 21
139980.0
 31
0.0
 12
4231.046513
 22
140000.0
 32
0.0
 13
4231.046513
 23
140000.0
 33
0.0
  0
TEXT
  5
6D
  8
0
  6
BYBLOCK
 62
    11
 10
4248.546513
 20
139859.166667
 30
0.0
 40
35.0
  1
200
 50
90.0
  0
POINT
  5
6E
  8
DEFPOINTS
  6
BYBLOCK
 62
     0
 10
4000.0
 20
139800.0
 30
0.0
  0
POINT
  5
6F
  8
DEFPOINTS
  6
BYBLOCK
 62
     0
 10
4000.0
 20
140000.0
 30
0.0
  0
POINT
  5
70
  8
DEFPOINTS
  6
BYBLOCK
 62
     0
 10
4231.046513
 20
140000.0
 30
0.0
  0
ENDBLK
  5
72
  8
0
  0
BLOCK
  8
0
  2
*D4
 70
     1
 10
0.0
 20
0.0
 30
0.0
  3
*D4
  1

  0
LINE
  5
53
  8
0
  6
BYBLOCK
 62
     9
 10
4010.0
 20
139600.0
 30
0.0
 11
4278.637558
 21
139600.0
 31
0.0
  0
LINE
  5
54
  8
0
  6
BYBLOCK
 62
     9
 10
4010.0
 20
140000.0
 30
0.0
 11
4278.637558
 21
140000.0
 31
0.0
  0
LINE
  5
55
  8
0
  6
BYBLOCK
 62
     9
 10
4277.637558
 20
139620.0
 30
0.0
 11
4277.637558
 21
139752.166667
 31
0.0
  0
LINE
  5
56
  8
0
  6
BYBLOCK
 62
     9
 10
4277.637558
 20
139980.0
 30
0.0
 11
4277.637558
 21
139847.833333
 31
0.0
  0
SOLID
  5
57
  8
0
  6
BYBLOCK
 62
     9
 10
4274.304225
 20
139620.0
 30
0.0
 11
4280.970891
 21
139620.0
 31
0.0
 12
4277.637558
 22
139600.0
 32
0.0
 13
4277.637558
 23
139600.0
 33
0.0
  0
SOLID
  5
58
  8
0
  6
BYBLOCK
 62
     9
 10
4274.304225
 20
139980.0
 30
0.0
 11
4280.970891
 21
139980.0
 31
0.0
 12
4277.637558
 22
140000.0
 32
0.0
 13
4277.637558
 23
140000.0
 33
0.0
  0
TEXT
  5
59
  8
0
  6
BYBLOCK
 62
    11
 10
4295.137558
 20
139759.166667
 30
0.0
 40
35.0
  1
400
 50
90.0
  0
POINT
  5
5A
  8
DEFPOINTS
  6
BYBLOCK
 62
     0
 10
4000.0
 20
139600.0
 30
0.0
  0
POINT
  5
5B
  8
DEFPOINTS
  6
BYBLOCK
 62
     0
 10
4000.0
 20
140000.0
 30
0.0
  0
POINT
  5
5C
  8
DEFPOINTS
  6
BYBLOCK
 62
     0
 10
4277.637558
 20
140000.0
 30
0.0
  0
ENDBLK
  5
5E
  8
0
  0
ENDSEC
  0
SECTION
  2
ENTITIES
  0
DIMENSION
  5
20
  8
TEAM-MAS
  2
*D2
 10
-234.483144
 20
-25.0
 30
0.0
 11
-234.483144
 21
-200.0
 31
0.0
 12
-4000.0
 22
-140000.0
 32
0.0
 13
0.0
 23
-375.0
 33
0.0
 14
0.0
 24
-25.0
 34
0.0
 50
90.0
1001
ACAD
1000
DSTYLE
1002
{
1070
    40
1040
1.0
1002
}
  0
DIMENSION
  5
2F
  8
TEAM-MAS
  2
*D1
 10
200.0
 20
-478.545545
 30
0.0
 11
0.0
 21
-478.545545
 31
0.0
 12
-4000.0
 22
-140000.0
 32
0.0
 13
-200.0
 23
-200.0
 33
0.0
 14
200.0
 24
-200.0
 34
0.0
1001
ACAD
1000
DSTYLE
1002
{
1070
    40
1040
1.0
1002
}
  0
DIMENSION
  5
3D
  8
TEAM-MAS
  2
*D0
 10
-175.0
 20
-433.830675
 30
0.0
 11
0.0
 21
-433.830675
 31
0.0
 12
-4000.0
 22
-140000.0
 32
0.0
 13
175.0
 23
-200.0
 33
0.0
 14
-175.0
 24
-200.0
 34
0.0
1001
ACAD
1000
DSTYLE
1002
{
1070
    40
1040
1.0
1002
}
  0
CIRCLE
  5
4B
  8
TEAM-BODY
 10
0.0
 20
-200.0
 30
0.0
 40
175.0
  0
CIRCLE
  5
4D
  8
TEAM-BODY
 10
0.0
 20
-200.0
 30
0.0
 40
200.0
  0
TEXT
  5
4E
  8
TEAM-TXT
 10
-124.91523
 20
-288.1316
 30
0.0
 40
30.0
  1
team 233126
 41
0.8
 51
15.0
  7
TEAM
  0
DIMENSION
  5
51
  8
TEAM-MAS
  2
*D4
 10
277.637558
 20
0.0
 30
0.0
 11
277.637558
 21
-200.0
 31
0.0
 12
-4000.0
 22
-140000.0
 32
0.0
 13
0.0
 23
-400.0
 33
0.0
 14
0.0
 24
0.0
 34
0.0
 50
270.0
1001
ACAD
1000
DSTYLE
1002
{
1070
    40
1040
1.0
1002
}
  0
LINE
  5
5F
  8
TEAM-AXE
 10
0.0
 20
-41.06682
 30
0.0
 11
0.0
 21
-30.119544
 31
0.0
  0
LINE
  5
62
  8
TEAM-AXE
 10
20.0
 20
-35.593182
 30
0.0
 11
-20.0
 21
-35.593182
 31
0.0
  0
POLYLINE
  5
63
  8
TEAM-DET1
 66
     1
 10
0.0
 20
0.0
 30
0.0
 70
   129
  0
VERTEX
  5
D6
  8
TEAM-DET1
 10
-20.0
 20
-35.593182
 30
0.0
  0
VERTEX
  5
D7
  8
TEAM-DET1
 10
-19.638574
 20
-36.629075
 30
0.0
  0
VERTEX
  5
D8
  8
TEAM-DET1
 10
-18.567359
 20
-37.627528
 30
0.0
  0
VERTEX
  5
D9
  8
TEAM-DET1
 10
-16.825071
 20
-38.552454
 30
0.0
  0
VERTEX
  5
DA
  8
TEAM-DET1
 10
-14.474681
 20
-39.370425
 30
0.0
  0
VERTEX
  5
DB
  8
TEAM-DET1
 10
-11.601138
 20
-40.051876
 30
0.0
  0
VERTEX
  5
DC
  8
TEAM-DET1
 10
-8.3083
 20
-40.572179
 30
0.0
  0
VERTEX
  5
DD
  8
TEAM-DET1
 10
-4.715179
 20
-40.912527
 30
0.0
  0
VERTEX
  5
DE
  8
TEAM-DET1
 10
-0.951638
 20
-41.060621
 30
0.0
  0
VERTEX
  5
DF
  8
TEAM-DET1
 10
2.846297
 20
-41.011107
 30
0.0
  0
VERTEX
  5
E0
  8
TEAM-DET1
 10
6.541359
 20
-40.765775
 30
0.0
  0
VERTEX
  5
E1
  8
TEAM-DET1
 10
10.0
 20
-40.333492
 30
0.0
  0
VERTEX
  5
E2
  8
TEAM-DET1
 10
13.097215
 20
-39.729882
 30
0.0
  0
VERTEX
  5
E3
  8
TEAM-DET1
 10
15.721062
 20
-38.976761
 30
0.0
  0
VERTEX
  5
E4
  8
TEAM-DET1
 10
17.776709
 20
-38.101348
 30
0.0
  0
VERTEX
  5
E5
  8
TEAM-DET1
 10
19.189859
 20
-37.135284
 30
0.0
  0
VERTEX
  5
E6
  8
TEAM-DET1
 10
19.909438
 20
-36.113484
 30
0.0
  0
VERTEX
  5
E7
  8
TEAM-DET1
 10
19.909438
 20
-35.07288
 30
0.0
  0
VERTEX
  5
E8
  8
TEAM-DET1
 10
19.189859
 20
-34.05108
 30
0.0
  0
VERTEX
  5
E9
  8
TEAM-DET1
 10
17.776709
 20
-33.085016
 30
0.0
  0
VERTEX
  5
EA
  8
TEAM-DET1
 10
15.721062
 20
-32.209603
 30
0.0
  0
VERTEX
  5
EB
  8
TEAM-DET1
 10
13.097215
 20
-31.456482
 30
0.0
  0
VERTEX
  5
EC
  8
TEAM-DET1
 10
10.0
 20
-30.852872
 30
0.0
  0
VERTEX
  5
ED
  8
TEAM-DET1
 10
6.541359
 20
-30.420589
 30
0.0
  0
VERTEX
  5
EE
  8
TEAM-DET1
 10
2.846297
 20
-30.175257
 30
0.0
  0
VERTEX
  5
EF
  8
TEAM-DET1
 10
-0.951638
 20
-30.125744
 30
0.0
  0
VERTEX
  5
F0
  8
TEAM-DET1
 10
-4.715179
 20
-30.273837
 30
0.0
  0
VERTEX
  5
F1
  8
TEAM-DET1
 10
-8.3083
 20
-30.614186
 30
0.0
  0
VERTEX
  5
F2
  8
TEAM-DET1
 10
-11.601138
 20
-31.134488
 30
0.0
  0
VERTEX
  5
F3
  8
TEAM-DET1
 10
-14.474681
 20
-31.815939
 30
0.0
  0
VERTEX
  5
F4
  8
TEAM-DET1
 10
-16.825071
 20
-32.63391
 30
0.0
  0
VERTEX
  5
F5
  8
TEAM-DET1
 10
-18.567359
 20
-33.558836
 30
0.0
  0
VERTEX
  5
F6
  8
TEAM-DET1
 10
-19.638574
 20
-34.557289
 30
0.0
  0
SEQEND
  5
F7
  8
TEAM-DET1
  0
DIMENSION
  5
65
  8
TEAM-MAS
  2
*D3
 10
231.046513
 20
0.0
 30
0.0
 11
231.046513
 21
-100.0
 31
0.0
 12
-4000.0
 22
-140000.0
 32
0.0
 13
0.0
 23
-200.0
 33
0.0
 14
0.0
 24
0.0
 34
0.0
 50
270.0
1001
ACAD
1000
DSTYLE
1002
{
1070
    40
1040
1.0
1002
}
  0
LINE
  5
73
  8
TEAM-AXE
 10
0.0
 20
-235.0
 30
0.0
 11
0.0
 21
-165.0
 31
0.0
  0
LINE
  5
74
  8
TEAM-AXE
 10
35.0
 20
-200.0
 30
0.0
 11
-35.0
 21
-200.0
 31
0.0
  0
CIRCLE
  5
75
  8
TEAM-KAN
 10
0.0
 20
-200.0
 30
0.0
 40
20.0
  0
CIRCLE
  5
77
  8
TEAM-DET1
 10
0.0
 20
-200.0
 30
0.0
 40
30.0
  0
CIRCLE
  5
78
  8
TEAM-INSP
 10
0.0
 20
0.0
 30
0.0
 40
10.0
  0
ENDSEC
  0
EOF
