  0
SECTION
  2
HEADER
  9
$ACADVER
  1
AC1009
  9
$INSBASE
 10
0.0
 20
0.0
 30
0.0
  9
$EXTMIN
 10
-289.905582
 20
-510.246654
 30
0.0
  9
$EXTMAX
 10
465.389921
 20
40.033542
 30
0.0
  9
$LIMMIN
 10
-289.905582
 20
-510.246654
  9
$LIMMAX
 10
465.389921
 20
40.033542
  9
$ORTHOMODE
 70
     1
  9
$REGENMODE
 70
     1
  9
$FILLMODE
 70
     1
  9
$QTEXTMODE
 70
     0
  9
$MIRRTEXT
 70
     0
  9
$DRAGMODE
 70
     2
  9
$LTSCALE
 40
25.0
  9
$OSMODE
 70
     0
  9
$ATTMODE
 70
     1
  9
$TEXTSIZE
 40
200.0
  9
$TRACEWID
 40
1.0
  9
$TEXTSTYLE
  7
STANDARD
  9
$CLAYER
  8
TEAM-MAS
  9
$CELTYPE
  6
BYLAYER
  9
$CECOLOR
 62
   256
  9
$DIMSCALE
 40
1.0
  9
$DIMASZ
 40
20.0
  9
$DIMEXO
 40
10.0
  9
$DIMDLI
 40
1.0
  9
$DIMRND
 40
0.0
  9
$DIMDLE
 40
0.0
  9
$DIMEXE
 40
1.0
  9
$DIMTP
 40
0.0
  9
$DIMTM
 40
0.0
  9
$DIMTXT
 40
35.0
  9
$DIMCEN
 40
1.0
  9
$DIMTSZ
 40
0.0
  9
$DIMTOL
 70
     0
  9
$DIMLIM
 70
     0
  9
$DIMTIH
 70
     0
  9
$DIMTOH
 70
     0
  9
$DIMSE1
 70
     0
  9
$DIMSE2
 70
     0
  9
$DIMTAD
 70
     0
  9
$DIMZIN
 70
     0
  9
$DIMBLK
  1

  9
$DIMASO
 70
     1
  9
$DIMSHO
 70
     0
  9
$DIMPOST
  1

  9
$DIMAPOST
  1

  9
$DIMALT
 70
     0
  9
$DIMALTD
 70
     2
  9
$DIMALTF
 40
25.4
  9
$DIMLFAC
 40
1.0
  9
$DIMTOFL
 70
     0
  9
$DIMTVP
 40
0.0
  9
$DIMTIX
 70
     0
  9
$DIMSOXD
 70
     0
  9
$DIMSAH
 70
     0
  9
$DIMBLK1
  1

  9
$DIMBLK2
  1

  9
$DIMSTYLE
  2
TEAM
  9
$DIMCLRD
 70
     9
  9
$DIMCLRE
 70
     9
  9
$DIMCLRT
 70
    11
  9
$DIMTFAC
 40
1.0
  9
$DIMGAP
 40
15.0
  9
$LUNITS
 70
     2
  9
$LUPREC
 70
     1
  9
$SKETCHINC
 40
1.0
  9
$FILLETRAD
 40
50.0
  9
$AUNITS
 70
     0
  9
$AUPREC
 70
     0
  9
$MENU
  1
ROPLANS
  9
$ELEVATION
 40
0.0
  9
$PELEVATION
 40
0.0
  9
$THICKNESS
 40
0.0
  9
$LIMCHECK
 70
     0
  9
$BLIPMODE
 70
     1
  9
$CHAMFERA
 40
0.0
  9
$CHAMFERB
 40
0.0
  9
$SKPOLY
 70
     0
  9
$TDCREATE
 40
2450392.957851
  9
$TDUPDATE
 40
2455505.473099
  9
$TDINDWG
 40
2.023557
  9
$TDUSRTIMER
 40
2.023557
  9
$USRTIMER
 70
     1
  9
$ANGBASE
 50
0.0
  9
$ANGDIR
 70
     0
  9
$PDMODE
 70
     0
  9
$PDSIZE
 40
0.0
  9
$PLINEWID
 40
0.0
  9
$COORDS
 70
     2
  9
$SPLFRAME
 70
     0
  9
$SPLINETYPE
 70
     6
  9
$SPLINESEGS
 70
     8
  9
$ATTDIA
 70
     0
  9
$ATTREQ
 70
     0
  9
$HANDLING
 70
     1
  9
$HANDSEED
  5
37B
  9
$SURFTAB1
 70
    24
  9
$SURFTAB2
 70
    24
  9
$SURFTYPE
 70
     6
  9
$SURFU
 70
     6
  9
$SURFV
 70
     6
  9
$UCSNAME
  2

  9
$UCSORG
 10
0.0
 20
0.0
 30
0.0
  9
$UCSXDIR
 10
1.0
 20
0.0
 30
0.0
  9
$UCSYDIR
 10
0.0
 20
1.0
 30
0.0
  9
$PUCSNAME
  2

  9
$PUCSORG
 10
0.0
 20
0.0
 30
0.0
  9
$PUCSXDIR
 10
1.0
 20
0.0
 30
0.0
  9
$PUCSYDIR
 10
0.0
 20
1.0
 30
0.0
  9
$USERI1
 70
     0
  9
$USERI2
 70
     0
  9
$USERI3
 70
     0
  9
$USERI4
 70
     0
  9
$USERI5
 70
     0
  9
$USERR1
 40
0.0
  9
$USERR2
 40
0.0
  9
$USERR3
 40
0.0
  9
$USERR4
 40
0.0
  9
$USERR5
 40
0.0
  9
$WORLDVIEW
 70
     1
  9
$SHADEDGE
 70
     0
  9
$SHADEDIF
 70
    70
  9
$TILEMODE
 70
     1
  9
$MAXACTVP
 70
    16
  9
$PLIMCHECK
 70
     0
  9
$PEXTMIN
 10
-0.805942
 20
0.005011
 30
0.0
  9
$PEXTMAX
 10
20.250094
 20
11.356329
 30
0.0
  9
$PLIMMIN
 10
0.0
 20
0.0
  9
$PLIMMAX
 10
12.0
 20
9.0
  9
$UNITMODE
 70
     0
  9
$VISRETAIN
 70
     0
  9
$PLINEGEN
 70
     0
  9
$PSLTSCALE
 70
     0
  0
ENDSEC
  0
SECTION
  2
TABLES
  0
TABLE
  2
VPORT
 70
     2
  0
VPORT
  2
*ACTIVE
 70
     0
 10
0.0
 20
0.0
 11
1.0
 21
1.0
 12
87.742169
 22
-235.106556
 13
0.0
 23
0.0
 14
1.0
 24
1.0
 15
50.0
 25
50.0
 16
0.0
 26
0.0
 36
1.0
 17
0.0
 27
0.0
 37
0.0
 40
553.659604
 41
1.865779
 42
50.0
 43
0.0
 44
0.0
 50
0.0
 51
0.0
 71
     0
 72
   100
 73
     1
 74
     1
 75
     0
 76
     0
 77
     0
 78
     0
  0
ENDTAB
  0
TABLE
  2
LTYPE
 70
     2
  0
LTYPE
  2
CONTINUOUS
 70
     0
  3
Solid Line
 72
    65
 73
     0
 40
0.0
  0
LTYPE
  2
31
 70
     0
  3

 72
    65
 73
     4
 40
2.1
 49
1.5
 49
-0.3
 49
0.0
 49
-0.3
  0
ENDTAB
  0
TABLE
  2
LAYER
 70
     9
  0
LAYER
  2
0
 70
     0
 62
     7
  6
CONTINUOUS
  0
LAYER
  2
DEFPOINTS
 70
     0
 62
     7
  6
CONTINUOUS
  0
LAYER
  2
TEAM-BODY
 70
     0
 62
     2
  6
CONTINUOUS
  0
LAYER
  2
TEAM-AXE
 70
     0
 62
    10
  6
31
  0
LAYER
  2
TEAM-MAS
 70
     0
 62
     9
  6
CONTINUOUS
  0
LAYER
  2
TEAM-TXT
 70
     0
 62
    11
  6
CONTINUOUS
  0
LAYER
  2
TEAM-DET1
 70
     0
 62
     4
  6
CONTINUOUS
  0
LAYER
  2
TEAM-KAN
 70
     0
 62
     6
  6
CONTINUOUS
  0
LAYER
  2
TEAM-INSP
 70
     0
 62
     5
  6
CONTINUOUS
  0
ENDTAB
  0
TABLE
  2
STYLE
 70
     2
  0
STYLE
  2
STANDARD
 70
     0
 40
0.0
 41
1.0
 50
0.0
 71
     0
 42
200.0
  3
txt
  4

  0
STYLE
  2
TEAM
 70
     0
 40
0.0
 41
0.8
 50
15.0
 71
     0
 42
7.0
  3
ROMANS.shx
  4

  0
ENDTAB
  0
TABLE
  2
VIEW
 70
     0
  0
ENDTAB
  0
TABLE
  2
UCS
 70
     0
  0
ENDTAB
  0
TABLE
  2
APPID
 70
     1
  0
APPID
  2
ACAD
 70
     0
  0
ENDTAB
  0
TABLE
  2
DIMSTYLE
 70
     1
  0
DIMSTYLE
  2
TEAM
 70
     0
  3

  4

  5

  6

  7

 40
1.0
 41
20.0
 42
10.0
 43
1.0
 44
1.0
 45
0.0
 46
0.0
 47
0.0
 48
0.0
140
35.0
141
1.0
142
0.0
143
25.4
144
1.0
145
0.0
146
1.0
147
15.0
 71
     0
 72
     0
 73
     0
 74
     0
 75
     0
 76
     0
 77
     0
 78
     0
170
     0
171
     2
172
     0
173
     0
174
     0
175
     0
176
     9
177
     9
178
    11
  0
ENDTAB
  0
ENDSEC
  0
SECTION
  2
BLOCKS
  0
BLOCK
  8
0
  2
$MODEL_SPACE
 70
     0
 10
0.0
 20
0.0
 30
0.0
  3
$MODEL_SPACE
  1

  0
ENDBLK
  5
374
  8
0
  0
BLOCK
 67
     1
  8
0
  2
$PAPER_SPACE
 70
     0
 10
0.0
 20
0.0
 30
0.0
  3
$PAPER_SPACE
  1

  0
ENDBLK
  5
372
 67
     1
  8
0
  0
BLOCK
  8
0
  2
*D0
 70
     1
 10
0.0
 20
0.0
 30
0.0
  3
*D0
  1

  0
LINE
  5
4C
  8
0
  6
BYBLOCK
 62
     9
 10
12291.891128
 20
448000.0
 30
0.0
 11
12380.930714
 21
448000.0
 31
0.0
  0
LINE
  5
4D
  8
0
  6
BYBLOCK
 62
     9
 10
12051.666666
 20
447850.33403
 30
0.0
 11
12380.930714
 21
447850.33403
 31
0.0
  0
LINE
  5
4E
  8
0
  6
BYBLOCK
 62
     9
 10
12379.930714
 20
448020.0
 30
0.0
 11
12379.930714
 21
448040.0
 31
0.0
  0
LINE
  5
4F
  8
0
  6
BYBLOCK
 62
     9
 10
12379.930714
 20
447830.33403
 30
0.0
 11
12379.930714
 21
447810.33403
 31
0.0
  0
SOLID
  5
50
  8
0
  6
BYBLOCK
 62
     9
 10
12376.597381
 20
448020.0
 30
0.0
 11
12383.264048
 21
448020.0
 31
0.0
 12
12379.930714
 22
448000.0
 32
0.0
 13
12379.930714
 23
448000.0
 33
0.0
  0
SOLID
  5
51
  8
0
  6
BYBLOCK
 62
     9
 10
12376.597381
 20
447830.33403
 30
0.0
 11
12383.264048
 21
447830.33403
 31
0.0
 12
12379.930714
 22
447850.33403
 32
0.0
 13
12379.930714
 23
447850.33403
 33
0.0
  0
TEXT
  5
52
  8
0
  6
BYBLOCK
 62
    11
 10
12397.430714
 20
447891.903235
 30
0.0
 40
35.0
  1
150
 50
90.0
  0
POINT
  5
53
  8
DEFPOINTS
  6
BYBLOCK
 62
     0
 10
12281.891128
 20
448000.0
 30
0.0
  0
POINT
  5
54
  8
DEFPOINTS
  6
BYBLOCK
 62
     0
 10
12041.666666
 20
447850.33403
 30
0.0
  0
POINT
  5
55
  8
DEFPOINTS
  6
BYBLOCK
 62
     0
 10
12379.930714
 20
447850.33403
 30
0.0
  0
ENDBLK
  5
57
  8
0
  0
BLOCK
  8
0
  2
*D1
 70
     1
 10
0.0
 20
0.0
 30
0.0
  3
*D1
  1

  0
LINE
  5
3E
  8
0
  6
BYBLOCK
 62
     9
 10
11710.140466
 20
447612.414325
 30
0.0
 11
11710.140466
 21
447505.97422
 31
0.0
  0
LINE
  5
3F
  8
0
  6
BYBLOCK
 62
     9
 10
12289.862396
 20
447612.414367
 30
0.0
 11
12289.862396
 21
447505.97422
 31
0.0
  0
LINE
  5
40
  8
0
  6
BYBLOCK
 62
     9
 10
11730.140466
 20
447506.97422
 30
0.0
 11
11953.487651
 21
447506.97422
 31
0.0
  0
LINE
  5
41
  8
0
  6
BYBLOCK
 62
     9
 10
12269.862396
 20
447506.97422
 30
0.0
 11
12046.51521
 21
447506.97422
 31
0.0
  0
SOLID
  5
42
  8
0
  6
BYBLOCK
 62
     9
 10
11730.140466
 20
447510.307553
 30
0.0
 11
11730.140466
 21
447503.640887
 31
0.0
 12
11710.140466
 22
447506.97422
 32
0.0
 13
11710.140466
 23
447506.97422
 33
0.0
  0
SOLID
  5
43
  8
0
  6
BYBLOCK
 62
     9
 10
12269.862396
 20
447510.307553
 30
0.0
 11
12269.862396
 21
447503.640887
 31
0.0
 12
12289.862396
 22
447506.97422
 32
0.0
 13
12289.862396
 23
447506.97422
 33
0.0
  0
TEXT
  5
44
  8
0
  6
BYBLOCK
 62
    11
 10
11963.237651
 20
447489.47422
 30
0.0
 40
35.0
  1
580
  0
POINT
  5
45
  8
DEFPOINTS
  6
BYBLOCK
 62
     0
 10
11710.140466
 20
447622.414325
 30
0.0
  0
POINT
  5
46
  8
DEFPOINTS
  6
BYBLOCK
 62
     0
 10
12289.862396
 20
447622.414367
 30
0.0
  0
POINT
  5
47
  8
DEFPOINTS
  6
BYBLOCK
 62
     0
 10
12289.862396
 20
447506.97422
 30
0.0
  0
ENDBLK
  5
49
  8
0
  0
BLOCK
  8
0
  2
*D2
 70
     1
 10
0.0
 20
0.0
 30
0.0
  3
*D2
  1

  0
LINE
  5
22
  8
0
  6
BYBLOCK
 62
     9
 10
12360.116585
 20
448000.0
 30
0.0
 11
12449.156172
 21
448000.0
 31
0.0
  0
LINE
  5
23
  8
0
  6
BYBLOCK
 62
     9
 10
12275.285401
 20
447584.732785
 30
0.0
 11
12449.156172
 21
447584.732785
 31
0.0
  0
LINE
  5
24
  8
0
  6
BYBLOCK
 62
     9
 10
12448.156172
 20
447980.0
 30
0.0
 11
12448.156172
 21
447837.841266
 31
0.0
  0
LINE
  5
25
  8
0
  6
BYBLOCK
 62
     9
 10
12448.156172
 20
447604.732785
 30
0.0
 11
12448.156172
 21
447746.891519
 31
0.0
  0
SOLID
  5
26
  8
0
  6
BYBLOCK
 62
     9
 10
12444.822838
 20
447980.0
 30
0.0
 11
12451.489505
 21
447980.0
 31
0.0
 12
12448.156172
 22
448000.0
 32
0.0
 13
12448.156172
 23
448000.0
 33
0.0
  0
SOLID
  5
27
  8
0
  6
BYBLOCK
 62
     9
 10
12444.822838
 20
447604.732785
 30
0.0
 11
12451.489505
 21
447604.732785
 31
0.0
 12
12448.156172
 22
447584.732785
 32
0.0
 13
12448.156172
 23
447584.732785
 33
0.0
  0
TEXT
  5
28
  8
0
  6
BYBLOCK
 62
    11
 10
12465.656172
 20
447756.641519
 30
0.0
 40
35.0
  1
415
 50
90.0
  0
POINT
  5
29
  8
DEFPOINTS
  6
BYBLOCK
 62
     0
 10
12350.116585
 20
448000.0
 30
0.0
  0
POINT
  5
2B
  8
DEFPOINTS
  6
BYBLOCK
 62
     0
 10
12265.285401
 20
447584.732785
 30
0.0
  0
POINT
  5
2C
  8
DEFPOINTS
  6
BYBLOCK
 62
     0
 10
12448.156172
 20
447584.732785
 30
0.0
  0
ENDBLK
  5
2E
  8
0
  0
ENDSEC
  0
SECTION
  2
ENTITIES
  0
DIMENSION
  5
20
  8
TEAM-MAS
  2
*D2
 10
448.156172
 20
-415.267215
 30
0.0
 11
448.156172
 21
-207.633608
 31
0.0
 12
-12000.0
 22
-448000.0
 32
0.0
 13
350.116585
 23
0.0
 33
0.0
 14
265.285401
 24
-415.267215
 34
0.0
 50
90.0
1001
ACAD
1000
DSTYLE
1002
{
1070
    40
1040
1.0
1002
}
  0
CIRCLE
  5
2F
  8
TEAM-KAN
 10
0.0
 20
-149.66597
 30
0.0
 40
30.0
  0
CIRCLE
  5
31
  8
TEAM-DET1
 10
0.0
 20
-149.66597
 30
0.0
 40
40.0
  0
LINE
  5
33
  8
TEAM-AXE
 10
-41.666666
 20
-149.66597
 30
0.0
 11
41.666666
 21
-149.66597
 31
0.0
  0
LINE
  5
36
  8
TEAM-AXE
 10
0.0
 20
-107.999304
 30
0.0
 11
0.0
 21
-191.332636
 31
0.0
  0
TEXT
  5
37
  8
TEAM-TXT
 10
-164.81595
 20
-264.076638
 30
0.0
 40
24.999999
  1
team 234051
 41
0.8
 51
15.0
  7
TEAM
  0
CIRCLE
  5
3A
  8
TEAM-INSP
 10
0.0
 20
0.0
 30
0.0
 40
7.1
  0
DIMENSION
  5
3C
  8
TEAM-MAS
  2
*D1
 10
289.862396
 20
-493.02578
 30
0.0
 11
0.001431
 21
-493.02578
 31
0.0
 12
-12000.0
 22
-448000.0
 32
0.0
 13
-289.859534
 23
-377.585675
 33
0.0
 14
289.862396
 24
-377.585633
 34
0.0
1001
ACAD
1000
DSTYLE
1002
{
1070
    40
1040
1.0
1002
}
  0
DIMENSION
  5
4A
  8
TEAM-MAS
  2
*D0
 10
379.930714
 20
-149.66597
 30
0.0
 11
379.930714
 21
-74.832985
 31
0.0
 12
-12000.0
 22
-448000.0
 32
0.0
 13
281.891128
 23
0.0
 33
0.0
 14
41.666666
 24
-149.66597
 34
0.0
 50
90.0
1001
ACAD
1000
DSTYLE
1002
{
1070
    40
1040
1.0
1002
}
  0
POLYLINE
  5
58
  8
TEAM-BODY
 66
     1
 10
0.0
 20
0.0
 30
0.0
 70
    12
 75
     6
  0
VERTEX
  5
59
  8
TEAM-BODY
 10
-244.869332
 20
-57.742569
 30
0.0
 70
    48
  0
VERTEX
  5
5A
  8
TEAM-BODY
 10
-244.869332
 20
-57.742569
 30
0.0
 70
    40
  0
VERTEX
  5
5B
  8
TEAM-BODY
 10
-244.774182
 20
-55.917013
 30
0.0
 70
    40
  0
VERTEX
  5
5C
  8
TEAM-BODY
 10
-244.506818
 20
-54.359958
 30
0.0
 70
    40
  0
VERTEX
  5
5D
  8
TEAM-BODY
 10
-244.094367
 20
-53.047286
 30
0.0
 70
    40
  0
VERTEX
  5
5E
  8
TEAM-BODY
 10
-243.563956
 20
-51.954878
 30
0.0
 70
    40
  0
VERTEX
  5
5F
  8
TEAM-BODY
 10
-242.942714
 20
-51.058615
 30
0.0
 70
    40
  0
VERTEX
  5
60
  8
TEAM-BODY
 10
-242.257767
 20
-50.334378
 30
0.0
 70
    40
  0
VERTEX
  5
61
  8
TEAM-BODY
 10
-241.536242
 20
-49.75805
 30
0.0
 70
    40
  0
VERTEX
  5
62
  8
TEAM-BODY
 10
-240.805268
 20
-49.305511
 30
0.0
 70
    40
  0
VERTEX
  5
63
  8
TEAM-BODY
 10
-240.08879
 20
-48.954587
 30
0.0
 70
    40
  0
VERTEX
  5
64
  8
TEAM-BODY
 10
-239.398029
 20
-48.690874
 30
0.0
 70
    40
  0
VERTEX
  5
65
  8
TEAM-BODY
 10
-238.741024
 20
-48.501915
 30
0.0
 70
    40
  0
VERTEX
  5
66
  8
TEAM-BODY
 10
-238.125816
 20
-48.37525
 30
0.0
 70
    40
  0
VERTEX
  5
67
  8
TEAM-BODY
 10
-237.560443
 20
-48.29842
 30
0.0
 70
    40
  0
VERTEX
  5
68
  8
TEAM-BODY
 10
-237.052945
 20
-48.258967
 30
0.0
 70
    40
  0
VERTEX
  5
69
  8
TEAM-BODY
 10
-236.611361
 20
-48.244431
 30
0.0
 70
    40
  0
VERTEX
  5
6A
  8
TEAM-BODY
 10
-236.243732
 20
-48.242355
 30
0.0
 70
    40
  0
VERTEX
  5
6B
  8
TEAM-BODY
 10
-235.801979
 20
-48.242355
 30
0.0
 70
    40
  0
VERTEX
  5
6C
  8
TEAM-BODY
 10
-234.51356
 20
-48.242355
 30
0.0
 70
    40
  0
VERTEX
  5
6D
  8
TEAM-BODY
 10
-231.449818
 20
-48.242355
 30
0.0
 70
    40
  0
VERTEX
  5
6E
  8
TEAM-BODY
 10
-225.682093
 20
-48.242355
 30
0.0
 70
    40
  0
VERTEX
  5
6F
  8
TEAM-BODY
 10
-216.281727
 20
-48.242355
 30
0.0
 70
    40
  0
VERTEX
  5
70
  8
TEAM-BODY
 10
-202.320062
 20
-48.242355
 30
0.0
 70
    40
  0
VERTEX
  5
71
  8
TEAM-BODY
 10
-182.868437
 20
-48.242355
 30
0.0
 70
    40
  0
VERTEX
  5
72
  8
TEAM-BODY
 10
-156.998196
 20
-48.242355
 30
0.0
 70
    40
  0
VERTEX
  5
73
  8
TEAM-BODY
 10
-124.241592
 20
-48.242355
 30
0.0
 70
    40
  0
VERTEX
  5
74
  8
TEAM-BODY
 10
-85.974531
 20
-48.242355
 30
0.0
 70
    40
  0
VERTEX
  5
75
  8
TEAM-BODY
 10
-44.033833
 20
-48.242355
 30
0.0
 70
    40
  0
VERTEX
  5
76
  8
TEAM-BODY
 10
-0.256315
 20
-48.242355
 30
0.0
 70
    40
  0
VERTEX
  5
77
  8
TEAM-BODY
 10
43.521203
 20
-48.242355
 30
0.0
 70
    40
  0
VERTEX
  5
78
  8
TEAM-BODY
 10
85.461901
 20
-48.242355
 30
0.0
 70
    40
  0
VERTEX
  5
79
  8
TEAM-BODY
 10
123.728962
 20
-48.242355
 30
0.0
 70
    40
  0
VERTEX
  5
7A
  8
TEAM-BODY
 10
156.485566
 20
-48.242355
 30
0.0
 70
    40
  0
VERTEX
  5
7B
  8
TEAM-BODY
 10
182.355806
 20
-48.242355
 30
0.0
 70
    40
  0
VERTEX
  5
7C
  8
TEAM-BODY
 10
201.807417
 20
-48.242355
 30
0.0
 70
    40
  0
VERTEX
  5
7D
  8
TEAM-BODY
 10
215.769049
 20
-48.242355
 30
0.0
 70
    40
  0
VERTEX
  5
7E
  8
TEAM-BODY
 10
225.16935
 20
-48.242355
 30
0.0
 70
    40
  0
VERTEX
  5
7F
  8
TEAM-BODY
 10
230.936967
 20
-48.242355
 30
0.0
 70
    40
  0
VERTEX
  5
80
  8
TEAM-BODY
 10
234.000548
 20
-48.242355
 30
0.0
 70
    40
  0
VERTEX
  5
81
  8
TEAM-BODY
 10
235.288741
 20
-48.242355
 30
0.0
 70
    40
  0
VERTEX
  5
82
  8
TEAM-BODY
 10
235.730194
 20
-48.242355
 30
0.0
 70
    40
  0
VERTEX
  5
83
  8
TEAM-BODY
 10
236.096755
 20
-48.243739
 30
0.0
 70
    40
  0
VERTEX
  5
84
  8
TEAM-BODY
 10
236.53307
 20
-48.25343
 30
0.0
 70
    40
  0
VERTEX
  5
85
  8
TEAM-BODY
 10
237.026982
 20
-48.279732
 30
0.0
 70
    40
  0
VERTEX
  5
86
  8
TEAM-BODY
 10
237.566338
 20
-48.330951
 30
0.0
 70
    40
  0
VERTEX
  5
87
  8
TEAM-BODY
 10
238.138981
 20
-48.415395
 30
0.0
 70
    40
  0
VERTEX
  5
88
  8
TEAM-BODY
 10
238.732757
 20
-48.541368
 30
0.0
 70
    40
  0
VERTEX
  5
89
  8
TEAM-BODY
 10
239.335512
 20
-48.717176
 30
0.0
 70
    40
  0
VERTEX
  5
8A
  8
TEAM-BODY
 10
239.935089
 20
-48.951126
 30
0.0
 70
    40
  0
VERTEX
  5
8B
  8
TEAM-BODY
 10
240.520292
 20
-49.249078
 30
0.0
 70
    40
  0
VERTEX
  5
8C
  8
TEAM-BODY
 10
241.083758
 20
-49.607115
 30
0.0
 70
    40
  0
VERTEX
  5
8D
  8
TEAM-BODY
 10
241.61908
 20
-50.018874
 30
0.0
 70
    40
  0
VERTEX
  5
8E
  8
TEAM-BODY
 10
242.119854
 20
-50.477992
 30
0.0
 70
    40
  0
VERTEX
  5
8F
  8
TEAM-BODY
 10
242.579674
 20
-50.978107
 30
0.0
 70
    40
  0
VERTEX
  5
90
  8
TEAM-BODY
 10
242.992134
 20
-51.512857
 30
0.0
 70
    40
  0
VERTEX
  5
91
  8
TEAM-BODY
 10
243.350829
 20
-52.075878
 30
0.0
 70
    40
  0
VERTEX
  5
92
  8
TEAM-BODY
 10
243.649353
 20
-52.660807
 30
0.0
 70
    40
  0
VERTEX
  5
93
  8
TEAM-BODY
 10
243.883756
 20
-53.260312
 30
0.0
 70
    40
  0
VERTEX
  5
94
  8
TEAM-BODY
 10
244.059905
 20
-53.86317
 30
0.0
 70
    40
  0
VERTEX
  5
95
  8
TEAM-BODY
 10
244.186122
 20
-54.45719
 30
0.0
 70
    40
  0
VERTEX
  5
96
  8
TEAM-BODY
 10
244.270729
 20
-55.030178
 30
0.0
 70
    40
  0
VERTEX
  5
97
  8
TEAM-BODY
 10
244.322048
 20
-55.569943
 30
0.0
 70
    40
  0
VERTEX
  5
98
  8
TEAM-BODY
 10
244.348401
 20
-56.064292
 30
0.0
 70
    40
  0
VERTEX
  5
99
  8
TEAM-BODY
 10
244.35811
 20
-56.501032
 30
0.0
 70
    40
  0
VERTEX
  5
9A
  8
TEAM-BODY
 10
244.359498
 20
-56.867971
 30
0.0
 70
    40
  0
VERTEX
  5
9B
  8
TEAM-BODY
 10
244.359498
 20
-57.255108
 30
0.0
 70
    40
  0
VERTEX
  5
9C
  8
TEAM-BODY
 10
244.359498
 20
-58.161207
 30
0.0
 70
    40
  0
VERTEX
  5
9D
  8
TEAM-BODY
 10
244.359498
 20
-60.187223
 30
0.0
 70
    40
  0
VERTEX
  5
9E
  8
TEAM-BODY
 10
244.359498
 20
-63.934113
 30
0.0
 70
    40
  0
VERTEX
  5
9F
  8
TEAM-BODY
 10
244.359498
 20
-70.002833
 30
0.0
 70
    40
  0
VERTEX
  5
A0
  8
TEAM-BODY
 10
244.359498
 20
-78.994336
 30
0.0
 70
    40
  0
VERTEX
  5
A1
  8
TEAM-BODY
 10
244.359498
 20
-91.509581
 30
0.0
 70
    40
  0
VERTEX
  5
A2
  8
TEAM-BODY
 10
244.359498
 20
-108.149521
 30
0.0
 70
    40
  0
VERTEX
  5
A3
  8
TEAM-BODY
 10
244.359498
 20
-129.218052
 30
0.0
 70
    40
  0
VERTEX
  5
A4
  8
TEAM-BODY
 10
244.359498
 20
-153.830822
 30
0.0
 70
    40
  0
VERTEX
  5
A5
  8
TEAM-BODY
 10
244.359498
 20
-180.806418
 30
0.0
 70
    40
  0
VERTEX
  5
A6
  8
TEAM-BODY
 10
244.359498
 20
-208.963426
 30
0.0
 70
    40
  0
VERTEX
  5
A7
  8
TEAM-BODY
 10
244.359498
 20
-237.120435
 30
0.0
 70
    40
  0
VERTEX
  5
A8
  8
TEAM-BODY
 10
244.359498
 20
-264.096031
 30
0.0
 70
    40
  0
VERTEX
  5
A9
  8
TEAM-BODY
 10
244.359498
 20
-288.708801
 30
0.0
 70
    40
  0
VERTEX
  5
AA
  8
TEAM-BODY
 10
244.359498
 20
-309.777332
 30
0.0
 70
    40
  0
VERTEX
  5
AB
  8
TEAM-BODY
 10
244.359498
 20
-326.417271
 30
0.0
 70
    40
  0
VERTEX
  5
AC
  8
TEAM-BODY
 10
244.359498
 20
-338.932509
 30
0.0
 70
    40
  0
VERTEX
  5
AD
  8
TEAM-BODY
 10
244.359498
 20
-347.923996
 30
0.0
 70
    40
  0
VERTEX
  5
AE
  8
TEAM-BODY
 10
244.359498
 20
-353.992681
 30
0.0
 70
    40
  0
VERTEX
  5
AF
  8
TEAM-BODY
 10
244.359498
 20
-357.739516
 30
0.0
 70
    40
  0
VERTEX
  5
B0
  8
TEAM-BODY
 10
244.359498
 20
-359.765449
 30
0.0
 70
    40
  0
VERTEX
  5
B1
  8
TEAM-BODY
 10
244.359498
 20
-360.671432
 30
0.0
 70
    40
  0
VERTEX
  5
B2
  8
TEAM-BODY
 10
244.359498
 20
-361.058414
 30
0.0
 70
    40
  0
VERTEX
  5
B3
  8
TEAM-BODY
 10
244.35811
 20
-361.425158
 30
0.0
 70
    40
  0
VERTEX
  5
B4
  8
TEAM-BODY
 10
244.348401
 20
-361.86167
 30
0.0
 70
    40
  0
VERTEX
  5
B5
  8
TEAM-BODY
 10
244.322048
 20
-362.355768
 30
0.0
 70
    40
  0
VERTEX
  5
B6
  8
TEAM-BODY
 10
244.270729
 20
-362.895271
 30
0.0
 70
    40
  0
VERTEX
  5
B7
  8
TEAM-BODY
 10
244.186122
 20
-363.467999
 30
0.0
 70
    40
  0
VERTEX
  5
B8
  8
TEAM-BODY
 10
244.059905
 20
-364.061768
 30
0.0
 70
    40
  0
VERTEX
  5
B9
  8
TEAM-BODY
 10
243.883756
 20
-364.664398
 30
0.0
 70
    40
  0
VERTEX
  5
BA
  8
TEAM-BODY
 10
243.649353
 20
-365.263707
 30
0.0
 70
    40
  0
VERTEX
  5
BB
  8
TEAM-BODY
 10
243.350829
 20
-365.848483
 30
0.0
 70
    40
  0
VERTEX
  5
BC
  8
TEAM-BODY
 10
242.992134
 20
-366.411388
 30
0.0
 70
    40
  0
VERTEX
  5
BD
  8
TEAM-BODY
 10
242.579674
 20
-366.946054
 30
0.0
 70
    40
  0
VERTEX
  5
BE
  8
TEAM-BODY
 10
242.119854
 20
-367.446114
 30
0.0
 70
    40
  0
VERTEX
  5
BF
  8
TEAM-BODY
 10
241.61908
 20
-367.905199
 30
0.0
 70
    40
  0
VERTEX
  5
C0
  8
TEAM-BODY
 10
241.083758
 20
-368.31694
 30
0.0
 70
    40
  0
VERTEX
  5
C1
  8
TEAM-BODY
 10
240.520292
 20
-368.674971
 30
0.0
 70
    40
  0
VERTEX
  5
C2
  8
TEAM-BODY
 10
239.935089
 20
-368.972923
 30
0.0
 70
    40
  0
VERTEX
  5
C3
  8
TEAM-BODY
 10
239.335512
 20
-369.206873
 30
0.0
 70
    40
  0
VERTEX
  5
C4
  8
TEAM-BODY
 10
238.732757
 20
-369.382681
 30
0.0
 70
    40
  0
VERTEX
  5
C5
  8
TEAM-BODY
 10
238.138981
 20
-369.508654
 30
0.0
 70
    40
  0
VERTEX
  5
C6
  8
TEAM-BODY
 10
237.566338
 20
-369.593098
 30
0.0
 70
    40
  0
VERTEX
  5
C7
  8
TEAM-BODY
 10
237.026982
 20
-369.644317
 30
0.0
 70
    40
  0
VERTEX
  5
C8
  8
TEAM-BODY
 10
236.53307
 20
-369.670619
 30
0.0
 70
    40
  0
VERTEX
  5
C9
  8
TEAM-BODY
 10
236.096755
 20
-369.68031
 30
0.0
 70
    40
  0
VERTEX
  5
CA
  8
TEAM-BODY
 10
235.730194
 20
-369.681694
 30
0.0
 70
    40
  0
VERTEX
  5
CB
  8
TEAM-BODY
 10
235.288741
 20
-369.681694
 30
0.0
 70
    40
  0
VERTEX
  5
CC
  8
TEAM-BODY
 10
234.000548
 20
-369.681694
 30
0.0
 70
    40
  0
VERTEX
  5
CD
  8
TEAM-BODY
 10
230.936967
 20
-369.681694
 30
0.0
 70
    40
  0
VERTEX
  5
CE
  8
TEAM-BODY
 10
225.16935
 20
-369.681694
 30
0.0
 70
    40
  0
VERTEX
  5
CF
  8
TEAM-BODY
 10
215.769049
 20
-369.681694
 30
0.0
 70
    40
  0
VERTEX
  5
D0
  8
TEAM-BODY
 10
201.807417
 20
-369.681694
 30
0.0
 70
    40
  0
VERTEX
  5
D1
  8
TEAM-BODY
 10
182.355806
 20
-369.681694
 30
0.0
 70
    40
  0
VERTEX
  5
D2
  8
TEAM-BODY
 10
156.485566
 20
-369.681694
 30
0.0
 70
    40
  0
VERTEX
  5
D3
  8
TEAM-BODY
 10
123.728962
 20
-369.681694
 30
0.0
 70
    40
  0
VERTEX
  5
D4
  8
TEAM-BODY
 10
85.461901
 20
-369.681694
 30
0.0
 70
    40
  0
VERTEX
  5
D5
  8
TEAM-BODY
 10
43.521203
 20
-369.681694
 30
0.0
 70
    40
  0
VERTEX
  5
D6
  8
TEAM-BODY
 10
-0.256315
 20
-369.681694
 30
0.0
 70
    40
  0
VERTEX
  5
D7
  8
TEAM-BODY
 10
-44.033833
 20
-369.681694
 30
0.0
 70
    40
  0
VERTEX
  5
D8
  8
TEAM-BODY
 10
-85.974531
 20
-369.681694
 30
0.0
 70
    40
  0
VERTEX
  5
D9
  8
TEAM-BODY
 10
-124.241592
 20
-369.681694
 30
0.0
 70
    40
  0
VERTEX
  5
DA
  8
TEAM-BODY
 10
-156.998196
 20
-369.681694
 30
0.0
 70
    40
  0
VERTEX
  5
DB
  8
TEAM-BODY
 10
-182.868437
 20
-369.681694
 30
0.0
 70
    40
  0
VERTEX
  5
DC
  8
TEAM-BODY
 10
-202.320062
 20
-369.681694
 30
0.0
 70
    40
  0
VERTEX
  5
DD
  8
TEAM-BODY
 10
-216.281727
 20
-369.681694
 30
0.0
 70
    40
  0
VERTEX
  5
DE
  8
TEAM-BODY
 10
-225.682093
 20
-369.681694
 30
0.0
 70
    40
  0
VERTEX
  5
DF
  8
TEAM-BODY
 10
-231.449818
 20
-369.681694
 30
0.0
 70
    40
  0
VERTEX
  5
E0
  8
TEAM-BODY
 10
-234.51356
 20
-369.681694
 30
0.0
 70
    40
  0
VERTEX
  5
E1
  8
TEAM-BODY
 10
-235.801979
 20
-369.681694
 30
0.0
 70
    40
  0
VERTEX
  5
E2
  8
TEAM-BODY
 10
-236.243732
 20
-369.681694
 30
0.0
 70
    40
  0
VERTEX
  5
E3
  8
TEAM-BODY
 10
-236.610669
 20
-369.68031
 30
0.0
 70
    40
  0
VERTEX
  5
E4
  8
TEAM-BODY
 10
-237.047408
 20
-369.670619
 30
0.0
 70
    40
  0
VERTEX
  5
E5
  8
TEAM-BODY
 10
-237.541755
 20
-369.644317
 30
0.0
 70
    40
  0
VERTEX
  5
E6
  8
TEAM-BODY
 10
-238.081518
 20
-369.593098
 30
0.0
 70
    40
  0
VERTEX
  5
E7
  8
TEAM-BODY
 10
-238.654505
 20
-369.508654
 30
0.0
 70
    40
  0
VERTEX
  5
E8
  8
TEAM-BODY
 10
-239.248522
 20
-369.382681
 30
0.0
 70
    40
  0
VERTEX
  5
E9
  8
TEAM-BODY
 10
-239.851379
 20
-369.206873
 30
0.0
 70
    40
  0
VERTEX
  5
EA
  8
TEAM-BODY
 10
-240.450882
 20
-368.972923
 30
0.0
 70
    40
  0
VERTEX
  5
EB
  8
TEAM-BODY
 10
-241.035811
 20
-368.674971
 30
0.0
 70
    40
  0
VERTEX
  5
EC
  8
TEAM-BODY
 10
-241.598831
 20
-368.31694
 30
0.0
 70
    40
  0
VERTEX
  5
ED
  8
TEAM-BODY
 10
-242.13358
 20
-367.905199
 30
0.0
 70
    40
  0
VERTEX
  5
EE
  8
TEAM-BODY
 10
-242.633695
 20
-367.446114
 30
0.0
 70
    40
  0
VERTEX
  5
EF
  8
TEAM-BODY
 10
-243.092813
 20
-366.946054
 30
0.0
 70
    40
  0
VERTEX
  5
F0
  8
TEAM-BODY
 10
-243.504572
 20
-366.411388
 30
0.0
 70
    40
  0
VERTEX
  5
F1
  8
TEAM-BODY
 10
-243.862608
 20
-365.848483
 30
0.0
 70
    40
  0
VERTEX
  5
F2
  8
TEAM-BODY
 10
-244.160561
 20
-365.263707
 30
0.0
 70
    40
  0
VERTEX
  5
F3
  8
TEAM-BODY
 10
-244.39451
 20
-364.664398
 30
0.0
 70
    40
  0
VERTEX
  5
F4
  8
TEAM-BODY
 10
-244.570319
 20
-364.061768
 30
0.0
 70
    40
  0
VERTEX
  5
F5
  8
TEAM-BODY
 10
-244.696292
 20
-363.467999
 30
0.0
 70
    40
  0
VERTEX
  5
F6
  8
TEAM-BODY
 10
-244.780735
 20
-362.895271
 30
0.0
 70
    40
  0
VERTEX
  5
F7
  8
TEAM-BODY
 10
-244.831955
 20
-362.355768
 30
0.0
 70
    40
  0
VERTEX
  5
F8
  8
TEAM-BODY
 10
-244.858257
 20
-361.86167
 30
0.0
 70
    40
  0
VERTEX
  5
F9
  8
TEAM-BODY
 10
-244.867947
 20
-361.425158
 30
0.0
 70
    40
  0
VERTEX
  5
FA
  8
TEAM-BODY
 10
-244.869332
 20
-361.058414
 30
0.0
 70
    40
  0
VERTEX
  5
FB
  8
TEAM-BODY
 10
-244.869332
 20
-360.671432
 30
0.0
 70
    40
  0
VERTEX
  5
FC
  8
TEAM-BODY
 10
-244.869332
 20
-359.765449
 30
0.0
 70
    40
  0
VERTEX
  5
FD
  8
TEAM-BODY
 10
-244.869332
 20
-357.739516
 30
0.0
 70
    40
  0
VERTEX
  5
FE
  8
TEAM-BODY
 10
-244.869332
 20
-353.992681
 30
0.0
 70
    40
  0
VERTEX
  5
FF
  8
TEAM-BODY
 10
-244.869332
 20
-347.923996
 30
0.0
 70
    40
  0
VERTEX
  5
100
  8
TEAM-BODY
 10
-244.869332
 20
-338.932509
 30
0.0
 70
    40
  0
VERTEX
  5
101
  8
TEAM-BODY
 10
-244.869332
 20
-326.417271
 30
0.0
 70
    40
  0
VERTEX
  5
102
  8
TEAM-BODY
 10
-244.869332
 20
-309.777332
 30
0.0
 70
    40
  0
VERTEX
  5
103
  8
TEAM-BODY
 10
-244.869332
 20
-288.708801
 30
0.0
 70
    40
  0
VERTEX
  5
104
  8
TEAM-BODY
 10
-244.869332
 20
-264.096031
 30
0.0
 70
    40
  0
VERTEX
  5
105
  8
TEAM-BODY
 10
-244.869332
 20
-237.120435
 30
0.0
 70
    40
  0
VERTEX
  5
106
  8
TEAM-BODY
 10
-244.869332
 20
-208.963426
 30
0.0
 70
    40
  0
VERTEX
  5
107
  8
TEAM-BODY
 10
-244.869332
 20
-180.806418
 30
0.0
 70
    40
  0
VERTEX
  5
108
  8
TEAM-BODY
 10
-244.869332
 20
-153.830822
 30
0.0
 70
    40
  0
VERTEX
  5
109
  8
TEAM-BODY
 10
-244.869332
 20
-129.218052
 30
0.0
 70
    40
  0
VERTEX
  5
10A
  8
TEAM-BODY
 10
-244.869332
 20
-108.149521
 30
0.0
 70
    40
  0
VERTEX
  5
10B
  8
TEAM-BODY
 10
-244.869332
 20
-91.511289
 30
0.0
 70
    40
  0
VERTEX
  5
10C
  8
TEAM-BODY
 10
-244.869332
 20
-79.008002
 30
0.0
 70
    40
  0
VERTEX
  5
10D
  8
TEAM-BODY
 10
-244.869332
 20
-70.048954
 30
0.0
 70
    40
  0
VERTEX
  5
10E
  8
TEAM-BODY
 10
-244.869332
 20
-64.043438
 30
0.0
 70
    40
  0
VERTEX
  5
10F
  8
TEAM-BODY
 10
-244.869332
 20
-60.400748
 30
0.0
 70
    40
  0
VERTEX
  5
110
  8
TEAM-BODY
 10
-244.869332
 20
-58.530178
 30
0.0
 70
    40
  0
VERTEX
  5
111
  8
TEAM-BODY
 10
-244.869332
 20
-57.84102
 30
0.0
 70
    40
  0
VERTEX
  5
112
  8
TEAM-BODY
 10
-244.869332
 20
-57.742569
 30
0.0
 70
    40
  0
VERTEX
  5
113
  8
TEAM-BODY
 10
-244.869332
 20
-57.742569
 30
0.0
 70
    40
  0
VERTEX
  5
114
  8
TEAM-BODY
 10
-244.869332
 20
-57.742569
 30
0.0
 70
    40
  0
VERTEX
  5
115
  8
TEAM-BODY
 10
-244.869332
 20
-57.742569
 30
0.0
 70
    40
  0
VERTEX
  5
116
  8
TEAM-BODY
 10
-244.869332
 20
-57.742569
 30
0.0
 70
    40
  0
VERTEX
  5
117
  8
TEAM-BODY
 10
-244.869332
 20
-57.742569
 30
0.0
 70
    40
  0
VERTEX
  5
118
  8
TEAM-BODY
 10
-244.869332
 20
-57.742569
 30
0.0
 70
    40
  0
VERTEX
  5
119
  8
TEAM-BODY
 10
-244.869332
 20
-57.742569
 30
0.0
 70
    40
  0
VERTEX
  5
11A
  8
TEAM-BODY
 10
-244.869332
 20
-57.742569
 30
0.0
 70
    40
  0
VERTEX
  5
11B
  8
TEAM-BODY
 10
-244.869332
 20
-57.742569
 30
0.0
 70
    40
  0
VERTEX
  5
11C
  8
TEAM-BODY
 10
-244.869332
 20
-57.742569
 30
0.0
 70
    40
  0
VERTEX
  5
11D
  8
TEAM-BODY
 10
-244.869332
 20
-57.742569
 30
0.0
 70
    40
  0
VERTEX
  5
11E
  8
TEAM-BODY
 10
-244.869332
 20
-57.742569
 30
0.0
 70
    40
  0
VERTEX
  5
11F
  8
TEAM-BODY
 10
-244.869332
 20
-57.742569
 30
0.0
 70
    40
  0
VERTEX
  5
120
  8
TEAM-BODY
 10
-244.869332
 20
-57.742569
 30
0.0
 70
    40
  0
VERTEX
  5
121
  8
TEAM-BODY
 10
-244.869332
 20
-57.742569
 30
0.0
 70
    40
  0
VERTEX
  5
122
  8
TEAM-BODY
 10
-244.869332
 20
-57.742569
 30
0.0
 70
    40
  0
VERTEX
  5
123
  8
TEAM-BODY
 10
-244.869332
 20
-52.49498
 30
0.0
 70
    48
  0
VERTEX
  5
124
  8
TEAM-BODY
 10
-240.616707
 20
-48.242355
 30
0.0
 70
    48
  0
VERTEX
  5
125
  8
TEAM-BODY
 10
-235.369137
 20
-48.242355
 30
0.0
 70
    48
  0
VERTEX
  5
126
  8
TEAM-BODY
 10
-235.369137
 20
-48.242355
 30
0.0
 70
    48
  0
VERTEX
  5
127
  8
TEAM-BODY
 10
234.856507
 20
-48.242355
 30
0.0
 70
    48
  0
VERTEX
  5
128
  8
TEAM-BODY
 10
234.856507
 20
-48.242355
 30
0.0
 70
    48
  0
VERTEX
  5
129
  8
TEAM-BODY
 10
240.098632
 20
-48.242355
 30
0.0
 70
    48
  0
VERTEX
  5
12A
  8
TEAM-BODY
 10
244.359497
 20
-52.49498
 30
0.0
 70
    48
  0
VERTEX
  5
12B
  8
TEAM-BODY
 10
244.359497
 20
-57.742569
 30
0.0
 70
    48
  0
VERTEX
  5
12C
  8
TEAM-BODY
 10
244.359497
 20
-57.742569
 30
0.0
 70
    48
  0
VERTEX
  5
12D
  8
TEAM-BODY
 10
244.359497
 20
-360.184284
 30
0.0
 70
    48
  0
VERTEX
  5
12E
  8
TEAM-BODY
 10
244.359497
 20
-360.184284
 30
0.0
 70
    48
  0
VERTEX
  5
12F
  8
TEAM-BODY
 10
244.359497
 20
-365.429066
 30
0.0
 70
    48
  0
VERTEX
  5
130
  8
TEAM-BODY
 10
240.098632
 20
-369.681694
 30
0.0
 70
    48
  0
VERTEX
  5
131
  8
TEAM-BODY
 10
234.856507
 20
-369.681694
 30
0.0
 70
    48
  0
VERTEX
  5
132
  8
TEAM-BODY
 10
234.856507
 20
-369.681694
 30
0.0
 70
    48
  0
VERTEX
  5
133
  8
TEAM-BODY
 10
-235.369137
 20
-369.681694
 30
0.0
 70
    48
  0
VERTEX
  5
134
  8
TEAM-BODY
 10
-235.369137
 20
-369.681694
 30
0.0
 70
    48
  0
VERTEX
  5
135
  8
TEAM-BODY
 10
-240.616707
 20
-369.681694
 30
0.0
 70
    48
  0
VERTEX
  5
136
  8
TEAM-BODY
 10
-244.869332
 20
-365.429066
 30
0.0
 70
    48
  0
VERTEX
  5
137
  8
TEAM-BODY
 10
-244.869332
 20
-360.184284
 30
0.0
 70
    48
  0
VERTEX
  5
138
  8
TEAM-BODY
 10
-244.869332
 20
-360.184284
 30
0.0
 70
    48
  0
VERTEX
  5
139
  8
TEAM-BODY
 10
-244.869332
 20
-57.742569
 30
0.0
 70
    48
  0
VERTEX
  5
13A
  8
TEAM-BODY
 10
-244.869332
 20
-57.742569
 30
0.0
 70
    48
  0
VERTEX
  5
13B
  8
TEAM-BODY
 10
-244.869332
 20
-57.742569
 30
0.0
 70
    48
  0
VERTEX
  5
13C
  8
TEAM-BODY
 10
-244.869332
 20
-57.742569
 30
0.0
 70
    48
  0
VERTEX
  5
13D
  8
TEAM-BODY
 10
-244.869332
 20
-57.742569
 30
0.0
 70
    48
  0
SEQEND
  5
13F
  8
TEAM-BODY
  0
POLYLINE
  5
140
  8
TEAM-BODY
 66
     1
 10
0.0
 20
0.0
 30
0.0
 70
    12
 75
     6
  0
VERTEX
  5
141
  8
TEAM-BODY
 10
-289.859534
 20
-4.999557
 30
0.0
 70
    48
  0
VERTEX
  5
142
  8
TEAM-BODY
 10
-289.859535
 20
-4.999557
 30
0.0
 70
    40
  0
VERTEX
  5
143
  8
TEAM-BODY
 10
-289.809461
 20
-4.038821
 30
0.0
 70
    40
  0
VERTEX
  5
144
  8
TEAM-BODY
 10
-289.668755
 20
-3.219395
 30
0.0
 70
    40
  0
VERTEX
  5
145
  8
TEAM-BODY
 10
-289.451687
 20
-2.528584
 30
0.0
 70
    40
  0
VERTEX
  5
146
  8
TEAM-BODY
 10
-289.172526
 20
-1.953694
 30
0.0
 70
    40
  0
VERTEX
  5
147
  8
TEAM-BODY
 10
-288.845542
 20
-1.48203
 30
0.0
 70
    40
  0
VERTEX
  5
148
  8
TEAM-BODY
 10
-288.485007
 20
-1.1009
 30
0.0
 70
    40
  0
VERTEX
  5
149
  8
TEAM-BODY
 10
-288.10519
 20
-0.79761
 30
0.0
 70
    40
  0
VERTEX
  5
14A
  8
TEAM-BODY
 10
-287.720362
 20
-0.559464
 30
0.0
 70
    40
  0
VERTEX
  5
14B
  8
TEAM-BODY
 10
-287.343121
 20
-0.374792
 30
0.0
 70
    40
  0
VERTEX
  5
14C
  8
TEAM-BODY
 10
-286.979381
 20
-0.236015
 30
0.0
 70
    40
  0
VERTEX
  5
14D
  8
TEAM-BODY
 10
-286.633383
 20
-0.136576
 30
0.0
 70
    40
  0
VERTEX
  5
14E
  8
TEAM-BODY
 10
-286.309369
 20
-0.06992
 30
0.0
 70
    40
  0
VERTEX
  5
14F
  8
TEAM-BODY
 10
-286.011581
 20
-0.029489
 30
0.0
 70
    40
  0
VERTEX
  5
150
  8
TEAM-BODY
 10
-285.744261
 20
-0.008727
 30
0.0
 70
    40
  0
VERTEX
  5
151
  8
TEAM-BODY
 10
-285.511649
 20
-0.001078
 30
0.0
 70
    40
  0
VERTEX
  5
152
  8
TEAM-BODY
 10
-285.317989
 20
0.000015
 30
0.0
 70
    40
  0
VERTEX
  5
153
  8
TEAM-BODY
 10
-284.980461
 20
0.000015
 30
0.0
 70
    40
  0
VERTEX
  5
154
  8
TEAM-BODY
 10
-283.568002
 20
0.000015
 30
0.0
 70
    40
  0
VERTEX
  5
155
  8
TEAM-BODY
 10
-279.962491
 20
0.000015
 30
0.0
 70
    40
  0
VERTEX
  5
156
  8
TEAM-BODY
 10
-273.045805
 20
0.000015
 30
0.0
 70
    40
  0
VERTEX
  5
157
  8
TEAM-BODY
 10
-261.69982
 20
0.000015
 30
0.0
 70
    40
  0
VERTEX
  5
158
  8
TEAM-BODY
 10
-244.806414
 20
0.000015
 30
0.0
 70
    40
  0
VERTEX
  5
159
  8
TEAM-BODY
 10
-221.247465
 20
0.000015
 30
0.0
 70
    40
  0
VERTEX
  5
15A
  8
TEAM-BODY
 10
-189.904849
 20
0.000015
 30
0.0
 70
    40
  0
VERTEX
  5
15B
  8
TEAM-BODY
 10
-150.217706
 20
0.000015
 30
0.0
 70
    40
  0
VERTEX
  5
15C
  8
TEAM-BODY
 10
-103.854221
 20
0.000015
 30
0.0
 70
    40
  0
VERTEX
  5
15D
  8
TEAM-BODY
 10
-53.039841
 20
0.000015
 30
0.0
 70
    40
  0
VERTEX
  5
15E
  8
TEAM-BODY
 10
-0.000014
 20
0.000015
 30
0.0
 70
    40
  0
VERTEX
  5
15F
  8
TEAM-BODY
 10
53.039813
 20
0.000015
 30
0.0
 70
    40
  0
VERTEX
  5
160
  8
TEAM-BODY
 10
103.854193
 20
0.000015
 30
0.0
 70
    40
  0
VERTEX
  5
161
  8
TEAM-BODY
 10
150.217678
 20
0.000015
 30
0.0
 70
    40
  0
VERTEX
  5
162
  8
TEAM-BODY
 10
189.904821
 20
0.000015
 30
0.0
 70
    40
  0
VERTEX
  5
163
  8
TEAM-BODY
 10
221.247437
 20
0.000015
 30
0.0
 70
    40
  0
VERTEX
  5
164
  8
TEAM-BODY
 10
244.806386
 20
0.000015
 30
0.0
 70
    40
  0
VERTEX
  5
165
  8
TEAM-BODY
 10
261.699792
 20
0.000015
 30
0.0
 70
    40
  0
VERTEX
  5
166
  8
TEAM-BODY
 10
273.045777
 20
0.000015
 30
0.0
 70
    40
  0
VERTEX
  5
167
  8
TEAM-BODY
 10
279.962464
 20
0.000015
 30
0.0
 70
    40
  0
VERTEX
  5
168
  8
TEAM-BODY
 10
283.567975
 20
0.000015
 30
0.0
 70
    40
  0
VERTEX
  5
169
  8
TEAM-BODY
 10
284.980434
 20
0.000015
 30
0.0
 70
    40
  0
VERTEX
  5
16A
  8
TEAM-BODY
 10
285.317963
 20
0.000015
 30
0.0
 70
    40
  0
VERTEX
  5
16B
  8
TEAM-BODY
 10
285.51126
 20
-0.000713
 30
0.0
 70
    40
  0
VERTEX
  5
16C
  8
TEAM-BODY
 10
285.741329
 20
-0.005813
 30
0.0
 70
    40
  0
VERTEX
  5
16D
  8
TEAM-BODY
 10
286.001747
 20
-0.019654
 30
0.0
 70
    40
  0
VERTEX
  5
16E
  8
TEAM-BODY
 10
286.286092
 20
-0.046608
 30
0.0
 70
    40
  0
VERTEX
  5
16F
  8
TEAM-BODY
 10
286.587943
 20
-0.091046
 30
0.0
 70
    40
  0
VERTEX
  5
170
  8
TEAM-BODY
 10
286.900878
 20
-0.157338
 30
0.0
 70
    40
  0
VERTEX
  5
171
  8
TEAM-BODY
 10
287.218475
 20
-0.249856
 30
0.0
 70
    40
  0
VERTEX
  5
172
  8
TEAM-BODY
 10
287.534312
 20
-0.372971
 30
0.0
 70
    40
  0
VERTEX
  5
173
  8
TEAM-BODY
 10
287.842479
 20
-0.529766
 30
0.0
 70
    40
  0
VERTEX
  5
174
  8
TEAM-BODY
 10
288.139111
 20
-0.718181
 30
0.0
 70
    40
  0
VERTEX
  5
175
  8
TEAM-BODY
 10
288.420853
 20
-0.934867
 30
0.0
 70
    40
  0
VERTEX
  5
176
  8
TEAM-BODY
 10
288.684353
 20
-1.176477
 30
0.0
 70
    40
  0
VERTEX
  5
177
  8
TEAM-BODY
 10
288.926256
 20
-1.439662
 30
0.0
 70
    40
  0
VERTEX
  5
178
  8
TEAM-BODY
 10
289.14321
 20
-1.721075
 30
0.0
 70
    40
  0
VERTEX
  5
179
  8
TEAM-BODY
 10
289.331859
 20
-2.017367
 30
0.0
 70
    40
  0
VERTEX
  5
17A
  8
TEAM-BODY
 10
289.488851
 20
-2.32519
 30
0.0
 70
    40
  0
VERTEX
  5
17B
  8
TEAM-BODY
 10
289.61212
 20
-2.640686
 30
0.0
 70
    40
  0
VERTEX
  5
17C
  8
TEAM-BODY
 10
289.704754
 20
-2.957948
 30
0.0
 70
    40
  0
VERTEX
  5
17D
  8
TEAM-BODY
 10
289.771129
 20
-3.27056
 30
0.0
 70
    40
  0
VERTEX
  5
17E
  8
TEAM-BODY
 10
289.815623
 20
-3.572105
 30
0.0
 70
    40
  0
VERTEX
  5
17F
  8
TEAM-BODY
 10
289.842611
 20
-3.856167
 30
0.0
 70
    40
  0
VERTEX
  5
180
  8
TEAM-BODY
 10
289.856469
 20
-4.116328
 30
0.0
 70
    40
  0
VERTEX
  5
181
  8
TEAM-BODY
 10
289.861575
 20
-4.346171
 30
0.0
 70
    40
  0
VERTEX
  5
182
  8
TEAM-BODY
 10
289.862304
 20
-4.539281
 30
0.0
 70
    40
  0
VERTEX
  5
183
  8
TEAM-BODY
 10
289.862304
 20
-4.823131
 30
0.0
 70
    40
  0
VERTEX
  5
184
  8
TEAM-BODY
 10
289.862304
 20
-5.860764
 30
0.0
 70
    40
  0
VERTEX
  5
185
  8
TEAM-BODY
 10
289.862304
 20
-8.449112
 30
0.0
 70
    40
  0
VERTEX
  5
186
  8
TEAM-BODY
 10
289.862304
 20
-13.385109
 30
0.0
 70
    40
  0
VERTEX
  5
187
  8
TEAM-BODY
 10
289.862304
 20
-21.465687
 30
0.0
 70
    40
  0
VERTEX
  5
188
  8
TEAM-BODY
 10
289.862304
 20
-33.487781
 30
0.0
 70
    40
  0
VERTEX
  5
189
  8
TEAM-BODY
 10
289.862304
 20
-50.248322
 30
0.0
 70
    40
  0
VERTEX
  5
18A
  8
TEAM-BODY
 10
289.862304
 20
-72.544245
 30
0.0
 70
    40
  0
VERTEX
  5
18B
  8
TEAM-BODY
 10
289.862304
 20
-100.775814
 30
0.0
 70
    40
  0
VERTEX
  5
18C
  8
TEAM-BODY
 10
289.862304
 20
-133.756619
 30
0.0
 70
    40
  0
VERTEX
  5
18D
  8
TEAM-BODY
 10
289.862304
 20
-169.903581
 30
0.0
 70
    40
  0
VERTEX
  5
18E
  8
TEAM-BODY
 10
289.862304
 20
-207.633622
 30
0.0
 70
    40
  0
VERTEX
  5
18F
  8
TEAM-BODY
 10
289.862304
 20
-245.363663
 30
0.0
 70
    40
  0
VERTEX
  5
190
  8
TEAM-BODY
 10
289.862304
 20
-281.510625
 30
0.0
 70
    40
  0
VERTEX
  5
191
  8
TEAM-BODY
 10
289.862304
 20
-314.49143
 30
0.0
 70
    40
  0
VERTEX
  5
192
  8
TEAM-BODY
 10
289.862304
 20
-342.722999
 30
0.0
 70
    40
  0
VERTEX
  5
193
  8
TEAM-BODY
 10
289.862304
 20
-365.018922
 30
0.0
 70
    40
  0
VERTEX
  5
194
  8
TEAM-BODY
 10
289.862304
 20
-381.779463
 30
0.0
 70
    40
  0
VERTEX
  5
195
  8
TEAM-BODY
 10
289.862304
 20
-393.801556
 30
0.0
 70
    40
  0
VERTEX
  5
196
  8
TEAM-BODY
 10
289.862304
 20
-401.882134
 30
0.0
 70
    40
  0
VERTEX
  5
197
  8
TEAM-BODY
 10
289.862304
 20
-406.818129
 30
0.0
 70
    40
  0
VERTEX
  5
198
  8
TEAM-BODY
 10
289.862304
 20
-409.406475
 30
0.0
 70
    40
  0
VERTEX
  5
199
  8
TEAM-BODY
 10
289.862304
 20
-410.444104
 30
0.0
 70
    40
  0
VERTEX
  5
19A
  8
TEAM-BODY
 10
289.862304
 20
-410.72795
 30
0.0
 70
    40
  0
VERTEX
  5
19B
  8
TEAM-BODY
 10
289.861575
 20
-410.921054
 30
0.0
 70
    40
  0
VERTEX
  5
19C
  8
TEAM-BODY
 10
289.856469
 20
-411.150891
 30
0.0
 70
    40
  0
VERTEX
  5
19D
  8
TEAM-BODY
 10
289.842611
 20
-411.411045
 30
0.0
 70
    40
  0
VERTEX
  5
19E
  8
TEAM-BODY
 10
289.815623
 20
-411.6951
 30
0.0
 70
    40
  0
VERTEX
  5
19F
  8
TEAM-BODY
 10
289.771129
 20
-411.996638
 30
0.0
 70
    40
  0
VERTEX
  5
1A0
  8
TEAM-BODY
 10
289.704754
 20
-412.309245
 30
0.0
 70
    40
  0
VERTEX
  5
1A1
  8
TEAM-BODY
 10
289.61212
 20
-412.626502
 30
0.0
 70
    40
  0
VERTEX
  5
1A2
  8
TEAM-BODY
 10
289.488851
 20
-412.941994
 30
0.0
 70
    40
  0
VERTEX
  5
1A3
  8
TEAM-BODY
 10
289.331859
 20
-413.249815
 30
0.0
 70
    40
  0
VERTEX
  5
1A4
  8
TEAM-BODY
 10
289.14321
 20
-413.546107
 30
0.0
 70
    40
  0
VERTEX
  5
1A5
  8
TEAM-BODY
 10
288.926256
 20
-413.82752
 30
0.0
 70
    40
  0
VERTEX
  5
1A6
  8
TEAM-BODY
 10
288.684353
 20
-414.090707
 30
0.0
 70
    40
  0
VERTEX
  5
1A7
  8
TEAM-BODY
 10
288.420853
 20
-414.332319
 30
0.0
 70
    40
  0
VERTEX
  5
1A8
  8
TEAM-BODY
 10
288.139111
 20
-414.549008
 30
0.0
 70
    40
  0
VERTEX
  5
1A9
  8
TEAM-BODY
 10
287.842479
 20
-414.737426
 30
0.0
 70
    40
  0
VERTEX
  5
1AA
  8
TEAM-BODY
 10
287.534312
 20
-414.894223
 30
0.0
 70
    40
  0
VERTEX
  5
1AB
  8
TEAM-BODY
 10
287.218475
 20
-415.01734
 30
0.0
 70
    40
  0
VERTEX
  5
1AC
  8
TEAM-BODY
 10
286.900878
 20
-415.109859
 30
0.0
 70
    40
  0
VERTEX
  5
1AD
  8
TEAM-BODY
 10
286.587943
 20
-415.176153
 30
0.0
 70
    40
  0
VERTEX
  5
1AE
  8
TEAM-BODY
 10
286.286092
 20
-415.220591
 30
0.0
 70
    40
  0
VERTEX
  5
1AF
  8
TEAM-BODY
 10
286.001747
 20
-415.247546
 30
0.0
 70
    40
  0
VERTEX
  5
1B0
  8
TEAM-BODY
 10
285.741329
 20
-415.261387
 30
0.0
 70
    40
  0
VERTEX
  5
1B1
  8
TEAM-BODY
 10
285.51126
 20
-415.266487
 30
0.0
 70
    40
  0
VERTEX
  5
1B2
  8
TEAM-BODY
 10
285.317963
 20
-415.267215
 30
0.0
 70
    40
  0
VERTEX
  5
1B3
  8
TEAM-BODY
 10
284.980434
 20
-415.267215
 30
0.0
 70
    40
  0
VERTEX
  5
1B4
  8
TEAM-BODY
 10
283.567975
 20
-415.267215
 30
0.0
 70
    40
  0
VERTEX
  5
1B5
  8
TEAM-BODY
 10
279.962464
 20
-415.267215
 30
0.0
 70
    40
  0
VERTEX
  5
1B6
  8
TEAM-BODY
 10
273.045777
 20
-415.267215
 30
0.0
 70
    40
  0
VERTEX
  5
1B7
  8
TEAM-BODY
 10
261.699792
 20
-415.267215
 30
0.0
 70
    40
  0
VERTEX
  5
1B8
  8
TEAM-BODY
 10
244.806386
 20
-415.267215
 30
0.0
 70
    40
  0
VERTEX
  5
1B9
  8
TEAM-BODY
 10
221.247437
 20
-415.267215
 30
0.0
 70
    40
  0
VERTEX
  5
1BA
  8
TEAM-BODY
 10
189.904821
 20
-415.267215
 30
0.0
 70
    40
  0
VERTEX
  5
1BB
  8
TEAM-BODY
 10
150.217678
 20
-415.267215
 30
0.0
 70
    40
  0
VERTEX
  5
1BC
  8
TEAM-BODY
 10
103.854193
 20
-415.267215
 30
0.0
 70
    40
  0
VERTEX
  5
1BD
  8
TEAM-BODY
 10
53.039813
 20
-415.267215
 30
0.0
 70
    40
  0
VERTEX
  5
1BE
  8
TEAM-BODY
 10
-0.000014
 20
-415.267215
 30
0.0
 70
    40
  0
VERTEX
  5
1BF
  8
TEAM-BODY
 10
-53.039841
 20
-415.267215
 30
0.0
 70
    40
  0
VERTEX
  5
1C0
  8
TEAM-BODY
 10
-103.854221
 20
-415.267215
 30
0.0
 70
    40
  0
VERTEX
  5
1C1
  8
TEAM-BODY
 10
-150.217706
 20
-415.267215
 30
0.0
 70
    40
  0
VERTEX
  5
1C2
  8
TEAM-BODY
 10
-189.904849
 20
-415.267215
 30
0.0
 70
    40
  0
VERTEX
  5
1C3
  8
TEAM-BODY
 10
-221.247465
 20
-415.267215
 30
0.0
 70
    40
  0
VERTEX
  5
1C4
  8
TEAM-BODY
 10
-244.806414
 20
-415.267215
 30
0.0
 70
    40
  0
VERTEX
  5
1C5
  8
TEAM-BODY
 10
-261.69982
 20
-415.267215
 30
0.0
 70
    40
  0
VERTEX
  5
1C6
  8
TEAM-BODY
 10
-273.045805
 20
-415.267215
 30
0.0
 70
    40
  0
VERTEX
  5
1C7
  8
TEAM-BODY
 10
-279.962491
 20
-415.267215
 30
0.0
 70
    40
  0
VERTEX
  5
1C8
  8
TEAM-BODY
 10
-283.568002
 20
-415.267215
 30
0.0
 70
    40
  0
VERTEX
  5
1C9
  8
TEAM-BODY
 10
-284.980461
 20
-415.267215
 30
0.0
 70
    40
  0
VERTEX
  5
1CA
  8
TEAM-BODY
 10
-285.317989
 20
-415.267215
 30
0.0
 70
    40
  0
VERTEX
  5
1CB
  8
TEAM-BODY
 10
-285.511285
 20
-415.266487
 30
0.0
 70
    40
  0
VERTEX
  5
1CC
  8
TEAM-BODY
 10
-285.741347
 20
-415.261387
 30
0.0
 70
    40
  0
VERTEX
  5
1CD
  8
TEAM-BODY
 10
-286.001747
 20
-415.247546
 30
0.0
 70
    40
  0
VERTEX
  5
1CE
  8
TEAM-BODY
 10
-286.286058
 20
-415.220591
 30
0.0
 70
    40
  0
VERTEX
  5
1CF
  8
TEAM-BODY
 10
-286.587852
 20
-415.176153
 30
0.0
 70
    40
  0
VERTEX
  5
1D0
  8
TEAM-BODY
 10
-286.900704
 20
-415.109859
 30
0.0
 70
    40
  0
VERTEX
  5
1D1
  8
TEAM-BODY
 10
-287.218185
 20
-415.01734
 30
0.0
 70
    40
  0
VERTEX
  5
1D2
  8
TEAM-BODY
 10
-287.533868
 20
-414.894223
 30
0.0
 70
    40
  0
VERTEX
  5
1D3
  8
TEAM-BODY
 10
-287.84184
 20
-414.737426
 30
0.0
 70
    40
  0
VERTEX
  5
1D4
  8
TEAM-BODY
 10
-288.138244
 20
-414.549008
 30
0.0
 70
    40
  0
VERTEX
  5
1D5
  8
TEAM-BODY
 10
-288.419738
 20
-414.332319
 30
0.0
 70
    40
  0
VERTEX
  5
1D6
  8
TEAM-BODY
 10
-288.682978
 20
-414.090707
 30
0.0
 70
    40
  0
VERTEX
  5
1D7
  8
TEAM-BODY
 10
-288.924621
 20
-413.82752
 30
0.0
 70
    40
  0
VERTEX
  5
1D8
  8
TEAM-BODY
 10
-289.141326
 20
-413.546107
 30
0.0
 70
    40
  0
VERTEX
  5
1D9
  8
TEAM-BODY
 10
-289.329748
 20
-413.249815
 30
0.0
 70
    40
  0
VERTEX
  5
1DA
  8
TEAM-BODY
 10
-289.486546
 20
-412.941994
 30
0.0
 70
    40
  0
VERTEX
  5
1DB
  8
TEAM-BODY
 10
-289.609661
 20
-412.626502
 30
0.0
 70
    40
  0
VERTEX
  5
1DC
  8
TEAM-BODY
 10
-289.70218
 20
-412.309245
 30
0.0
 70
    40
  0
VERTEX
  5
1DD
  8
TEAM-BODY
 10
-289.768473
 20
-411.996638
 30
0.0
 70
    40
  0
VERTEX
  5
1DE
  8
TEAM-BODY
 10
-289.812911
 20
-411.6951
 30
0.0
 70
    40
  0
VERTEX
  5
1DF
  8
TEAM-BODY
 10
-289.839865
 20
-411.411045
 30
0.0
 70
    40
  0
VERTEX
  5
1E0
  8
TEAM-BODY
 10
-289.853707
 20
-411.150891
 30
0.0
 70
    40
  0
VERTEX
  5
1E1
  8
TEAM-BODY
 10
-289.858806
 20
-410.921054
 30
0.0
 70
    40
  0
VERTEX
  5
1E2
  8
TEAM-BODY
 10
-289.859534
 20
-410.72795
 30
0.0
 70
    40
  0
VERTEX
  5
1E3
  8
TEAM-BODY
 10
-289.859534
 20
-410.444104
 30
0.0
 70
    40
  0
VERTEX
  5
1E4
  8
TEAM-BODY
 10
-289.859534
 20
-409.406475
 30
0.0
 70
    40
  0
VERTEX
  5
1E5
  8
TEAM-BODY
 10
-289.859534
 20
-406.818129
 30
0.0
 70
    40
  0
VERTEX
  5
1E6
  8
TEAM-BODY
 10
-289.859534
 20
-401.882134
 30
0.0
 70
    40
  0
VERTEX
  5
1E7
  8
TEAM-BODY
 10
-289.859534
 20
-393.801556
 30
0.0
 70
    40
  0
VERTEX
  5
1E8
  8
TEAM-BODY
 10
-289.859534
 20
-381.779463
 30
0.0
 70
    40
  0
VERTEX
  5
1E9
  8
TEAM-BODY
 10
-289.859534
 20
-365.018922
 30
0.0
 70
    40
  0
VERTEX
  5
1EA
  8
TEAM-BODY
 10
-289.859534
 20
-342.722999
 30
0.0
 70
    40
  0
VERTEX
  5
1EB
  8
TEAM-BODY
 10
-289.859534
 20
-314.49143
 30
0.0
 70
    40
  0
VERTEX
  5
1EC
  8
TEAM-BODY
 10
-289.859534
 20
-281.510625
 30
0.0
 70
    40
  0
VERTEX
  5
1ED
  8
TEAM-BODY
 10
-289.859534
 20
-245.363663
 30
0.0
 70
    40
  0
VERTEX
  5
1EE
  8
TEAM-BODY
 10
-289.859534
 20
-207.633622
 30
0.0
 70
    40
  0
VERTEX
  5
1EF
  8
TEAM-BODY
 10
-289.859534
 20
-169.903581
 30
0.0
 70
    40
  0
VERTEX
  5
1F0
  8
TEAM-BODY
 10
-289.859534
 20
-133.756619
 30
0.0
 70
    40
  0
VERTEX
  5
1F1
  8
TEAM-BODY
 10
-289.859534
 20
-100.775814
 30
0.0
 70
    40
  0
VERTEX
  5
1F2
  8
TEAM-BODY
 10
-289.859534
 20
-72.544245
 30
0.0
 70
    40
  0
VERTEX
  5
1F3
  8
TEAM-BODY
 10
-289.859534
 20
-50.249221
 30
0.0
 70
    40
  0
VERTEX
  5
1F4
  8
TEAM-BODY
 10
-289.859534
 20
-33.494972
 30
0.0
 70
    40
  0
VERTEX
  5
1F5
  8
TEAM-BODY
 10
-289.859534
 20
-21.489959
 30
0.0
 70
    40
  0
VERTEX
  5
1F6
  8
TEAM-BODY
 10
-289.859534
 20
-13.442643
 30
0.0
 70
    40
  0
VERTEX
  5
1F7
  8
TEAM-BODY
 10
-289.859534
 20
-8.561484
 30
0.0
 70
    40
  0
VERTEX
  5
1F8
  8
TEAM-BODY
 10
-289.859534
 20
-6.054943
 30
0.0
 70
    40
  0
VERTEX
  5
1F9
  8
TEAM-BODY
 10
-289.859534
 20
-5.13148
 30
0.0
 70
    40
  0
VERTEX
  5
1FA
  8
TEAM-BODY
 10
-289.859534
 20
-4.999557
 30
0.0
 70
    40
  0
VERTEX
  5
1FB
  8
TEAM-BODY
 10
-289.859534
 20
-4.999557
 30
0.0
 70
    40
  0
VERTEX
  5
1FC
  8
TEAM-BODY
 10
-289.859534
 20
-4.999557
 30
0.0
 70
    40
  0
VERTEX
  5
1FD
  8
TEAM-BODY
 10
-289.859534
 20
-4.999557
 30
0.0
 70
    40
  0
VERTEX
  5
1FE
  8
TEAM-BODY
 10
-289.859534
 20
-4.999557
 30
0.0
 70
    40
  0
VERTEX
  5
1FF
  8
TEAM-BODY
 10
-289.859534
 20
-4.999557
 30
0.0
 70
    40
  0
VERTEX
  5
200
  8
TEAM-BODY
 10
-289.859534
 20
-4.999557
 30
0.0
 70
    40
  0
VERTEX
  5
201
  8
TEAM-BODY
 10
-289.859534
 20
-4.999557
 30
0.0
 70
    40
  0
VERTEX
  5
202
  8
TEAM-BODY
 10
-289.859535
 20
-4.999557
 30
0.0
 70
    40
  0
VERTEX
  5
203
  8
TEAM-BODY
 10
-289.859535
 20
-4.999557
 30
0.0
 70
    40
  0
VERTEX
  5
204
  8
TEAM-BODY
 10
-289.859535
 20
-4.999557
 30
0.0
 70
    40
  0
VERTEX
  5
205
  8
TEAM-BODY
 10
-289.859535
 20
-4.999557
 30
0.0
 70
    40
  0
VERTEX
  5
206
  8
TEAM-BODY
 10
-289.859535
 20
-4.999557
 30
0.0
 70
    40
  0
VERTEX
  5
207
  8
TEAM-BODY
 10
-289.859535
 20
-4.999557
 30
0.0
 70
    40
  0
VERTEX
  5
208
  8
TEAM-BODY
 10
-289.859535
 20
-4.999557
 30
0.0
 70
    40
  0
VERTEX
  5
209
  8
TEAM-BODY
 10
-289.859534
 20
-4.999557
 30
0.0
 70
    40
  0
VERTEX
  5
20A
  8
TEAM-BODY
 10
-289.859534
 20
-4.999557
 30
0.0
 70
    40
  0
VERTEX
  5
20B
  8
TEAM-BODY
 10
-289.859534
 20
-2.2379
 30
0.0
 70
    48
  0
VERTEX
  5
20C
  8
TEAM-BODY
 10
-287.621602
 20
0.000015
 30
0.0
 70
    48
  0
VERTEX
  5
20D
  8
TEAM-BODY
 10
-284.857266
 20
0.000015
 30
0.0
 70
    48
  0
VERTEX
  5
20E
  8
TEAM-BODY
 10
-284.857266
 20
0.000015
 30
0.0
 70
    48
  0
VERTEX
  5
20F
  8
TEAM-BODY
 10
284.857239
 20
0.000015
 30
0.0
 70
    48
  0
VERTEX
  5
210
  8
TEAM-BODY
 10
284.857239
 20
0.000015
 30
0.0
 70
    48
  0
VERTEX
  5
211
  8
TEAM-BODY
 10
287.621583
 20
0.000015
 30
0.0
 70
    48
  0
VERTEX
  5
212
  8
TEAM-BODY
 10
289.862304
 20
-2.2379
 30
0.0
 70
    48
  0
VERTEX
  5
213
  8
TEAM-BODY
 10
289.862304
 20
-4.999557
 30
0.0
 70
    48
  0
VERTEX
  5
214
  8
TEAM-BODY
 10
289.862304
 20
-4.999557
 30
0.0
 70
    48
  0
VERTEX
  5
215
  8
TEAM-BODY
 10
289.862304
 20
-410.267687
 30
0.0
 70
    48
  0
VERTEX
  5
216
  8
TEAM-BODY
 10
289.862304
 20
-410.267687
 30
0.0
 70
    48
  0
VERTEX
  5
217
  8
TEAM-BODY
 10
289.862304
 20
-413.029265
 30
0.0
 70
    48
  0
VERTEX
  5
218
  8
TEAM-BODY
 10
287.621583
 20
-415.267215
 30
0.0
 70
    48
  0
VERTEX
  5
219
  8
TEAM-BODY
 10
284.857239
 20
-415.267215
 30
0.0
 70
    48
  0
VERTEX
  5
21A
  8
TEAM-BODY
 10
284.857239
 20
-415.267215
 30
0.0
 70
    48
  0
VERTEX
  5
21B
  8
TEAM-BODY
 10
-284.857266
 20
-415.267215
 30
0.0
 70
    48
  0
VERTEX
  5
21C
  8
TEAM-BODY
 10
-284.857266
 20
-415.267215
 30
0.0
 70
    48
  0
VERTEX
  5
21D
  8
TEAM-BODY
 10
-287.621602
 20
-415.267215
 30
0.0
 70
    48
  0
VERTEX
  5
21E
  8
TEAM-BODY
 10
-289.859534
 20
-413.029265
 30
0.0
 70
    48
  0
VERTEX
  5
21F
  8
TEAM-BODY
 10
-289.859534
 20
-410.267687
 30
0.0
 70
    48
  0
VERTEX
  5
220
  8
TEAM-BODY
 10
-289.859534
 20
-410.267687
 30
0.0
 70
    48
  0
VERTEX
  5
221
  8
TEAM-BODY
 10
-289.859534
 20
-4.999557
 30
0.0
 70
    48
  0
VERTEX
  5
222
  8
TEAM-BODY
 10
-289.859534
 20
-4.999557
 30
0.0
 70
    48
  0
VERTEX
  5
223
  8
TEAM-BODY
 10
-289.859534
 20
-4.999557
 30
0.0
 70
    48
  0
VERTEX
  5
224
  8
TEAM-BODY
 10
-289.859534
 20
-4.999557
 30
0.0
 70
    48
  0
VERTEX
  5
225
  8
TEAM-BODY
 10
-289.859534
 20
-4.999557
 30
0.0
 70
    48
  0
SEQEND
  5
226
  8
TEAM-BODY
  0
POLYLINE
  5
227
  8
TEAM-BODY
 66
     1
 10
0.0
 20
0.0
 30
0.0
 70
    12
 75
     6
  0
VERTEX
  5
228
  8
TEAM-BODY
 10
-221.067879
 20
-82.729141
 30
0.0
 70
    48
  0
VERTEX
  5
229
  8
TEAM-BODY
 10
-221.067879
 20
-82.729141
 30
0.0
 70
    40
  0
VERTEX
  5
22A
  8
TEAM-BODY
 10
-220.947632
 20
-80.424153
 30
0.0
 70
    40
  0
VERTEX
  5
22B
  8
TEAM-BODY
 10
-220.609752
 20
-78.458088
 30
0.0
 70
    40
  0
VERTEX
  5
22C
  8
TEAM-BODY
 10
-220.088528
 20
-76.800511
 30
0.0
 70
    40
  0
VERTEX
  5
22D
  8
TEAM-BODY
 10
-219.418249
 20
-75.420993
 30
0.0
 70
    40
  0
VERTEX
  5
22E
  8
TEAM-BODY
 10
-218.633205
 20
-74.289099
 30
0.0
 70
    40
  0
VERTEX
  5
22F
  8
TEAM-BODY
 10
-217.767686
 20
-73.3744
 30
0.0
 70
    40
  0
VERTEX
  5
230
  8
TEAM-BODY
 10
-216.855982
 20
-72.646461
 30
0.0
 70
    40
  0
VERTEX
  5
231
  8
TEAM-BODY
 10
-215.932381
 20
-72.074852
 30
0.0
 70
    40
  0
VERTEX
  5
232
  8
TEAM-BODY
 10
-215.027149
 20
-71.631589
 30
0.0
 70
    40
  0
VERTEX
  5
233
  8
TEAM-BODY
 10
-214.154457
 20
-71.298486
 30
0.0
 70
    40
  0
VERTEX
  5
234
  8
TEAM-BODY
 10
-213.324453
 20
-71.059806
 30
0.0
 70
    40
  0
VERTEX
  5
235
  8
TEAM-BODY
 10
-212.547282
 20
-70.899812
 30
0.0
 70
    40
  0
VERTEX
  5
236
  8
TEAM-BODY
 10
-211.833092
 20
-70.802766
 30
0.0
 70
    40
  0
VERTEX
  5
237
  8
TEAM-BODY
 10
-211.19203
 20
-70.752932
 30
0.0
 70
    40
  0
VERTEX
  5
238
  8
TEAM-BODY
 10
-210.634242
 20
-70.734572
 30
0.0
 70
    40
  0
VERTEX
  5
239
  8
TEAM-BODY
 10
-210.169876
 20
-70.731949
 30
0.0
 70
    40
  0
VERTEX
  5
23A
  8
TEAM-BODY
 10
-209.669473
 20
-70.731949
 30
0.0
 70
    40
  0
VERTEX
  5
23B
  8
TEAM-BODY
 10
-208.445152
 20
-70.731949
 30
0.0
 70
    40
  0
VERTEX
  5
23C
  8
TEAM-BODY
 10
-205.669427
 20
-70.731949
 30
0.0
 70
    40
  0
VERTEX
  5
23D
  8
TEAM-BODY
 10
-200.514813
 20
-70.731949
 30
0.0
 70
    40
  0
VERTEX
  5
23E
  8
TEAM-BODY
 10
-192.153824
 20
-70.731949
 30
0.0
 70
    40
  0
VERTEX
  5
23F
  8
TEAM-BODY
 10
-179.758973
 20
-70.731949
 30
0.0
 70
    40
  0
VERTEX
  5
240
  8
TEAM-BODY
 10
-162.502775
 20
-70.731949
 30
0.0
 70
    40
  0
VERTEX
  5
241
  8
TEAM-BODY
 10
-139.557743
 20
-70.731949
 30
0.0
 70
    40
  0
VERTEX
  5
242
  8
TEAM-BODY
 10
-110.50582
 20
-70.731949
 30
0.0
 70
    40
  0
VERTEX
  5
243
  8
TEAM-BODY
 10
-76.566658
 20
-70.731949
 30
0.0
 70
    40
  0
VERTEX
  5
244
  8
TEAM-BODY
 10
-39.369336
 20
-70.731949
 30
0.0
 70
    40
  0
VERTEX
  5
245
  8
TEAM-BODY
 10
-0.542935
 20
-70.731949
 30
0.0
 70
    40
  0
VERTEX
  5
246
  8
TEAM-BODY
 10
38.283467
 20
-70.731949
 30
0.0
 70
    40
  0
VERTEX
  5
247
  8
TEAM-BODY
 10
75.480789
 20
-70.731949
 30
0.0
 70
    40
  0
VERTEX
  5
248
  8
TEAM-BODY
 10
109.419951
 20
-70.731949
 30
0.0
 70
    40
  0
VERTEX
  5
249
  8
TEAM-BODY
 10
138.471874
 20
-70.731949
 30
0.0
 70
    40
  0
VERTEX
  5
24A
  8
TEAM-BODY
 10
161.416905
 20
-70.731949
 30
0.0
 70
    40
  0
VERTEX
  5
24B
  8
TEAM-BODY
 10
178.673096
 20
-70.731949
 30
0.0
 70
    40
  0
VERTEX
  5
24C
  8
TEAM-BODY
 10
191.06793
 20
-70.731949
 30
0.0
 70
    40
  0
VERTEX
  5
24D
  8
TEAM-BODY
 10
199.428886
 20
-70.731949
 30
0.0
 70
    40
  0
VERTEX
  5
24E
  8
TEAM-BODY
 10
204.583445
 20
-70.731949
 30
0.0
 70
    40
  0
VERTEX
  5
24F
  8
TEAM-BODY
 10
207.359086
 20
-70.731949
 30
0.0
 70
    40
  0
VERTEX
  5
250
  8
TEAM-BODY
 10
208.583292
 20
-70.731949
 30
0.0
 70
    40
  0
VERTEX
  5
251
  8
TEAM-BODY
 10
209.083542
 20
-70.731949
 30
0.0
 70
    40
  0
VERTEX
  5
252
  8
TEAM-BODY
 10
209.546837
 20
-70.733698
 30
0.0
 70
    40
  0
VERTEX
  5
253
  8
TEAM-BODY
 10
210.098262
 20
-70.745938
 30
0.0
 70
    40
  0
VERTEX
  5
254
  8
TEAM-BODY
 10
210.722421
 20
-70.77916
 30
0.0
 70
    40
  0
VERTEX
  5
255
  8
TEAM-BODY
 10
211.403919
 20
-70.843858
 30
0.0
 70
    40
  0
VERTEX
  5
256
  8
TEAM-BODY
 10
212.127362
 20
-70.95052
 30
0.0
 70
    40
  0
VERTEX
  5
257
  8
TEAM-BODY
 10
212.877353
 20
-71.10964
 30
0.0
 70
    40
  0
VERTEX
  5
258
  8
TEAM-BODY
 10
213.638498
 20
-71.331709
 30
0.0
 70
    40
  0
VERTEX
  5
259
  8
TEAM-BODY
 10
214.395401
 20
-71.627218
 30
0.0
 70
    40
  0
VERTEX
  5
25A
  8
TEAM-BODY
 10
215.133895
 20
-72.003569
 30
0.0
 70
    40
  0
VERTEX
  5
25B
  8
TEAM-BODY
 10
215.844721
 20
-72.455809
 30
0.0
 70
    40
  0
VERTEX
  5
25C
  8
TEAM-BODY
 10
216.519848
 20
-72.975896
 30
0.0
 70
    40
  0
VERTEX
  5
25D
  8
TEAM-BODY
 10
217.151243
 20
-73.555788
 30
0.0
 70
    40
  0
VERTEX
  5
25E
  8
TEAM-BODY
 10
217.730876
 20
-74.187442
 30
0.0
 70
    40
  0
VERTEX
  5
25F
  8
TEAM-BODY
 10
218.250716
 20
-74.862816
 30
0.0
 70
    40
  0
VERTEX
  5
260
  8
TEAM-BODY
 10
218.70273
 20
-75.573868
 30
0.0
 70
    40
  0
VERTEX
  5
261
  8
TEAM-BODY
 10
219.078888
 20
-76.312556
 30
0.0
 70
    40
  0
VERTEX
  5
262
  8
TEAM-BODY
 10
219.374243
 20
-77.069612
 30
0.0
 70
    40
  0
VERTEX
  5
263
  8
TEAM-BODY
 10
219.596197
 20
-77.830872
 30
0.0
 70
    40
  0
VERTEX
  5
264
  8
TEAM-BODY
 10
219.755235
 20
-78.580945
 30
0.0
 70
    40
  0
VERTEX
  5
265
  8
TEAM-BODY
 10
219.861843
 20
-79.304442
 30
0.0
 70
    40
  0
VERTEX
  5
266
  8
TEAM-BODY
 10
219.926506
 20
-79.985974
 30
0.0
 70
    40
  0
VERTEX
  5
267
  8
TEAM-BODY
 10
219.959712
 20
-80.61015
 30
0.0
 70
    40
  0
VERTEX
  5
268
  8
TEAM-BODY
 10
219.971946
 20
-81.161582
 30
0.0
 70
    40
  0
VERTEX
  5
269
  8
TEAM-BODY
 10
219.973694
 20
-81.624878
 30
0.0
 70
    40
  0
VERTEX
  5
26A
  8
TEAM-BODY
 10
219.973694
 20
-82.070977
 30
0.0
 70
    40
  0
VERTEX
  5
26B
  8
TEAM-BODY
 10
219.973694
 20
-82.916128
 30
0.0
 70
    40
  0
VERTEX
  5
26C
  8
TEAM-BODY
 10
219.973694
 20
-84.662907
 30
0.0
 70
    40
  0
VERTEX
  5
26D
  8
TEAM-BODY
 10
219.973694
 20
-87.813892
 30
0.0
 70
    40
  0
VERTEX
  5
26E
  8
TEAM-BODY
 10
219.973694
 20
-92.871658
 30
0.0
 70
    40
  0
VERTEX
  5
26F
  8
TEAM-BODY
 10
219.973694
 20
-100.338783
 30
0.0
 70
    40
  0
VERTEX
  5
270
  8
TEAM-BODY
 10
219.973694
 20
-110.717842
 30
0.0
 70
    40
  0
VERTEX
  5
271
  8
TEAM-BODY
 10
219.973694
 20
-124.511412
 30
0.0
 70
    40
  0
VERTEX
  5
272
  8
TEAM-BODY
 10
219.973694
 20
-141.975096
 30
0.0
 70
    40
  0
VERTEX
  5
273
  8
TEAM-BODY
 10
219.973694
 20
-162.376595
 30
0.0
 70
    40
  0
VERTEX
  5
274
  8
TEAM-BODY
 10
219.973694
 20
-184.736639
 30
0.0
 70
    40
  0
VERTEX
  5
275
  8
TEAM-BODY
 10
219.973694
 20
-208.075955
 30
0.0
 70
    40
  0
VERTEX
  5
276
  8
TEAM-BODY
 10
219.973694
 20
-231.41527
 30
0.0
 70
    40
  0
VERTEX
  5
277
  8
TEAM-BODY
 10
219.973694
 20
-253.775314
 30
0.0
 70
    40
  0
VERTEX
  5
278
  8
TEAM-BODY
 10
219.973694
 20
-274.176813
 30
0.0
 70
    40
  0
VERTEX
  5
279
  8
TEAM-BODY
 10
219.973694
 20
-291.640497
 30
0.0
 70
    40
  0
VERTEX
  5
27A
  8
TEAM-BODY
 10
219.973694
 20
-305.434067
 30
0.0
 70
    40
  0
VERTEX
  5
27B
  8
TEAM-BODY
 10
219.973694
 20
-315.813127
 30
0.0
 70
    40
  0
VERTEX
  5
27C
  8
TEAM-BODY
 10
219.973694
 20
-323.280251
 30
0.0
 70
    40
  0
VERTEX
  5
27D
  8
TEAM-BODY
 10
219.973694
 20
-328.338017
 30
0.0
 70
    40
  0
VERTEX
  5
27E
  8
TEAM-BODY
 10
219.973694
 20
-331.489002
 30
0.0
 70
    40
  0
VERTEX
  5
27F
  8
TEAM-BODY
 10
219.973694
 20
-333.235782
 30
0.0
 70
    40
  0
VERTEX
  5
280
  8
TEAM-BODY
 10
219.973694
 20
-334.080934
 30
0.0
 70
    40
  0
VERTEX
  5
281
  8
TEAM-BODY
 10
219.973694
 20
-334.527034
 30
0.0
 70
    40
  0
VERTEX
  5
282
  8
TEAM-BODY
 10
219.971946
 20
-334.990332
 30
0.0
 70
    40
  0
VERTEX
  5
283
  8
TEAM-BODY
 10
219.959712
 20
-335.54177
 30
0.0
 70
    40
  0
VERTEX
  5
284
  8
TEAM-BODY
 10
219.926506
 20
-336.165965
 30
0.0
 70
    40
  0
VERTEX
  5
285
  8
TEAM-BODY
 10
219.861843
 20
-336.847531
 30
0.0
 70
    40
  0
VERTEX
  5
286
  8
TEAM-BODY
 10
219.755235
 20
-337.571085
 30
0.0
 70
    40
  0
VERTEX
  5
287
  8
TEAM-BODY
 10
219.596197
 20
-338.321241
 30
0.0
 70
    40
  0
VERTEX
  5
288
  8
TEAM-BODY
 10
219.374243
 20
-339.082615
 30
0.0
 70
    40
  0
VERTEX
  5
289
  8
TEAM-BODY
 10
219.078888
 20
-339.839824
 30
0.0
 70
    40
  0
VERTEX
  5
28A
  8
TEAM-BODY
 10
218.70273
 20
-340.578703
 30
0.0
 70
    40
  0
VERTEX
  5
28B
  8
TEAM-BODY
 10
218.250716
 20
-341.289979
 30
0.0
 70
    40
  0
VERTEX
  5
28C
  8
TEAM-BODY
 10
217.730876
 20
-341.965599
 30
0.0
 70
    40
  0
VERTEX
  5
28D
  8
TEAM-BODY
 10
217.151243
 20
-342.597509
 30
0.0
 70
    40
  0
VERTEX
  5
28E
  8
TEAM-BODY
 10
216.519848
 20
-343.177657
 30
0.0
 70
    40
  0
VERTEX
  5
28F
  8
TEAM-BODY
 10
215.844721
 20
-343.697989
 30
0.0
 70
    40
  0
VERTEX
  5
290
  8
TEAM-BODY
 10
215.133895
 20
-344.150453
 30
0.0
 70
    40
  0
VERTEX
  5
291
  8
TEAM-BODY
 10
214.395401
 20
-344.526995
 30
0.0
 70
    40
  0
VERTEX
  5
292
  8
TEAM-BODY
 10
213.638498
 20
-344.822655
 30
0.0
 70
    40
  0
VERTEX
  5
293
  8
TEAM-BODY
 10
212.877353
 20
-345.044837
 30
0.0
 70
    40
  0
VERTEX
  5
294
  8
TEAM-BODY
 10
212.127362
 20
-345.204039
 30
0.0
 70
    40
  0
VERTEX
  5
295
  8
TEAM-BODY
 10
211.403919
 20
-345.310756
 30
0.0
 70
    40
  0
VERTEX
  5
296
  8
TEAM-BODY
 10
210.722421
 20
-345.375486
 30
0.0
 70
    40
  0
VERTEX
  5
297
  8
TEAM-BODY
 10
210.098262
 20
-345.408726
 30
0.0
 70
    40
  0
VERTEX
  5
298
  8
TEAM-BODY
 10
209.546837
 20
-345.420973
 30
0.0
 70
    40
  0
VERTEX
  5
299
  8
TEAM-BODY
 10
209.083542
 20
-345.422722
 30
0.0
 70
    40
  0
VERTEX
  5
29A
  8
TEAM-BODY
 10
208.583292
 20
-345.422722
 30
0.0
 70
    40
  0
VERTEX
  5
29B
  8
TEAM-BODY
 10
207.359086
 20
-345.422722
 30
0.0
 70
    40
  0
VERTEX
  5
29C
  8
TEAM-BODY
 10
204.583445
 20
-345.422722
 30
0.0
 70
    40
  0
VERTEX
  5
29D
  8
TEAM-BODY
 10
199.428886
 20
-345.422722
 30
0.0
 70
    40
  0
VERTEX
  5
29E
  8
TEAM-BODY
 10
191.06793
 20
-345.422722
 30
0.0
 70
    40
  0
VERTEX
  5
29F
  8
TEAM-BODY
 10
178.673096
 20
-345.422722
 30
0.0
 70
    40
  0
VERTEX
  5
2A0
  8
TEAM-BODY
 10
161.416905
 20
-345.422722
 30
0.0
 70
    40
  0
VERTEX
  5
2A1
  8
TEAM-BODY
 10
138.471874
 20
-345.422722
 30
0.0
 70
    40
  0
VERTEX
  5
2A2
  8
TEAM-BODY
 10
109.419951
 20
-345.422722
 30
0.0
 70
    40
  0
VERTEX
  5
2A3
  8
TEAM-BODY
 10
75.480789
 20
-345.422722
 30
0.0
 70
    40
  0
VERTEX
  5
2A4
  8
TEAM-BODY
 10
38.283467
 20
-345.422722
 30
0.0
 70
    40
  0
VERTEX
  5
2A5
  8
TEAM-BODY
 10
-0.542935
 20
-345.422722
 30
0.0
 70
    40
  0
VERTEX
  5
2A6
  8
TEAM-BODY
 10
-39.369336
 20
-345.422722
 30
0.0
 70
    40
  0
VERTEX
  5
2A7
  8
TEAM-BODY
 10
-76.566658
 20
-345.422722
 30
0.0
 70
    40
  0
VERTEX
  5
2A8
  8
TEAM-BODY
 10
-110.50582
 20
-345.422722
 30
0.0
 70
    40
  0
VERTEX
  5
2A9
  8
TEAM-BODY
 10
-139.557743
 20
-345.422722
 30
0.0
 70
    40
  0
VERTEX
  5
2AA
  8
TEAM-BODY
 10
-162.502775
 20
-345.422722
 30
0.0
 70
    40
  0
VERTEX
  5
2AB
  8
TEAM-BODY
 10
-179.758973
 20
-345.422722
 30
0.0
 70
    40
  0
VERTEX
  5
2AC
  8
TEAM-BODY
 10
-192.153824
 20
-345.422722
 30
0.0
 70
    40
  0
VERTEX
  5
2AD
  8
TEAM-BODY
 10
-200.514813
 20
-345.422722
 30
0.0
 70
    40
  0
VERTEX
  5
2AE
  8
TEAM-BODY
 10
-205.669427
 20
-345.422722
 30
0.0
 70
    40
  0
VERTEX
  5
2AF
  8
TEAM-BODY
 10
-208.445152
 20
-345.422722
 30
0.0
 70
    40
  0
VERTEX
  5
2B0
  8
TEAM-BODY
 10
-209.669473
 20
-345.422722
 30
0.0
 70
    40
  0
VERTEX
  5
2B1
  8
TEAM-BODY
 10
-210.169876
 20
-345.422722
 30
0.0
 70
    40
  0
VERTEX
  5
2B2
  8
TEAM-BODY
 10
-210.633368
 20
-345.420973
 30
0.0
 70
    40
  0
VERTEX
  5
2B3
  8
TEAM-BODY
 10
-211.185032
 20
-345.408726
 30
0.0
 70
    40
  0
VERTEX
  5
2B4
  8
TEAM-BODY
 10
-211.809475
 20
-345.375486
 30
0.0
 70
    40
  0
VERTEX
  5
2B5
  8
TEAM-BODY
 10
-212.491299
 20
-345.310756
 30
0.0
 70
    40
  0
VERTEX
  5
2B6
  8
TEAM-BODY
 10
-213.215111
 20
-345.204039
 30
0.0
 70
    40
  0
VERTEX
  5
2B7
  8
TEAM-BODY
 10
-213.965515
 20
-345.044837
 30
0.0
 70
    40
  0
VERTEX
  5
2B8
  8
TEAM-BODY
 10
-214.727116
 20
-344.822655
 30
0.0
 70
    40
  0
VERTEX
  5
2B9
  8
TEAM-BODY
 10
-215.484517
 20
-344.526995
 30
0.0
 70
    40
  0
VERTEX
  5
2BA
  8
TEAM-BODY
 10
-216.22355
 20
-344.150453
 30
0.0
 70
    40
  0
VERTEX
  5
2BB
  8
TEAM-BODY
 10
-216.934941
 20
-343.697989
 30
0.0
 70
    40
  0
VERTEX
  5
2BC
  8
TEAM-BODY
 10
-217.610643
 20
-343.177657
 30
0.0
 70
    40
  0
VERTEX
  5
2BD
  8
TEAM-BODY
 10
-218.242608
 20
-342.597509
 30
0.0
 70
    40
  0
VERTEX
  5
2BE
  8
TEAM-BODY
 10
-218.822789
 20
-341.965599
 30
0.0
 70
    40
  0
VERTEX
  5
2BF
  8
TEAM-BODY
 10
-219.343138
 20
-341.289979
 30
0.0
 70
    40
  0
VERTEX
  5
2C0
  8
TEAM-BODY
 10
-219.795609
 20
-340.578703
 30
0.0
 70
    40
  0
VERTEX
  5
2C1
  8
TEAM-BODY
 10
-220.172152
 20
-339.839824
 30
0.0
 70
    40
  0
VERTEX
  5
2C2
  8
TEAM-BODY
 10
-220.467812
 20
-339.082615
 30
0.0
 70
    40
  0
VERTEX
  5
2C3
  8
TEAM-BODY
 10
-220.689994
 20
-338.321241
 30
0.0
 70
    40
  0
VERTEX
  5
2C4
  8
TEAM-BODY
 10
-220.849195
 20
-337.571085
 30
0.0
 70
    40
  0
VERTEX
  5
2C5
  8
TEAM-BODY
 10
-220.955913
 20
-336.847531
 30
0.0
 70
    40
  0
VERTEX
  5
2C6
  8
TEAM-BODY
 10
-221.020643
 20
-336.165965
 30
0.0
 70
    40
  0
VERTEX
  5
2C7
  8
TEAM-BODY
 10
-221.053883
 20
-335.54177
 30
0.0
 70
    40
  0
VERTEX
  5
2C8
  8
TEAM-BODY
 10
-221.066129
 20
-334.990332
 30
0.0
 70
    40
  0
VERTEX
  5
2C9
  8
TEAM-BODY
 10
-221.067879
 20
-334.527034
 30
0.0
 70
    40
  0
VERTEX
  5
2CA
  8
TEAM-BODY
 10
-221.067879
 20
-334.080934
 30
0.0
 70
    40
  0
VERTEX
  5
2CB
  8
TEAM-BODY
 10
-221.067879
 20
-333.235782
 30
0.0
 70
    40
  0
VERTEX
  5
2CC
  8
TEAM-BODY
 10
-221.067879
 20
-331.489002
 30
0.0
 70
    40
  0
VERTEX
  5
2CD
  8
TEAM-BODY
 10
-221.067879
 20
-328.338017
 30
0.0
 70
    40
  0
VERTEX
  5
2CE
  8
TEAM-BODY
 10
-221.067879
 20
-323.280251
 30
0.0
 70
    40
  0
VERTEX
  5
2CF
  8
TEAM-BODY
 10
-221.067879
 20
-315.813127
 30
0.0
 70
    40
  0
VERTEX
  5
2D0
  8
TEAM-BODY
 10
-221.067879
 20
-305.434067
 30
0.0
 70
    40
  0
VERTEX
  5
2D1
  8
TEAM-BODY
 10
-221.067879
 20
-291.640497
 30
0.0
 70
    40
  0
VERTEX
  5
2D2
  8
TEAM-BODY
 10
-221.067879
 20
-274.176813
 30
0.0
 70
    40
  0
VERTEX
  5
2D3
  8
TEAM-BODY
 10
-221.067879
 20
-253.775314
 30
0.0
 70
    40
  0
VERTEX
  5
2D4
  8
TEAM-BODY
 10
-221.067879
 20
-231.41527
 30
0.0
 70
    40
  0
VERTEX
  5
2D5
  8
TEAM-BODY
 10
-221.067879
 20
-208.075955
 30
0.0
 70
    40
  0
VERTEX
  5
2D6
  8
TEAM-BODY
 10
-221.067879
 20
-184.736639
 30
0.0
 70
    40
  0
VERTEX
  5
2D7
  8
TEAM-BODY
 10
-221.067879
 20
-162.376595
 30
0.0
 70
    40
  0
VERTEX
  5
2D8
  8
TEAM-BODY
 10
-221.067879
 20
-141.975096
 30
0.0
 70
    40
  0
VERTEX
  5
2D9
  8
TEAM-BODY
 10
-221.067879
 20
-124.511412
 30
0.0
 70
    40
  0
VERTEX
  5
2DA
  8
TEAM-BODY
 10
-221.067879
 20
-110.719998
 30
0.0
 70
    40
  0
VERTEX
  5
2DB
  8
TEAM-BODY
 10
-221.067879
 20
-100.356037
 30
0.0
 70
    40
  0
VERTEX
  5
2DC
  8
TEAM-BODY
 10
-221.067879
 20
-92.929891
 30
0.0
 70
    40
  0
VERTEX
  5
2DD
  8
TEAM-BODY
 10
-221.067879
 20
-87.951925
 30
0.0
 70
    40
  0
VERTEX
  5
2DE
  8
TEAM-BODY
 10
-221.067879
 20
-84.932503
 30
0.0
 70
    40
  0
VERTEX
  5
2DF
  8
TEAM-BODY
 10
-221.067879
 20
-83.381989
 30
0.0
 70
    40
  0
VERTEX
  5
2E0
  8
TEAM-BODY
 10
-221.067879
 20
-82.810747
 30
0.0
 70
    40
  0
VERTEX
  5
2E1
  8
TEAM-BODY
 10
-221.067879
 20
-82.729141
 30
0.0
 70
    40
  0
VERTEX
  5
2E2
  8
TEAM-BODY
 10
-221.067879
 20
-82.729141
 30
0.0
 70
    40
  0
VERTEX
  5
2E3
  8
TEAM-BODY
 10
-221.067879
 20
-82.729141
 30
0.0
 70
    40
  0
VERTEX
  5
2E4
  8
TEAM-BODY
 10
-221.067879
 20
-82.729141
 30
0.0
 70
    40
  0
VERTEX
  5
2E5
  8
TEAM-BODY
 10
-221.067879
 20
-82.729141
 30
0.0
 70
    40
  0
VERTEX
  5
2E6
  8
TEAM-BODY
 10
-221.067879
 20
-82.729141
 30
0.0
 70
    40
  0
VERTEX
  5
2E7
  8
TEAM-BODY
 10
-221.067879
 20
-82.729141
 30
0.0
 70
    40
  0
VERTEX
  5
2E8
  8
TEAM-BODY
 10
-221.067879
 20
-82.729141
 30
0.0
 70
    40
  0
VERTEX
  5
2E9
  8
TEAM-BODY
 10
-221.067879
 20
-82.729141
 30
0.0
 70
    40
  0
VERTEX
  5
2EA
  8
TEAM-BODY
 10
-221.067879
 20
-82.729141
 30
0.0
 70
    40
  0
VERTEX
  5
2EB
  8
TEAM-BODY
 10
-221.067879
 20
-82.729141
 30
0.0
 70
    40
  0
VERTEX
  5
2EC
  8
TEAM-BODY
 10
-221.067879
 20
-82.729141
 30
0.0
 70
    40
  0
VERTEX
  5
2ED
  8
TEAM-BODY
 10
-221.067879
 20
-82.729141
 30
0.0
 70
    40
  0
VERTEX
  5
2EE
  8
TEAM-BODY
 10
-221.067879
 20
-82.729141
 30
0.0
 70
    40
  0
VERTEX
  5
2EF
  8
TEAM-BODY
 10
-221.067879
 20
-82.729141
 30
0.0
 70
    40
  0
VERTEX
  5
2F0
  8
TEAM-BODY
 10
-221.067879
 20
-82.729141
 30
0.0
 70
    40
  0
VERTEX
  5
2F1
  8
TEAM-BODY
 10
-221.067879
 20
-82.729141
 30
0.0
 70
    40
  0
VERTEX
  5
2F2
  8
TEAM-BODY
 10
-221.067879
 20
-76.103561
 30
0.0
 70
    48
  0
VERTEX
  5
2F3
  8
TEAM-BODY
 10
-215.69352
 20
-70.731949
 30
0.0
 70
    48
  0
VERTEX
  5
2F4
  8
TEAM-BODY
 10
-209.065148
 20
-70.731949
 30
0.0
 70
    48
  0
VERTEX
  5
2F5
  8
TEAM-BODY
 10
-209.065148
 20
-70.731949
 30
0.0
 70
    48
  0
VERTEX
  5
2F6
  8
TEAM-BODY
 10
207.979278
 20
-70.731949
 30
0.0
 70
    48
  0
VERTEX
  5
2F7
  8
TEAM-BODY
 10
207.979278
 20
-70.731949
 30
0.0
 70
    48
  0
VERTEX
  5
2F8
  8
TEAM-BODY
 10
214.604858
 20
-70.731949
 30
0.0
 70
    48
  0
VERTEX
  5
2F9
  8
TEAM-BODY
 10
219.973694
 20
-76.103561
 30
0.0
 70
    48
  0
VERTEX
  5
2FA
  8
TEAM-BODY
 10
219.973694
 20
-82.729141
 30
0.0
 70
    48
  0
VERTEX
  5
2FB
  8
TEAM-BODY
 10
219.973694
 20
-82.729141
 30
0.0
 70
    48
  0
VERTEX
  5
2FC
  8
TEAM-BODY
 10
219.973694
 20
-333.422768
 30
0.0
 70
    48
  0
VERTEX
  5
2FD
  8
TEAM-BODY
 10
219.973694
 20
-333.422768
 30
0.0
 70
    48
  0
VERTEX
  5
2FE
  8
TEAM-BODY
 10
219.973694
 20
-340.048363
 30
0.0
 70
    48
  0
VERTEX
  5
2FF
  8
TEAM-BODY
 10
214.604858
 20
-345.422722
 30
0.0
 70
    48
  0
VERTEX
  5
300
  8
TEAM-BODY
 10
207.979278
 20
-345.422722
 30
0.0
 70
    48
  0
VERTEX
  5
301
  8
TEAM-BODY
 10
207.979278
 20
-345.422722
 30
0.0
 70
    48
  0
VERTEX
  5
302
  8
TEAM-BODY
 10
-209.065148
 20
-345.422722
 30
0.0
 70
    48
  0
VERTEX
  5
303
  8
TEAM-BODY
 10
-209.065148
 20
-345.422722
 30
0.0
 70
    48
  0
VERTEX
  5
304
  8
TEAM-BODY
 10
-215.69352
 20
-345.422722
 30
0.0
 70
    48
  0
VERTEX
  5
305
  8
TEAM-BODY
 10
-221.067879
 20
-340.048363
 30
0.0
 70
    48
  0
VERTEX
  5
306
  8
TEAM-BODY
 10
-221.067879
 20
-333.422768
 30
0.0
 70
    48
  0
VERTEX
  5
307
  8
TEAM-BODY
 10
-221.067879
 20
-333.422768
 30
0.0
 70
    48
  0
VERTEX
  5
308
  8
TEAM-BODY
 10
-221.067879
 20
-82.729141
 30
0.0
 70
    48
  0
VERTEX
  5
309
  8
TEAM-BODY
 10
-221.067879
 20
-82.729141
 30
0.0
 70
    48
  0
VERTEX
  5
30A
  8
TEAM-BODY
 10
-221.067879
 20
-82.729141
 30
0.0
 70
    48
  0
VERTEX
  5
30B
  8
TEAM-BODY
 10
-221.067879
 20
-82.729141
 30
0.0
 70
    48
  0
VERTEX
  5
30C
  8
TEAM-BODY
 10
-221.067879
 20
-82.729141
 30
0.0
 70
    48
  0
SEQEND
  5
30D
  8
TEAM-BODY
  0
ENDSEC
  0
EOF
