  0
SECTION
  2
HEADER
  9
$ACADVER
  1
AC1009
  9
$INSBASE
 10
0.0
 20
0.0
 30
0.0
  9
$EXTMIN
 10
-239.037208
 20
-10.024274
 30
0.0
  9
$EXTMAX
 10
263.459714
 20
522.78584
 30
0.000005
  9
$LIMMIN
 10
-239.037208
 20
-10.024274
  9
$LIMMAX
 10
263.459714
 20
522.78584
  9
$ORTHOMODE
 70
     1
  9
$REGENMODE
 70
     1
  9
$FILLMODE
 70
     1
  9
$QTEXTMODE
 70
     0
  9
$MIRRTEXT
 70
     0
  9
$DRAGMODE
 70
     2
  9
$LTSCALE
 40
50.0
  9
$OSMODE
 70
     0
  9
$ATTMODE
 70
     1
  9
$TEXTSIZE
 40
200.0
  9
$TRACEWID
 40
1.0
  9
$TEXTSTYLE
  7
STANDARD
  9
$CLAYER
  8
TEAM-MAS
  9
$CELTYPE
  6
BYLAYER
  9
$CECOLOR
 62
   256
  9
$DIMSCALE
 40
0.0
  9
$DIMASZ
 40
20.0
  9
$DIMEXO
 40
10.0
  9
$DIMDLI
 40
1.0
  9
$DIMRND
 40
0.0
  9
$DIMDLE
 40
0.0
  9
$DIMEXE
 40
1.0
  9
$DIMTP
 40
0.0
  9
$DIMTM
 40
0.0
  9
$DIMTXT
 40
35.0
  9
$DIMCEN
 40
1.0
  9
$DIMTSZ
 40
0.0
  9
$DIMTOL
 70
     0
  9
$DIMLIM
 70
     0
  9
$DIMTIH
 70
     0
  9
$DIMTOH
 70
     0
  9
$DIMSE1
 70
     0
  9
$DIMSE2
 70
     0
  9
$DIMTAD
 70
     0
  9
$DIMZIN
 70
     0
  9
$DIMBLK
  1

  9
$DIMASO
 70
     1
  9
$DIMSHO
 70
     0
  9
$DIMPOST
  1

  9
$DIMAPOST
  1

  9
$DIMALT
 70
     0
  9
$DIMALTD
 70
     2
  9
$DIMALTF
 40
25.4
  9
$DIMLFAC
 40
1.0
  9
$DIMTOFL
 70
     0
  9
$DIMTVP
 40
0.0
  9
$DIMTIX
 70
     0
  9
$DIMSOXD
 70
     0
  9
$DIMSAH
 70
     0
  9
$DIMBLK1
  1

  9
$DIMBLK2
  1

  9
$DIMSTYLE
  2
TEAM
  9
$DIMCLRD
 70
     9
  9
$DIMCLRE
 70
     9
  9
$DIMCLRT
 70
    11
  9
$DIMTFAC
 40
1.0
  9
$DIMGAP
 40
7.0
  9
$LUNITS
 70
     2
  9
$LUPREC
 70
     1
  9
$SKETCHINC
 40
1.0
  9
$FILLETRAD
 40
10.0
  9
$AUNITS
 70
     0
  9
$AUPREC
 70
     0
  9
$MENU
  1
ROPLANS
  9
$ELEVATION
 40
0.0
  9
$PELEVATION
 40
0.0
  9
$THICKNESS
 40
0.0
  9
$LIMCHECK
 70
     0
  9
$BLIPMODE
 70
     1
  9
$CHAMFERA
 40
0.0
  9
$CHAMFERB
 40
0.0
  9
$SKPOLY
 70
     0
  9
$TDCREATE
 40
2450392.957851
  9
$TDUPDATE
 40
2456108.504222
  9
$TDINDWG
 40
4.193894
  9
$TDUSRTIMER
 40
4.193894
  9
$USRTIMER
 70
     1
  9
$ANGBASE
 50
0.0
  9
$ANGDIR
 70
     0
  9
$PDMODE
 70
     0
  9
$PDSIZE
 40
0.0
  9
$PLINEWID
 40
0.0
  9
$COORDS
 70
     2
  9
$SPLFRAME
 70
     0
  9
$SPLINETYPE
 70
     6
  9
$SPLINESEGS
 70
     8
  9
$ATTDIA
 70
     0
  9
$ATTREQ
 70
     0
  9
$HANDLING
 70
     1
  9
$HANDSEED
  5
16E
  9
$SURFTAB1
 70
    36
  9
$SURFTAB2
 70
    36
  9
$SURFTYPE
 70
     6
  9
$SURFU
 70
     6
  9
$SURFV
 70
     6
  9
$UCSNAME
  2

  9
$UCSORG
 10
0.0
 20
0.0
 30
0.0
  9
$UCSXDIR
 10
1.0
 20
0.0
 30
0.0
  9
$UCSYDIR
 10
0.0
 20
1.0
 30
0.0
  9
$PUCSNAME
  2

  9
$PUCSORG
 10
0.0
 20
0.0
 30
0.0
  9
$PUCSXDIR
 10
1.0
 20
0.0
 30
0.0
  9
$PUCSYDIR
 10
0.0
 20
1.0
 30
0.0
  9
$USERI1
 70
     0
  9
$USERI2
 70
     0
  9
$USERI3
 70
     0
  9
$USERI4
 70
     0
  9
$USERI5
 70
     0
  9
$USERR1
 40
0.0
  9
$USERR2
 40
0.0
  9
$USERR3
 40
0.0
  9
$USERR4
 40
0.0
  9
$USERR5
 40
0.0
  9
$WORLDVIEW
 70
     1
  9
$SHADEDGE
 70
     0
  9
$SHADEDIF
 70
    70
  9
$TILEMODE
 70
     1
  9
$MAXACTVP
 70
    16
  9
$PLIMCHECK
 70
     0
  9
$PEXTMIN
 10
-0.805942
 20
0.005011
 30
0.0
  9
$PEXTMAX
 10
20.250094
 20
11.356329
 30
0.0
  9
$PLIMMIN
 10
0.0
 20
0.0
  9
$PLIMMAX
 10
12.0
 20
9.0
  9
$UNITMODE
 70
     0
  9
$VISRETAIN
 70
     0
  9
$PLINEGEN
 70
     0
  9
$PSLTSCALE
 70
     0
  0
ENDSEC
  0
SECTION
  2
TABLES
  0
TABLE
  2
VPORT
 70
     2
  0
VPORT
  2
*ACTIVE
 70
     0
 10
0.0
 20
0.0
 11
1.0
 21
1.0
 12
12.211253
 22
256.380783
 13
0.0
 23
0.0
 14
1.0
 24
1.0
 15
50.0
 25
50.0
 16
0.0
 26
0.0
 36
1.0
 17
0.0
 27
0.0
 37
0.0
 40
536.164638
 41
1.911765
 42
50.0
 43
0.0
 44
0.0
 50
0.0
 51
0.0
 71
     0
 72
   100
 73
     1
 74
     1
 75
     0
 76
     0
 77
     0
 78
     0
  0
ENDTAB
  0
TABLE
  2
LTYPE
 70
     3
  0
LTYPE
  2
CONTINUOUS
 70
     0
  3
Solid Line
 72
    65
 73
     0
 40
0.0
  0
LTYPE
  2
31
 70
     0
  3

 72
    65
 73
     4
 40
2.1
 49
1.5
 49
-0.3
 49
0.0
 49
-0.3
  0
LTYPE
  2
22
 70
     0
  3

 72
    65
 73
     2
 40
1.4
 49
1.2
 49
-0.2
  0
ENDTAB
  0
TABLE
  2
LAYER
 70
    10
  0
LAYER
  2
0
 70
     0
 62
     7
  6
CONTINUOUS
  0
LAYER
  2
DEFPOINTS
 70
     0
 62
     7
  6
CONTINUOUS
  0
LAYER
  2
TEAM-BODY
 70
     0
 62
     2
  6
CONTINUOUS
  0
LAYER
  2
TEAM-AXE
 70
     0
 62
    10
  6
31
  0
LAYER
  2
TEAM-MAS
 70
     0
 62
     9
  6
CONTINUOUS
  0
LAYER
  2
TEAM-TXT
 70
     0
 62
    11
  6
CONTINUOUS
  0
LAYER
  2
TEAM-COLD
 70
     0
 62
     3
  6
CONTINUOUS
  0
LAYER
  2
TEAM-HIDE
 70
     0
 62
     8
  6
22
  0
LAYER
  2
TEAM-KAN
 70
     0
 62
     6
  6
CONTINUOUS
  0
LAYER
  2
TEAM-INSP
 70
     0
 62
     5
  6
CONTINUOUS
  0
ENDTAB
  0
TABLE
  2
STYLE
 70
     2
  0
STYLE
  2
STANDARD
 70
     0
 40
0.0
 41
1.0
 50
0.0
 71
     0
 42
200.0
  3
txt
  4

  0
STYLE
  2
TEAM
 70
     0
 40
0.0
 41
0.8
 50
15.0
 71
     0
 42
7.0
  3
ROMANS.shx
  4

  0
ENDTAB
  0
TABLE
  2
VIEW
 70
     0
  0
ENDTAB
  0
TABLE
  2
UCS
 70
     0
  0
ENDTAB
  0
TABLE
  2
APPID
 70
     1
  0
APPID
  2
ACAD
 70
     0
  0
ENDTAB
  0
TABLE
  2
DIMSTYLE
 70
     1
  0
DIMSTYLE
  2
TEAM
 70
     0
  3

  4

  5

  6

  7

 40
0.0
 41
20.0
 42
10.0
 43
1.0
 44
1.0
 45
0.0
 46
0.0
 47
0.0
 48
0.0
140
35.0
141
1.0
142
0.0
143
25.4
144
1.0
145
0.0
146
1.0
147
7.0
 71
     0
 72
     0
 73
     0
 74
     0
 75
     0
 76
     0
 77
     0
 78
     0
170
     0
171
     2
172
     0
173
     0
174
     0
175
     0
176
     9
177
     9
178
    11
  0
ENDTAB
  0
ENDSEC
  0
SECTION
  2
BLOCKS
  0
BLOCK
  8
0
  2
$MODEL_SPACE
 70
     0
 10
0.0
 20
0.0
 30
0.0
  3
$MODEL_SPACE
  1

  0
ENDBLK
  5
140
  8
0
  0
BLOCK
 67
     1
  8
0
  2
$PAPER_SPACE
 70
     0
 10
0.0
 20
0.0
 30
0.0
  3
$PAPER_SPACE
  1

  0
ENDBLK
  5
13E
 67
     1
  8
0
  0
BLOCK
  8
0
  2
*D0
 70
     1
 10
0.0
 20
0.0
 30
0.0
  3
*D0
  1

  0
LINE
  5
4A
  8
0
  6
BYBLOCK
 62
     9
 10
12010.0
 20
48000.0
 30
0.0
 11
12246.946929
 21
48000.0
 31
0.0
  0
LINE
  5
4B
  8
0
  6
BYBLOCK
 62
     9
 10
12172.424925
 20
48400.0
 30
0.0
 11
12246.946929
 21
48400.0
 31
0.0
  0
LINE
  5
4C
  8
0
  6
BYBLOCK
 62
     9
 10
12245.946929
 20
48020.0
 30
0.0
 11
12245.946929
 21
48152.166667
 31
0.0
  0
LINE
  5
4D
  8
0
  6
BYBLOCK
 62
     9
 10
12245.946929
 20
48380.0
 30
0.0
 11
12245.946929
 21
48247.833333
 31
0.0
  0
SOLID
  5
4E
  8
0
  6
BYBLOCK
 62
     9
 10
12242.613596
 20
48020.0
 30
0.0
 11
12249.280263
 21
48020.0
 31
0.0
 12
12245.946929
 22
48000.0
 32
0.0
 13
12245.946929
 23
48000.0
 33
0.0
  0
SOLID
  5
4F
  8
0
  6
BYBLOCK
 62
     9
 10
12242.613596
 20
48380.0
 30
0.0
 11
12249.280263
 21
48380.0
 31
0.0
 12
12245.946929
 22
48400.0
 32
0.0
 13
12245.946929
 23
48400.0
 33
0.0
  0
TEXT
  5
50
  8
0
  6
BYBLOCK
 62
    11
 10
12263.446929
 20
48159.166667
 30
0.0
 40
35.0
  1
400
 50
90.0
  0
POINT
  5
51
  8
DEFPOINTS
  6
BYBLOCK
 62
     0
 10
12000.0
 20
48000.0
 30
0.0
  0
POINT
  5
52
  8
DEFPOINTS
  6
BYBLOCK
 62
     0
 10
12162.424925
 20
48400.0
 30
0.0
  0
POINT
  5
53
  8
DEFPOINTS
  6
BYBLOCK
 62
     0
 10
12245.946929
 20
48400.0
 30
0.0
  0
ENDBLK
  5
55
  8
0
  0
BLOCK
  8
0
  2
*D1
 70
     1
 10
0.0
 20
0.0
 30
0.0
  3
*D1
  1

  0
LINE
  5
AF
  8
0
  6
BYBLOCK
 62
     9
 10
11909.892779
 20
48348.999256
 30
0.0
 11
11909.892779
 21
48456.397805
 31
0.0
  0
LINE
  5
B0
  8
0
  6
BYBLOCK
 62
     9
 10
12089.892779
 20
48348.999256
 30
0.0
 11
12089.892779
 21
48456.397805
 31
0.0
  0
LINE
  5
B1
  8
0
  6
BYBLOCK
 62
     9
 10
11929.892779
 20
48455.397805
 30
0.0
 11
11954.976112
 21
48455.397805
 31
0.0
  0
LINE
  5
B2
  8
0
  6
BYBLOCK
 62
     9
 10
12069.892779
 20
48455.397805
 30
0.0
 11
12044.809446
 21
48455.397805
 31
0.0
  0
SOLID
  5
B3
  8
0
  6
BYBLOCK
 62
     9
 10
11929.892779
 20
48458.731138
 30
0.0
 11
11929.892779
 21
48452.064472
 31
0.0
 12
11909.892779
 22
48455.397805
 32
0.0
 13
11909.892779
 23
48455.397805
 33
0.0
  0
SOLID
  5
B4
  8
0
  6
BYBLOCK
 62
     9
 10
12069.892779
 20
48458.731138
 30
0.0
 11
12069.892779
 21
48452.064472
 31
0.0
 12
12089.892779
 22
48455.397805
 32
0.0
 13
12089.892779
 23
48455.397805
 33
0.0
  0
TEXT
  5
B5
  8
0
  6
BYBLOCK
 62
    11
 10
11961.976112
 20
48437.897805
 30
0.0
 40
35.0
  1
180
  0
POINT
  5
B6
  8
DEFPOINTS
  6
BYBLOCK
 62
     0
 10
11909.892779
 20
48338.999256
 30
0.0
  0
POINT
  5
B7
  8
DEFPOINTS
  6
BYBLOCK
 62
     0
 10
12089.892779
 20
48338.999256
 30
0.0
  0
POINT
  5
B8
  8
DEFPOINTS
  6
BYBLOCK
 62
     0
 10
12089.892779
 20
48455.397805
 30
0.0
  0
ENDBLK
  5
BA
  8
0
  0
BLOCK
  8
0
  2
*D2
 70
     1
 10
0.0
 20
0.0
 30
0.0
  3
*D2
  1

  0
LINE
  5
75
  8
0
  6
BYBLOCK
 62
     9
 10
11822.5
 20
48392.65
 30
0.0
 11
11822.5
 21
48506.245162
 31
0.0
  0
LINE
  5
76
  8
0
  6
BYBLOCK
 62
     9
 10
12177.5
 20
48392.65
 30
0.0
 11
12177.5
 21
48506.245162
 31
0.0
  0
LINE
  5
77
  8
0
  6
BYBLOCK
 62
     9
 10
11842.5
 20
48505.245162
 30
0.0
 11
11946.333333
 21
48505.245162
 31
0.0
  0
LINE
  5
78
  8
0
  6
BYBLOCK
 62
     9
 10
12157.5
 20
48505.245162
 30
0.0
 11
12053.666667
 21
48505.245162
 31
0.0
  0
SOLID
  5
79
  8
0
  6
BYBLOCK
 62
     9
 10
11842.5
 20
48508.578495
 30
0.0
 11
11842.5
 21
48501.911829
 31
0.0
 12
11822.5
 22
48505.245162
 32
0.0
 13
11822.5
 23
48505.245162
 33
0.0
  0
SOLID
  5
7A
  8
0
  6
BYBLOCK
 62
     9
 10
12157.5
 20
48508.578495
 30
0.0
 11
12157.5
 21
48501.911829
 31
0.0
 12
12177.5
 22
48505.245162
 32
0.0
 13
12177.5
 23
48505.245162
 33
0.0
  0
TEXT
  5
7B
  8
0
  6
BYBLOCK
 62
    11
 10
11953.333333
 20
48487.745162
 30
0.0
 40
35.0
  1
355
  0
POINT
  5
7C
  8
DEFPOINTS
  6
BYBLOCK
 62
     0
 10
11822.5
 20
48382.65
 30
0.0
  0
POINT
  5
7D
  8
DEFPOINTS
  6
BYBLOCK
 62
     0
 10
12177.5
 20
48382.65
 30
0.0
  0
POINT
  5
7E
  8
DEFPOINTS
  6
BYBLOCK
 62
     0
 10
12177.5
 20
48505.245162
 30
0.0
  0
ENDBLK
  5
80
  8
0
  0
BLOCK
  8
0
  2
*D3
 70
     1
 10
0.0
 20
0.0
 30
0.0
  3
*D3
  1

  0
LINE
  5
58
  8
0
  6
BYBLOCK
 62
     9
 10
12119.892779
 20
48329.999256
 30
0.0
 11
12202.815717
 21
48329.999256
 31
0.0
  0
LINE
  5
59
  8
0
  6
BYBLOCK
 62
     9
 10
12060.0
 20
48229.99702
 30
0.0
 11
12202.815717
 21
48229.99702
 31
0.0
  0
LINE
  5
5A
  8
0
  6
BYBLOCK
 62
     9
 10
12201.815717
 20
48309.999256
 30
0.0
 11
12201.815717
 21
48249.99702
 31
0.0
  0
TEXT
  5
5B
  8
0
  6
BYBLOCK
 62
    11
 10
12218.455434
 20
48137.807436
 30
0.0
 40
35.0
  1
100
 50
90.0
  0
SOLID
  5
5C
  8
0
  6
BYBLOCK
 62
     9
 10
12198.482384
 20
48309.999256
 30
0.0
 11
12205.14905
 21
48309.999256
 31
0.0
 12
12201.815717
 22
48329.999256
 32
0.0
 13
12201.815717
 23
48329.999256
 33
0.0
  0
SOLID
  5
5D
  8
0
  6
BYBLOCK
 62
     9
 10
12198.482384
 20
48249.99702
 30
0.0
 11
12205.14905
 21
48249.99702
 31
0.0
 12
12201.815717
 22
48229.99702
 32
0.0
 13
12201.815717
 23
48229.99702
 33
0.0
  0
POINT
  5
5E
  8
DEFPOINTS
  6
BYBLOCK
 62
     0
 10
12109.892779
 20
48329.999256
 30
0.0
  0
POINT
  5
5F
  8
DEFPOINTS
  6
BYBLOCK
 62
     0
 10
12050.0
 20
48229.99702
 30
0.0
  0
POINT
  5
60
  8
DEFPOINTS
  6
BYBLOCK
 62
     0
 10
12201.815717
 20
48229.99702
 30
0.0
  0
ENDBLK
  5
62
  8
0
  0
BLOCK
  8
0
  2
*D4
 70
     1
 10
0.0
 20
0.0
 30
0.0
  3
*D4
  1

  0
LINE
  5
3C
  8
0
  6
BYBLOCK
 62
     9
 10
11965.0
 20
48364.99702
 30
0.0
 11
11777.463509
 21
48364.99702
 31
0.0
  0
LINE
  5
3D
  8
0
  6
BYBLOCK
 62
     9
 10
11940.0
 20
48229.99702
 30
0.0
 11
11777.463509
 21
48229.99702
 31
0.0
  0
LINE
  5
3E
  8
0
  6
BYBLOCK
 62
     9
 10
11778.463509
 20
48384.99702
 30
0.0
 11
11778.463509
 21
48404.99702
 31
0.0
  0
LINE
  5
3F
  8
0
  6
BYBLOCK
 62
     9
 10
11778.463509
 20
48209.99702
 30
0.0
 11
11778.463509
 21
48189.99702
 31
0.0
  0
SOLID
  5
40
  8
0
  6
BYBLOCK
 62
     9
 10
11775.130176
 20
48384.99702
 30
0.0
 11
11781.796843
 21
48384.99702
 31
0.0
 12
11778.463509
 22
48364.99702
 32
0.0
 13
11778.463509
 23
48364.99702
 33
0.0
  0
SOLID
  5
41
  8
0
  6
BYBLOCK
 62
     9
 10
11775.130176
 20
48209.99702
 30
0.0
 11
11781.796843
 21
48209.99702
 31
0.0
 12
11778.463509
 22
48229.99702
 32
0.0
 13
11778.463509
 23
48229.99702
 33
0.0
  0
TEXT
  5
42
  8
0
  6
BYBLOCK
 62
    11
 10
11795.963509
 20
48256.663687
 30
0.0
 40
35.0
  1
135
 50
90.0
  0
POINT
  5
43
  8
DEFPOINTS
  6
BYBLOCK
 62
     0
 10
11975.0
 20
48364.99702
 30
0.0
  0
POINT
  5
44
  8
DEFPOINTS
  6
BYBLOCK
 62
     0
 10
11950.0
 20
48229.99702
 30
0.0
  0
POINT
  5
45
  8
DEFPOINTS
  6
BYBLOCK
 62
     0
 10
11778.463509
 20
48229.99702
 30
0.0
  0
ENDBLK
  5
47
  8
0
  0
BLOCK
  8
0
  2
*D5
 70
     1
 10
0.0
 20
0.0
 30
0.0
  3
*D5
  1

  0
LINE
  5
2D
  8
0
  6
BYBLOCK
 62
     9
 10
11990.0
 20
48000.0
 30
0.0
 11
11777.463509
 21
48000.0
 31
0.0
  0
LINE
  5
2E
  8
0
  6
BYBLOCK
 62
     9
 10
11940.0
 20
48229.99702
 30
0.0
 11
11777.463509
 21
48229.99702
 31
0.0
  0
LINE
  5
2F
  8
0
  6
BYBLOCK
 62
     9
 10
11778.463509
 20
48020.0
 30
0.0
 11
11778.463509
 21
48064.24851
 31
0.0
  0
LINE
  5
30
  8
0
  6
BYBLOCK
 62
     9
 10
11778.463509
 20
48209.99702
 30
0.0
 11
11778.463509
 21
48165.74851
 31
0.0
  0
SOLID
  5
31
  8
0
  6
BYBLOCK
 62
     9
 10
11775.130176
 20
48020.0
 30
0.0
 11
11781.796843
 21
48020.0
 31
0.0
 12
11778.463509
 22
48000.0
 32
0.0
 13
11778.463509
 23
48000.0
 33
0.0
  0
SOLID
  5
32
  8
0
  6
BYBLOCK
 62
     9
 10
11775.130176
 20
48209.99702
 30
0.0
 11
11781.796843
 21
48209.99702
 31
0.0
 12
11778.463509
 22
48229.99702
 32
0.0
 13
11778.463509
 23
48229.99702
 33
0.0
  0
TEXT
  5
33
  8
0
  6
BYBLOCK
 62
    11
 10
11795.963509
 20
48071.24851
 30
0.0
 40
35.0
  1
230
 50
90.0
  0
POINT
  5
34
  8
DEFPOINTS
  6
BYBLOCK
 62
     0
 10
12000.0
 20
48000.0
 30
0.0
  0
POINT
  5
36
  8
DEFPOINTS
  6
BYBLOCK
 62
     0
 10
11950.0
 20
48229.99702
 30
0.0
  0
POINT
  5
37
  8
DEFPOINTS
  6
BYBLOCK
 62
     0
 10
11778.463509
 20
48229.99702
 30
0.0
  0
ENDBLK
  5
39
  8
0
  0
ENDSEC
  0
SECTION
  2
ENTITIES
  0
LINE
  5
20
  8
TEAM-BODY
 10
90.0
 20
235.849055
 30
0.0
 11
90.0
 21
101.7
 31
0.0
  0
CIRCLE
  5
22
  8
TEAM-KAN
 10
0.0
 20
229.99702
 30
0.0
 40
50.0
  0
LINE
  5
24
  8
TEAM-AXE
 10
0.0
 20
279.99702
 30
0.0
 11
0.0
 21
179.99702
 31
0.0
  0
LINE
  5
27
  8
TEAM-BODY
 10
-66.996861
 20
233.729625
 30
0.0
 11
-66.996861
 21
101.7
 31
0.0
  0
LINE
  5
28
  8
TEAM-BODY
 10
66.996861
 20
233.729625
 30
0.0
 11
66.996861
 21
101.7
 31
0.0
  0
LINE
  5
29
  8
TEAM-BODY
 10
-90.0
 20
235.849055
 30
0.0
 11
-90.0
 21
101.7
 31
0.0
  0
POLYLINE
  5
2A
  8
TEAM-BODY
 66
     1
 10
0.0
 20
0.0
 30
0.0
 70
     1
  0
VERTEX
  5
146
  8
TEAM-BODY
 10
162.061848
 20
356.924308
 30
0.0
 42
-0.388292
  0
VERTEX
  5
147
  8
TEAM-BODY
 10
169.033953
 20
363.3
 30
0.0
  0
VERTEX
  5
148
  8
TEAM-BODY
 10
170.5
 20
363.3
 30
0.0
 42
0.414214
  0
VERTEX
  5
149
  8
TEAM-BODY
 10
177.5
 20
370.3
 30
0.0
  0
VERTEX
  5
14A
  8
TEAM-BODY
 10
177.5
 20
395.0
 30
0.0
 42
0.414214
  0
VERTEX
  5
14B
  8
TEAM-BODY
 10
172.5
 20
400.0
 30
0.0
  0
VERTEX
  5
14C
  8
TEAM-BODY
 10
159.5
 20
400.0
 30
0.0
 42
-0.414214
  0
VERTEX
  5
14D
  8
TEAM-BODY
 10
152.5
 20
407.0
 30
0.0
  0
VERTEX
  5
14E
  8
TEAM-BODY
 10
152.5
 20
410.0
 30
0.0
  0
VERTEX
  5
14F
  8
TEAM-BODY
 10
-152.5
 20
410.0
 30
0.0
  0
VERTEX
  5
150
  8
TEAM-BODY
 10
-152.5
 20
407.0
 30
0.0
 42
-0.414214
  0
VERTEX
  5
151
  8
TEAM-BODY
 10
-159.5
 20
400.0
 30
0.0
  0
VERTEX
  5
152
  8
TEAM-BODY
 10
-172.5
 20
400.0
 30
0.0
 42
0.414214
  0
VERTEX
  5
153
  8
TEAM-BODY
 10
-177.5
 20
395.0
 30
0.0
  0
VERTEX
  5
154
  8
TEAM-BODY
 10
-177.5
 20
370.3
 30
0.0
 42
0.414214
  0
VERTEX
  5
155
  8
TEAM-BODY
 10
-170.5
 20
363.3
 30
0.0
  0
VERTEX
  5
156
  8
TEAM-BODY
 10
-169.033953
 20
363.3
 30
0.0
 42
-0.388292
  0
VERTEX
  5
157
  8
TEAM-BODY
 10
-162.061848
 20
356.924308
 30
0.0
 42
0.228701
  0
VERTEX
  5
158
  8
TEAM-BODY
 10
-93.151228
 20
241.696016
 30
0.0
 42
-0.25232
  0
VERTEX
  5
159
  8
TEAM-BODY
 10
-90.0
 20
235.849055
 30
0.0
  0
VERTEX
  5
15A
  8
TEAM-BODY
 10
-90.0
 20
101.33988
 30
0.0
  0
VERTEX
  5
15B
  8
TEAM-BODY
 10
-76.751931
 20
69.323549
 30
0.0
 42
0.303445
  0
VERTEX
  5
15C
  8
TEAM-BODY
 10
-70.283808
 20
65.0
 30
0.0
  0
VERTEX
  5
15D
  8
TEAM-BODY
 10
70.283808
 20
65.0
 30
0.0
 42
0.303445
  0
VERTEX
  5
15E
  8
TEAM-BODY
 10
76.751931
 20
69.323549
 30
0.0
  0
VERTEX
  5
15F
  8
TEAM-BODY
 10
90.0
 20
101.33988
 30
0.0
  0
VERTEX
  5
160
  8
TEAM-BODY
 10
90.0
 20
235.849055
 30
0.0
 42
-0.25232
  0
VERTEX
  5
161
  8
TEAM-BODY
 10
93.151228
 20
241.696016
 30
0.0
 42
0.228701
  0
SEQEND
  5
162
  8
TEAM-BODY
  0
DIMENSION
  5
2B
  8
TEAM-MAS
  2
*D5
 10
-221.536491
 20
229.99702
 30
0.0
 11
-221.536491
 21
114.99851
 31
0.0
 12
-12000.0
 22
-48000.0
 32
0.0
 13
0.0
 23
0.0
 33
0.0
 14
-50.0
 24
229.99702
 34
0.0
 50
90.0
1001
ACAD
1000
DSTYLE
1002
{
1070
    40
1040
1.0
1002
}
  0
DIMENSION
  5
3A
  8
TEAM-MAS
  2
*D4
 10
-221.536491
 20
229.99702
 30
0.0
 11
-221.536491
 21
297.49702
 31
0.0
 12
-12000.0
 22
-48000.0
 32
0.0
 13
-25.0
 23
364.99702
 33
0.0
 14
-50.0
 24
229.99702
 34
0.0
 50
90.0
1001
ACAD
1000
DSTYLE
1002
{
1070
    40
1040
1.0
1002
}
  0
DIMENSION
  5
48
  8
TEAM-MAS
  2
*D0
 10
245.946929
 20
400.0
 30
0.0
 11
245.946929
 21
200.0
 31
0.0
 12
-12000.0
 22
-48000.0
 32
0.0
 13
0.0
 23
0.0
 33
0.0
 14
162.424925
 24
400.0
 34
0.0
 50
90.0
1001
ACAD
1000
DSTYLE
1002
{
1070
    40
1040
1.0
1002
}
  0
DIMENSION
  5
56
  8
TEAM-MAS
  2
*D3
 10
201.815717
 20
229.99702
 30
0.0
 11
200.955434
 21
172.807436
 31
0.0
 12
-12000.0
 22
-48000.0
 32
0.0
 70
   128
 13
109.892779
 23
329.999256
 33
0.0
 14
50.0
 24
229.99702
 34
0.0
 50
90.0
1001
ACAD
1000
DSTYLE
1002
{
1070
    40
1040
1.0
1002
}
  0
CIRCLE
  5
63
  8
TEAM-INSP
 10
0.0
 20
0.0
 30
0.0
 40
10.0
  0
LINE
  5
65
  8
TEAM-BODY
 10
-66.996861
 20
101.7
 30
0.0
 11
-52.369838
 21
69.1321
 31
0.0
  0
ARC
  5
66
  8
TEAM-BODY
 10
-45.984296
 20
72.0
 30
0.0
 40
7.0
 50
204.18599
 51
270.0
  0
LINE
  5
67
  8
TEAM-BODY
 10
66.996861
 20
101.7
 30
0.0
 11
52.369838
 21
69.1321
 31
0.0
  0
ARC
  5
68
  8
TEAM-BODY
 10
45.984296
 20
72.0
 30
0.0
 40
7.0
 50
270.0
 51
335.81401
  0
LINE
  5
69
  8
TEAM-BODY
 10
70.134462
 20
65.0
 30
0.0
 11
-70.283808
 21
65.0
 31
0.0
  0
LINE
  5
6A
  8
TEAM-BODY
 10
-90.149606
 20
101.701429
 30
0.0
 11
-76.751931
 21
69.323549
 31
0.0
  0
ARC
  5
6B
  8
TEAM-BODY
 10
-70.283808
 20
72.0
 30
0.0
 40
7.0
 50
202.479331
 51
270.0
  0
ARC
  5
6C
  8
TEAM-BODY
 10
70.283808
 20
72.0
 30
0.0
 40
7.0
 50
270.0
 51
337.520669
  0
LINE
  5
6D
  8
TEAM-BODY
 10
90.0
 20
101.7
 30
0.0
 11
-90.149014
 21
101.7
 31
0.0
  0
LINE
  5
6E
  8
TEAM-BODY
 10
90.149606
 20
101.701429
 30
0.0
 11
76.751931
 21
69.323549
 31
0.0
  0
ARC
  5
6F
  8
TEAM-BODY
 10
-8.235109
 20
370.698526
 30
0.0
 40
154.442206
 50
185.11683
 51
236.645021
  0
LINE
  5
70
  8
TEAM-BODY
 10
-170.5
 20
363.3
 30
0.0
 11
169.033953
 21
363.3
 31
0.0
  0
LINE
  5
71
  8
TEAM-BODY
 10
-159.5
 20
400.0
 30
0.0
 11
159.5
 21
400.0
 31
0.0
  0
LINE
  5
72
  8
TEAM-BODY
 10
152.5
 20
410.0
 30
0.0
 11
-152.5
 21
410.0
 31
0.0
  0
DIMENSION
  5
73
  8
TEAM-MAS
  2
*D2
 10
177.5
 20
505.245162
 30
0.0
 11
0.0
 21
505.245162
 31
0.0
 12
-12000.0
 22
-48000.0
 32
0.0
 13
-177.5
 23
382.65
 33
0.0
 14
177.5
 24
382.65
 34
0.0
1001
ACAD
1000
DSTYLE
1002
{
1070
    40
1040
1.0
1002
}
  0
ARC
  5
81
  8
TEAM-BODY
 10
-159.5
 20
407.0
 30
0.0
 40
7.0
 50
270.0
 51
0.0
  0
LINE
  5
82
  8
TEAM-BODY
 10
-159.5
 20
400.0
 30
0.0
 11
-172.5
 21
400.0
 31
0.0
  0
ARC
  5
83
  8
TEAM-BODY
 10
-169.033953
 20
356.3
 30
0.0
 40
7.0
 50
5.11683
 51
90.0
  0
LINE
  5
84
  8
TEAM-BODY
 10
-177.5
 20
395.0
 30
0.0
 11
-177.5
 21
370.3
 31
0.0
  0
ARC
  5
85
  8
TEAM-BODY
 10
-170.5
 20
370.3
 30
0.0
 40
7.0
 50
180.0
 51
270.0
  0
LINE
  5
86
  8
TEAM-BODY
 10
-169.033953
 20
363.3
 30
0.0
 11
-170.5
 21
363.3
 31
0.0
  0
ARC
  5
87
  8
TEAM-BODY
 10
-172.5
 20
395.0
 30
0.0
 40
5.0
 50
90.0
 51
180.0
  0
LINE
  5
88
  8
TEAM-BODY
 10
-152.5
 20
410.0
 30
0.0
 11
-152.5
 21
407.0
 31
0.0
  0
LINE
  5
89
  8
TEAM-AXE
 10
89.892779
 20
338.999256
 30
0.0
 11
89.892779
 21
320.999256
 31
0.0
  0
LINE
  5
8A
  8
TEAM-BODY
 10
99.801105
 20
363.3
 30
0.0
 11
99.801105
 21
400.0
 31
0.0
  0
ARC
  5
8B
  8
TEAM-BODY
 10
84.055353
 20
259.676018
 30
0.0
 40
20.0
 50
270.0
 51
304.330216
  0
ARC
  5
8C
  8
TEAM-BODY
 10
8.235109
 20
370.698526
 30
0.0
 40
154.442206
 50
303.354979
 51
354.88317
  0
ARC
  5
8D
  8
TEAM-BODY
 10
97.0
 20
235.849055
 30
0.0
 40
7.0
 50
123.354979
 51
180.0
  0
ARC
  5
8E
  8
TEAM-BODY
 10
159.5
 20
407.0
 30
0.0
 40
7.0
 50
180.0
 51
270.0
  0
LINE
  5
8F
  8
TEAM-BODY
 10
152.5
 20
407.0
 30
0.0
 11
152.5
 21
410.0
 31
0.0
  0
LINE
  5
90
  8
TEAM-BODY
 10
177.5
 20
370.3
 30
0.0
 11
177.5
 21
395.0
 31
0.0
  0
ARC
  5
91
  8
TEAM-BODY
 10
169.033953
 20
356.3
 30
0.0
 40
7.0
 50
90.0
 51
174.88317
  0
ARC
  5
92
  8
TEAM-BODY
 10
170.5
 20
370.3
 30
0.0
 40
7.0
 50
270.0
 51
0.0
  0
LINE
  5
93
  8
TEAM-BODY
 10
170.5
 20
363.3
 30
0.0
 11
169.033953
 21
363.3
 31
0.0
  0
LINE
  5
94
  8
TEAM-BODY
 10
172.5
 20
400.0
 30
0.0
 11
159.5
 21
400.0
 31
0.0
  0
ARC
  5
95
  8
TEAM-BODY
 10
172.5
 20
395.0
 30
0.0
 40
5.0
 50
0.0
 51
90.0
  0
POLYLINE
  5
96
  8
TEAM-HIDE
 66
     1
 10
0.0
 20
0.0
 30
0.0
 70
     1
  0
VERTEX
  5
163
  8
TEAM-HIDE
 10
-79.107221
 20
320.999256
 30
0.0
 42
1.0
  0
VERTEX
  5
164
  8
TEAM-HIDE
 10
-79.107221
 20
338.999256
 30
0.0
  0
VERTEX
  5
165
  8
TEAM-HIDE
 10
-101.107221
 20
338.999256
 30
0.0
 42
1.0
  0
VERTEX
  5
166
  8
TEAM-HIDE
 10
-101.107221
 20
320.999256
 30
0.0
  0
SEQEND
  5
167
  8
TEAM-HIDE
  0
LINE
  5
99
  8
TEAM-AXE
 10
-90.107221
 20
338.999256
 30
0.0
 11
-90.107221
 21
320.999256
 31
0.0
  0
LINE
  5
9A
  8
TEAM-AXE
 10
-110.107221
 20
329.999256
 30
0.0
 11
-70.107221
 21
329.999256
 31
0.0
  0
LINE
  5
9B
  8
TEAM-AXE
 10
25.0
 20
364.99702
 30
0.0
 11
-25.0
 21
364.99702
 31
0.0
  0
CIRCLE
  5
9C
  8
TEAM-COLD
 10
0.0
 20
364.99702
 30
0.0
 40
25.0
  0
LINE
  5
9E
  8
TEAM-AXE
 10
0.0
 20
389.99702
 30
0.0
 11
0.0
 21
339.99702
 31
0.0
  0
LINE
  5
9F
  8
TEAM-AXE
 10
50.0
 20
229.99702
 30
0.0
 11
-50.0
 21
229.99702
 31
0.0
  0
LINE
  5
A0
  8
TEAM-BODY
 10
-99.801105
 20
400.0
 30
0.0
 11
-99.801105
 21
363.3
 31
0.0
  0
ARC
  5
A1
  8
TEAM-BODY
 10
95.04344
 20
348.838601
 30
0.0
 40
195.380472
 50
175.755279
 51
212.306268
  0
ARC
  5
A2
  8
TEAM-BODY
 10
-84.055353
 20
259.676018
 30
0.0
 40
20.0
 50
235.669784
 51
270.0
  0
ARC
  5
A3
  8
TEAM-BODY
 10
-86.996861
 20
233.729625
 30
0.0
 40
20.0
 50
0.0
 51
32.306268
  0
ARC
  5
A4
  8
TEAM-BODY
 10
86.996861
 20
233.729625
 30
0.0
 40
20.0
 50
147.693732
 51
180.0
  0
ARC
  5
A5
  8
TEAM-BODY
 10
-97.0
 20
235.849055
 30
0.0
 40
7.0
 50
0.0
 51
56.645021
  0
POLYLINE
  5
A6
  8
TEAM-HIDE
 66
     1
 10
0.0
 20
0.0
 30
0.0
 70
     1
  0
VERTEX
  5
168
  8
TEAM-HIDE
 10
100.892779
 20
320.999256
 30
0.0
 42
1.0
  0
VERTEX
  5
169
  8
TEAM-HIDE
 10
100.892779
 20
338.999256
 30
0.0
  0
VERTEX
  5
16A
  8
TEAM-HIDE
 10
78.892779
 20
338.999256
 30
0.0
 42
1.0
  0
VERTEX
  5
16B
  8
TEAM-HIDE
 10
78.892779
 20
320.999256
 30
0.0
  0
SEQEND
  5
16C
  8
TEAM-HIDE
  0
LINE
  5
A7
  8
TEAM-AXE
 10
69.892779
 20
329.999256
 30
0.0
 11
109.892779
 21
329.999256
 31
0.0
  0
TEXT
  5
A8
  8
TEAM-TXT
 10
-134.355617
 20
275.178363
 30
0.0
 40
30.0
  1
team 342021
 41
0.8
 51
15.0
  7
TEAM
  0
LINE
  5
AB
  8
TEAM-BODY
 10
-84.055353
 20
239.676018
 30
0.0
 11
84.055353
 21
239.676018
 31
0.0
  0
ARC
  5
AC
  8
TEAM-BODY
 10
-95.04344
 20
348.838601
 30
0.0
 40
195.380472
 50
327.693732
 51
4.244721
  0
DIMENSION
  5
AD
  8
TEAM-MAS
  2
*D1
 10
89.892779
 20
455.397805
 30
0.0
 11
-0.107221
 21
455.397805
 31
0.0
 12
-12000.0
 22
-48000.0
 32
0.0
 13
-90.107221
 23
338.999256
 33
0.0
 14
89.892779
 24
338.999256
 34
0.0
1001
ACAD
1000
DSTYLE
1002
{
1070
    40
1040
1.0
1002
}
  0
ENDSEC
  0
EOF
