  0
SECTION
  2
HEADER
  9
$ACADVER
  1
AC1009
  9
$INSBASE
 10
0.0
 20
0.0
 30
0.0
  9
$EXTMIN
 10
-58.971012
 20
-10.021086
 30
0.0
  9
$EXTMAX
 10
710.52
 20
525.500615
 30
0.0
  9
$LIMMIN
 10
-58.971012
 20
-10.021086
  9
$LIMMAX
 10
710.52
 20
525.500615
  9
$ORTHOMODE
 70
     1
  9
$REGENMODE
 70
     1
  9
$FILLMODE
 70
     1
  9
$QTEXTMODE
 70
     0
  9
$MIRRTEXT
 70
     0
  9
$DRAGMODE
 70
     2
  9
$LTSCALE
 40
50.0
  9
$OSMODE
 70
     0
  9
$ATTMODE
 70
     1
  9
$TEXTSIZE
 40
200.0
  9
$TRACEWID
 40
1.0
  9
$TEXTSTYLE
  7
STANDARD
  9
$CLAYER
  8
TEAM-MAS
  9
$CELTYPE
  6
BYLAYER
  9
$CECOLOR
 62
   256
  9
$DIMSCALE
 40
1.0
  9
$DIMASZ
 40
20.0
  9
$DIMEXO
 40
10.0
  9
$DIMDLI
 40
1.0
  9
$DIMRND
 40
0.0
  9
$DIMDLE
 40
0.0
  9
$DIMEXE
 40
1.0
  9
$DIMTP
 40
0.0
  9
$DIMTM
 40
0.0
  9
$DIMTXT
 40
35.0
  9
$DIMCEN
 40
1.0
  9
$DIMTSZ
 40
0.0
  9
$DIMTOL
 70
     0
  9
$DIMLIM
 70
     0
  9
$DIMTIH
 70
     0
  9
$DIMTOH
 70
     0
  9
$DIMSE1
 70
     0
  9
$DIMSE2
 70
     0
  9
$DIMTAD
 70
     0
  9
$DIMZIN
 70
     0
  9
$DIMBLK
  1

  9
$DIMASO
 70
     1
  9
$DIMSHO
 70
     0
  9
$DIMPOST
  1

  9
$DIMAPOST
  1

  9
$DIMALT
 70
     0
  9
$DIMALTD
 70
     2
  9
$DIMALTF
 40
25.4
  9
$DIMLFAC
 40
1.0
  9
$DIMTOFL
 70
     0
  9
$DIMTVP
 40
0.0
  9
$DIMTIX
 70
     0
  9
$DIMSOXD
 70
     0
  9
$DIMSAH
 70
     0
  9
$DIMBLK1
  1

  9
$DIMBLK2
  1

  9
$DIMSTYLE
  2
TEAM
  9
$DIMCLRD
 70
     9
  9
$DIMCLRE
 70
     9
  9
$DIMCLRT
 70
    11
  9
$DIMTFAC
 40
1.0
  9
$DIMGAP
 40
7.0
  9
$LUNITS
 70
     2
  9
$LUPREC
 70
     1
  9
$SKETCHINC
 40
1.0
  9
$FILLETRAD
 40
10.0
  9
$AUNITS
 70
     0
  9
$AUPREC
 70
     0
  9
$MENU
  1
ROPLANS
  9
$ELEVATION
 40
0.0
  9
$PELEVATION
 40
0.0
  9
$THICKNESS
 40
0.0
  9
$LIMCHECK
 70
     0
  9
$BLIPMODE
 70
     1
  9
$CHAMFERA
 40
0.0
  9
$CHAMFERB
 40
0.0
  9
$SKPOLY
 70
     0
  9
$TDCREATE
 40
2450392.957851
  9
$TDUPDATE
 40
2456128.567992
  9
$TDINDWG
 40
2.128216
  9
$TDUSRTIMER
 40
2.128216
  9
$USRTIMER
 70
     1
  9
$ANGBASE
 50
0.0
  9
$ANGDIR
 70
     0
  9
$PDMODE
 70
     0
  9
$PDSIZE
 40
0.0
  9
$PLINEWID
 40
0.0
  9
$COORDS
 70
     2
  9
$SPLFRAME
 70
     0
  9
$SPLINETYPE
 70
     6
  9
$SPLINESEGS
 70
     8
  9
$ATTDIA
 70
     0
  9
$ATTREQ
 70
     0
  9
$HANDLING
 70
     1
  9
$HANDSEED
  5
157
  9
$SURFTAB1
 70
    24
  9
$SURFTAB2
 70
    24
  9
$SURFTYPE
 70
     6
  9
$SURFU
 70
     6
  9
$SURFV
 70
     6
  9
$UCSNAME
  2

  9
$UCSORG
 10
0.0
 20
0.0
 30
0.0
  9
$UCSXDIR
 10
1.0
 20
0.0
 30
0.0
  9
$UCSYDIR
 10
0.0
 20
1.0
 30
0.0
  9
$PUCSNAME
  2

  9
$PUCSORG
 10
0.0
 20
0.0
 30
0.0
  9
$PUCSXDIR
 10
1.0
 20
0.0
 30
0.0
  9
$PUCSYDIR
 10
0.0
 20
1.0
 30
0.0
  9
$USERI1
 70
     0
  9
$USERI2
 70
     0
  9
$USERI3
 70
     0
  9
$USERI4
 70
     0
  9
$USERI5
 70
     0
  9
$USERR1
 40
0.0
  9
$USERR2
 40
0.0
  9
$USERR3
 40
0.0
  9
$USERR4
 40
0.0
  9
$USERR5
 40
0.0
  9
$WORLDVIEW
 70
     1
  9
$SHADEDGE
 70
     0
  9
$SHADEDIF
 70
    70
  9
$TILEMODE
 70
     1
  9
$MAXACTVP
 70
    16
  9
$PLIMCHECK
 70
     0
  9
$PEXTMIN
 10
-0.805942
 20
0.005011
 30
0.0
  9
$PEXTMAX
 10
20.250094
 20
11.356329
 30
0.0
  9
$PLIMMIN
 10
0.0
 20
0.0
  9
$PLIMMAX
 10
12.0
 20
9.0
  9
$UNITMODE
 70
     0
  9
$VISRETAIN
 70
     0
  9
$PLINEGEN
 70
     0
  9
$PSLTSCALE
 70
     0
  0
ENDSEC
  0
SECTION
  2
TABLES
  0
TABLE
  2
VPORT
 70
     2
  0
VPORT
  2
*ACTIVE
 70
     0
 10
0.0
 20
0.0
 11
1.0
 21
1.0
 12
325.774494
 22
257.739765
 13
0.0
 23
0.0
 14
1.0
 24
1.0
 15
50.0
 25
50.0
 16
0.0
 26
0.0
 36
1.0
 17
0.0
 27
0.0
 37
0.0
 40
538.893296
 41
1.911765
 42
50.0
 43
0.0
 44
0.0
 50
0.0
 51
0.0
 71
     0
 72
   100
 73
     1
 74
     1
 75
     0
 76
     0
 77
     0
 78
     0
  0
ENDTAB
  0
TABLE
  2
LTYPE
 70
     3
  0
LTYPE
  2
CONTINUOUS
 70
     0
  3
Solid Line
 72
    65
 73
     0
 40
0.0
  0
LTYPE
  2
31
 70
     0
  3

 72
    65
 73
     4
 40
2.1
 49
1.5
 49
-0.3
 49
0.0
 49
-0.3
  0
LTYPE
  2
22
 70
     0
  3

 72
    65
 73
     2
 40
1.4
 49
1.2
 49
-0.2
  0
ENDTAB
  0
TABLE
  2
LAYER
 70
     9
  0
LAYER
  2
0
 70
     0
 62
     7
  6
CONTINUOUS
  0
LAYER
  2
DEFPOINTS
 70
     0
 62
     7
  6
CONTINUOUS
  0
LAYER
  2
TEAM-BODY
 70
     0
 62
     2
  6
CONTINUOUS
  0
LAYER
  2
TEAM-AXE
 70
     0
 62
    10
  6
31
  0
LAYER
  2
TEAM-MAS
 70
     0
 62
     9
  6
CONTINUOUS
  0
LAYER
  2
TEAM-TXT
 70
     0
 62
    11
  6
CONTINUOUS
  0
LAYER
  2
TEAM-DET1
 70
     0
 62
     4
  6
CONTINUOUS
  0
LAYER
  2
TEAM-HIDE
 70
     0
 62
     8
  6
22
  0
LAYER
  2
TEAM-INSP
 70
     0
 62
     5
  6
CONTINUOUS
  0
ENDTAB
  0
TABLE
  2
STYLE
 70
     2
  0
STYLE
  2
STANDARD
 70
     0
 40
0.0
 41
1.0
 50
0.0
 71
     0
 42
200.0
  3
txt
  4

  0
STYLE
  2
TEAM
 70
     0
 40
0.0
 41
0.8
 50
15.0
 71
     0
 42
7.0
  3
ROMANS.shx
  4

  0
ENDTAB
  0
TABLE
  2
VIEW
 70
     0
  0
ENDTAB
  0
TABLE
  2
UCS
 70
     0
  0
ENDTAB
  0
TABLE
  2
APPID
 70
     1
  0
APPID
  2
ACAD
 70
     0
  0
ENDTAB
  0
TABLE
  2
DIMSTYLE
 70
     1
  0
DIMSTYLE
  2
TEAM
 70
     0
  3

  4

  5

  6

  7

 40
1.0
 41
20.0
 42
10.0
 43
1.0
 44
1.0
 45
0.0
 46
0.0
 47
0.0
 48
0.0
140
35.0
141
1.0
142
0.0
143
25.4
144
1.0
145
0.0
146
1.0
147
7.0
 71
     0
 72
     0
 73
     0
 74
     0
 75
     0
 76
     0
 77
     0
 78
     0
170
     0
171
     2
172
     0
173
     0
174
     0
175
     0
176
     9
177
     9
178
    11
  0
ENDTAB
  0
ENDSEC
  0
SECTION
  2
BLOCKS
  0
BLOCK
  8
0
  2
$MODEL_SPACE
 70
     0
 10
0.0
 20
0.0
 30
0.0
  3
$MODEL_SPACE
  1

  0
ENDBLK
  5
13C
  8
0
  0
BLOCK
 67
     1
  8
0
  2
$PAPER_SPACE
 70
     0
 10
0.0
 20
0.0
 30
0.0
  3
$PAPER_SPACE
  1

  0
ENDBLK
  5
13A
 67
     1
  8
0
  0
BLOCK
  8
0
  2
*D0
 70
     1
 10
0.0
 20
0.0
 30
0.0
  3
*D0
  1

  0
LINE
  5
3F
  8
0
  6
BYBLOCK
 62
     9
 10
8010.0
 20
20000.0
 30
0.0
 11
8693.995547
 21
20000.0
 31
0.0
  0
LINE
  5
40
  8
0
  6
BYBLOCK
 62
     9
 10
8548.0
 20
20450.0
 30
0.0
 11
8693.995547
 21
20450.0
 31
0.0
  0
LINE
  5
41
  8
0
  6
BYBLOCK
 62
     9
 10
8692.995547
 20
20020.0
 30
0.0
 11
8692.995547
 21
20174.25
 31
0.0
  0
LINE
  5
42
  8
0
  6
BYBLOCK
 62
     9
 10
8692.995547
 20
20430.0
 30
0.0
 11
8692.995547
 21
20275.75
 31
0.0
  0
SOLID
  5
43
  8
0
  6
BYBLOCK
 62
     9
 10
8689.662214
 20
20020.0
 30
0.0
 11
8696.32888
 21
20020.0
 31
0.0
 12
8692.995547
 22
20000.0
 32
0.0
 13
8692.995547
 23
20000.0
 33
0.0
  0
SOLID
  5
44
  8
0
  6
BYBLOCK
 62
     9
 10
8689.662214
 20
20430.0
 30
0.0
 11
8696.32888
 21
20430.0
 31
0.0
 12
8692.995547
 22
20450.0
 32
0.0
 13
8692.995547
 23
20450.0
 33
0.0
  0
TEXT
  5
45
  8
0
  6
BYBLOCK
 62
    11
 10
8710.495547
 20
20181.25
 30
0.0
 40
35.0
  1
450
 50
90.0
  0
POINT
  5
46
  8
DEFPOINTS
  6
BYBLOCK
 62
     0
 10
8000.0
 20
20000.0
 30
0.0
  0
POINT
  5
47
  8
DEFPOINTS
  6
BYBLOCK
 62
     0
 10
8538.0
 20
20450.0
 30
0.0
  0
POINT
  5
48
  8
DEFPOINTS
  6
BYBLOCK
 62
     0
 10
8692.995547
 20
20450.0
 30
0.0
  0
ENDBLK
  5
4A
  8
0
  0
BLOCK
  8
0
  2
*D1
 70
     1
 10
0.0
 20
0.0
 30
0.0
  3
*D1
  1

  0
LINE
  5
31
  8
0
  6
BYBLOCK
 62
     9
 10
8000.0
 20
20010.0
 30
0.0
 11
8000.0
 21
20508.980926
 31
0.0
  0
LINE
  5
32
  8
0
  6
BYBLOCK
 62
     9
 10
8545.0
 20
20438.0
 30
0.0
 11
8545.0
 21
20508.980926
 31
0.0
  0
LINE
  5
33
  8
0
  6
BYBLOCK
 62
     9
 10
8020.0
 20
20507.980926
 30
0.0
 11
8218.833333
 21
20507.980926
 31
0.0
  0
LINE
  5
34
  8
0
  6
BYBLOCK
 62
     9
 10
8525.0
 20
20507.980926
 30
0.0
 11
8326.166667
 21
20507.980926
 31
0.0
  0
SOLID
  5
35
  8
0
  6
BYBLOCK
 62
     9
 10
8020.0
 20
20511.314259
 30
0.0
 11
8020.0
 21
20504.647592
 31
0.0
 12
8000.0
 22
20507.980926
 32
0.0
 13
8000.0
 23
20507.980926
 33
0.0
  0
SOLID
  5
36
  8
0
  6
BYBLOCK
 62
     9
 10
8525.0
 20
20511.314259
 30
0.0
 11
8525.0
 21
20504.647592
 31
0.0
 12
8545.0
 22
20507.980926
 32
0.0
 13
8545.0
 23
20507.980926
 33
0.0
  0
TEXT
  5
37
  8
0
  6
BYBLOCK
 62
    11
 10
8225.833333
 20
20490.480926
 30
0.0
 40
35.0
  1
545
  0
POINT
  5
38
  8
DEFPOINTS
  6
BYBLOCK
 62
     0
 10
8000.0
 20
20000.0
 30
0.0
  0
POINT
  5
39
  8
DEFPOINTS
  6
BYBLOCK
 62
     0
 10
8545.0
 20
20428.0
 30
0.0
  0
POINT
  5
3A
  8
DEFPOINTS
  6
BYBLOCK
 62
     0
 10
8545.0
 20
20507.980926
 30
0.0
  0
ENDBLK
  5
3C
  8
0
  0
BLOCK
  8
0
  2
*D2
 70
     1
 10
0.0
 20
0.0
 30
0.0
  3
*D2
  1

  0
LINE
  5
22
  8
0
  6
BYBLOCK
 62
     9
 10
7990.0
 20
20000.0
 30
0.0
 11
7957.560214
 21
20000.0
 31
0.0
  0
LINE
  5
23
  8
0
  6
BYBLOCK
 62
     9
 10
7973.357671
 20
20220.0
 30
0.0
 11
7957.560214
 21
20220.0
 31
0.0
  0
LINE
  5
24
  8
0
  6
BYBLOCK
 62
     9
 10
7958.560214
 20
20020.0
 30
0.0
 11
7958.560214
 21
20059.25
 31
0.0
  0
LINE
  5
25
  8
0
  6
BYBLOCK
 62
     9
 10
7958.560214
 20
20200.0
 30
0.0
 11
7958.560214
 21
20160.75
 31
0.0
  0
SOLID
  5
26
  8
0
  6
BYBLOCK
 62
     9
 10
7955.226881
 20
20020.0
 30
0.0
 11
7961.893548
 21
20020.0
 31
0.0
 12
7958.560214
 22
20000.0
 32
0.0
 13
7958.560214
 23
20000.0
 33
0.0
  0
SOLID
  5
27
  8
0
  6
BYBLOCK
 62
     9
 10
7955.226881
 20
20200.0
 30
0.0
 11
7961.893548
 21
20200.0
 31
0.0
 12
7958.560214
 22
20220.0
 32
0.0
 13
7958.560214
 23
20220.0
 33
0.0
  0
TEXT
  5
28
  8
0
  6
BYBLOCK
 62
    11
 10
7976.060214
 20
20066.25
 30
0.0
 40
35.0
  1
220
 50
90.0
  0
POINT
  5
29
  8
DEFPOINTS
  6
BYBLOCK
 62
     0
 10
8000.0
 20
20000.0
 30
0.0
  0
POINT
  5
2B
  8
DEFPOINTS
  6
BYBLOCK
 62
     0
 10
7983.357671
 20
20220.0
 30
0.0
  0
POINT
  5
2C
  8
DEFPOINTS
  6
BYBLOCK
 62
     0
 10
7958.560214
 20
20220.0
 30
0.0
  0
ENDBLK
  5
2E
  8
0
  0
ENDSEC
  0
SECTION
  2
ENTITIES
  0
DIMENSION
  5
20
  8
TEAM-MAS
  2
*D2
 10
-41.439786
 20
220.0
 30
0.0
 11
-41.439786
 21
110.0
 31
0.0
 12
-8000.0
 22
-20000.0
 32
0.0
 13
0.0
 23
0.0
 33
0.0
 14
-16.642329
 24
220.0
 34
0.0
 50
90.0
1001
ACAD
1000
DSTYLE
1002
{
1070
    40
1040
1.0
1002
}
  0
DIMENSION
  5
2F
  8
TEAM-MAS
  2
*D1
 10
545.0
 20
507.980926
 30
0.0
 11
272.5
 21
507.980926
 31
0.0
 12
-8000.0
 22
-20000.0
 32
0.0
 13
0.0
 23
0.0
 33
0.0
 14
545.0
 24
428.0
 34
0.0
1001
ACAD
1000
DSTYLE
1002
{
1070
    40
1040
1.0
1002
}
  0
DIMENSION
  5
3D
  8
TEAM-MAS
  2
*D0
 10
692.995547
 20
450.0
 30
0.0
 11
692.995547
 21
225.0
 31
0.0
 12
-8000.0
 22
-20000.0
 32
0.0
 13
0.0
 23
0.0
 33
0.0
 14
538.0
 24
450.0
 34
0.0
 50
90.0
1001
ACAD
1000
DSTYLE
1002
{
1070
    40
1040
1.0
1002
}
  0
LINE
  5
4B
  8
TEAM-HIDE
 10
85.948284
 20
165.324425
 30
0.0
 11
85.948284
 21
117.12436
 31
0.0
  0
ARC
  5
4E
  8
TEAM-HIDE
 10
238.085386
 20
199.230802
 30
0.0
 40
133.286864
 50
311.884646
 51
343.977401
  0
ARC
  5
4F
  8
TEAM-HIDE
 10
355.314118
 20
177.965233
 30
0.0
 40
184.016864
 50
186.839712
 51
205.067473
  0
POLYLINE
  5
50
  8
TEAM-BODY
 66
     1
 10
0.0
 20
0.0
 30
0.0
 70
     1
  0
VERTEX
  5
142
  8
TEAM-BODY
 10
0.0
 20
485.0
 30
0.0
  0
VERTEX
  5
143
  8
TEAM-BODY
 10
29.126303
 20
485.0
 30
0.0
 42
-0.36397
  0
VERTEX
  5
144
  8
TEAM-BODY
 10
36.019957
 20
479.215537
 30
0.0
  0
VERTEX
  5
145
  8
TEAM-BODY
 10
38.985822
 20
462.395277
 30
0.0
 42
0.36397
  0
VERTEX
  5
146
  8
TEAM-BODY
 10
53.757939
 20
450.0
 30
0.0
  0
VERTEX
  5
147
  8
TEAM-BODY
 10
538.0
 20
450.0
 30
0.0
 42
-0.414214
  0
VERTEX
  5
148
  8
TEAM-BODY
 10
545.0
 20
443.0
 30
0.0
  0
VERTEX
  5
149
  8
TEAM-BODY
 10
545.0
 20
413.0
 30
0.0
 42
-0.414214
  0
VERTEX
  5
14A
  8
TEAM-BODY
 10
540.0
 20
408.0
 30
0.0
  0
VERTEX
  5
14B
  8
TEAM-BODY
 10
539.97875
 20
408.0
 30
0.0
 42
0.410508
  0
VERTEX
  5
14C
  8
TEAM-BODY
 10
534.979151
 20
403.063341
 30
0.0
 42
-0.192052
  0
VERTEX
  5
14D
  8
TEAM-BODY
 10
404.755078
 20
101.458547
 30
0.0
 42
-0.198477
  0
VERTEX
  5
14E
  8
TEAM-BODY
 10
401.225474
 20
100.0
 30
0.0
  0
VERTEX
  5
14F
  8
TEAM-BODY
 10
327.072103
 20
100.0
 30
0.0
 42
-0.203891
  0
VERTEX
  5
150
  8
TEAM-BODY
 10
236.508275
 20
63.982787
 30
0.0
 42
-0.288638
  0
VERTEX
  5
151
  8
TEAM-BODY
 10
192.908981
 20
91.439065
 30
0.0
  0
VERTEX
  5
152
  8
TEAM-BODY
 10
188.629899
 20
100.0
 30
0.0
  0
VERTEX
  5
153
  8
TEAM-BODY
 10
7.0
 20
100.0
 30
0.0
 42
-0.414214
  0
VERTEX
  5
154
  8
TEAM-BODY
 10
0.0
 20
107.0
 30
0.0
  0
SEQEND
  5
155
  8
TEAM-BODY
  0
CIRCLE
  5
52
  8
TEAM-INSP
 10
0.0
 20
0.0
 30
0.0
 40
10.0
  0
LINE
  5
54
  8
TEAM-BODY
 10
-0.003984
 20
50.003509
 30
0.0
 11
-0.003984
 21
50.003509
 31
0.0
  0
LINE
  5
55
  8
TEAM-BODY
 10
-0.003984
 20
50.003509
 30
0.0
 11
-0.003984
 21
50.003509
 31
0.0
  0
LINE
  5
56
  8
TEAM-HIDE
 10
78.948284
 20
110.12436
 30
0.0
 11
0.0
 21
110.12436
 31
0.0
  0
LINE
  5
57
  8
TEAM-HIDE
 10
85.948284
 20
131.840907
 30
0.0
 11
7.919202
 21
125.343795
 31
0.0
  0
ARC
  5
58
  8
TEAM-HIDE
 10
78.948284
 20
117.12436
 30
0.0
 40
7.0
 50
270.0
 51
0.0
  0
ARC
  5
59
  8
TEAM-HIDE
 10
13.084004
 20
113.238206
 30
0.0
 40
13.161324
 50
113.105326
 51
173.786339
  0
LINE
  5
5A
  8
TEAM-BODY
 10
327.072103
 20
100.0
 30
0.0
 11
188.629899
 21
100.0
 31
0.0
  0
TEXT
  5
5B
  8
TEAM-TXT
 10
243.98925
 20
306.175034
 30
0.0
 40
30.0
  1
team 342112
 41
0.8
 51
15.0
  7
TEAM
  0
LINE
  5
5E
  8
TEAM-HIDE
 10
160.366389
 20
271.0
 30
0.0
 11
15.814143
 21
271.0
 31
0.0
  0
LINE
  5
5F
  8
TEAM-HIDE
 10
176.042001
 20
327.5
 30
0.0
 11
15.814143
 21
327.5
 31
0.0
  0
ARC
  5
60
  8
TEAM-HIDE
 10
417.794053
 20
231.093855
 30
0.0
 40
30.0
 50
100.900024
 51
162.201717
  0
ARC
  5
61
  8
TEAM-HIDE
 10
498.0
 20
443.0
 30
0.0
 40
7.0
 50
90.0
 51
180.0
  0
ARC
  5
62
  8
TEAM-HIDE
 10
498.0
 20
415.0
 30
0.0
 40
7.0
 50
180.0
 51
270.0
  0
LINE
  5
63
  8
TEAM-HIDE
 10
491.0
 20
443.0
 30
0.0
 11
491.0
 21
415.0
 31
0.0
  0
LINE
  5
64
  8
TEAM-HIDE
 10
389.229896
 20
240.263858
 30
0.0
 11
366.194443
 21
162.441435
 31
0.0
  0
ARC
  5
65
  8
TEAM-HIDE
 10
61.952285
 20
145.610058
 30
0.0
 40
196.530714
 50
4.012706
 51
45.437829
  0
LINE
  5
66
  8
TEAM-DET1
 10
112.50289
 20
408.0
 30
0.0
 11
112.50289
 21
271.022389
 31
0.0
  0
ARC
  5
68
  8
TEAM-HIDE
 10
379.797656
 20
415.693522
 30
0.0
 40
222.023567
 50
190.045162
 51
215.85825
  0
ARC
  5
69
  8
TEAM-DET1
 10
105.50289
 20
271.022389
 30
0.0
 40
7.0
 50
270.0
 51
0.0
  0
ARC
  5
6A
  8
TEAM-HIDE
 10
175.452074
 20
443.0
 30
0.0
 40
7.0
 50
10.0
 51
90.0
  0
LINE
  5
6B
  8
TEAM-HIDE
 10
190.800963
 20
396.263518
 30
0.0
 11
163.801348
 21
382.279129
 31
0.0
  0
ARC
  5
6C
  8
TEAM-HIDE
 10
200.649041
 20
398.0
 30
0.0
 40
10.0
 50
90.0
 51
190.0
  0
LINE
  5
6D
  8
TEAM-HIDE
 10
182.345729
 20
444.215537
 30
0.0
 11
190.800963
 21
396.263518
 31
0.0
  0
LINE
  5
6E
  8
TEAM-AXE
 10
130.0
 20
429.513222
 30
0.0
 11
130.0
 21
463.513222
 31
0.0
  0
LINE
  5
71
  8
TEAM-HIDE
 10
15.814143
 20
271.0
 30
0.0
 11
15.814143
 21
169.0
 31
0.0
  0
LINE
  5
72
  8
TEAM-HIDE
 10
166.242909
 20
161.116362
 30
0.0
 11
15.814143
 21
169.0
 31
0.0
  0
LINE
  5
73
  8
TEAM-DET1
 10
37.50289
 20
408.0
 30
0.0
 11
37.50289
 21
271.022389
 31
0.0
  0
LINE
  5
74
  8
TEAM-AXE
 10
85.948284
 20
220.0
 30
0.0
 11
-16.642329
 21
220.0
 31
0.0
  0
LINE
  5
75
  8
TEAM-DET1
 10
91.681164
 20
264.022389
 30
0.0
 11
57.08487
 21
264.022389
 31
0.0
  0
ARC
  5
76
  8
TEAM-DET1
 10
44.50289
 20
271.022389
 30
0.0
 40
7.0
 50
180.0
 51
270.0
  0
LINE
  5
77
  8
TEAM-HIDE
 10
59.137464
 20
382.5
 30
0.0
 11
15.814143
 21
382.5
 31
0.0
  0
LINE
  5
78
  8
TEAM-AXE
 10
48.357671
 20
355.0
 30
0.0
 11
-16.642329
 21
355.0
 31
0.0
  0
LINE
  5
79
  8
TEAM-DET1
 10
59.137464
 20
335.236993
 30
0.0
 11
59.137464
 21
327.5
 31
0.0
  0
LINE
  5
7A
  8
TEAM-DET1
 10
59.137464
 20
382.5
 30
0.0
 11
59.137464
 21
374.500582
 31
0.0
  0
LINE
  5
7B
  8
TEAM-HIDE
 10
15.814143
 20
382.5
 30
0.0
 11
15.814143
 21
327.5
 31
0.0
  0
ARC
  5
7C
  8
TEAM-HIDE
 10
161.578713
 20
389.240963
 30
0.0
 40
118.247178
 50
269.412567
 51
291.942193
  0
ARC
  5
7D
  8
TEAM-HIDE
 10
165.876557
 20
154.125956
 30
0.0
 40
7.0
 50
15.95613
 51
87.0
  0
ARC
  5
7E
  8
TEAM-HIDE
 10
166.100936
 20
377.839321
 30
0.0
 40
5.0
 50
117.381795
 51
190.045162
  0
LINE
  5
7F
  8
TEAM-HIDE
 10
0.0
 20
446.918085
 30
0.0
 11
13.635074
 21
446.918085
 31
0.0
  0
ARC
  5
80
  8
TEAM-HIDE
 10
-47.924925
 20
356.700264
 30
0.0
 40
110.127115
 50
13.548733
 51
54.156252
  0
ARC
  5
81
  8
TEAM-HIDE
 10
13.635074
 20
441.918085
 30
0.0
 40
5.0
 50
54.156252
 51
90.0
  0
LINE
  5
82
  8
TEAM-BODY
 10
540.0
 20
408.0
 30
0.0
 11
0.0
 21
408.0
 31
0.0
  0
ARC
  5
83
  8
TEAM-HIDE
 10
352.066547
 20
435.526286
 30
0.0
 40
184.992823
 50
288.943294
 51
351.442811
  0
ENDSEC
  0
EOF
