  0
SECTION
  2
HEADER
  9
$ACADVER
  1
AC1009
  9
$INSBASE
 10
0.0
 20
0.0
 30
0.0
  9
$EXTMIN
 10
-274.609716
 20
-10.062079
 30
0.0
  9
$EXTMAX
 10
430.00883
 20
1120.082052
 30
0.000005
  9
$LIMMIN
 10
-274.609716
 20
-10.062079
  9
$LIMMAX
 10
430.00883
 20
1120.082052
  9
$ORTHOMODE
 70
     1
  9
$REGENMODE
 70
     1
  9
$FILLMODE
 70
     1
  9
$QTEXTMODE
 70
     0
  9
$MIRRTEXT
 70
     0
  9
$DRAGMODE
 70
     2
  9
$LTSCALE
 40
50.0
  9
$OSMODE
 70
     0
  9
$ATTMODE
 70
     1
  9
$TEXTSIZE
 40
200.0
  9
$TRACEWID
 40
1.0
  9
$TEXTSTYLE
  7
STANDARD
  9
$CLAYER
  8
TEAM-MAS
  9
$CELTYPE
  6
BYLAYER
  9
$CECOLOR
 62
   256
  9
$DIMSCALE
 40
0.0
  9
$DIMASZ
 40
20.0
  9
$DIMEXO
 40
10.0
  9
$DIMDLI
 40
1.0
  9
$DIMRND
 40
0.0
  9
$DIMDLE
 40
0.0
  9
$DIMEXE
 40
1.0
  9
$DIMTP
 40
0.0
  9
$DIMTM
 40
0.0
  9
$DIMTXT
 40
35.0
  9
$DIMCEN
 40
1.0
  9
$DIMTSZ
 40
0.0
  9
$DIMTOL
 70
     0
  9
$DIMLIM
 70
     0
  9
$DIMTIH
 70
     0
  9
$DIMTOH
 70
     0
  9
$DIMSE1
 70
     0
  9
$DIMSE2
 70
     0
  9
$DIMTAD
 70
     0
  9
$DIMZIN
 70
     0
  9
$DIMBLK
  1

  9
$DIMASO
 70
     1
  9
$DIMSHO
 70
     0
  9
$DIMPOST
  1

  9
$DIMAPOST
  1

  9
$DIMALT
 70
     0
  9
$DIMALTD
 70
     2
  9
$DIMALTF
 40
25.4
  9
$DIMLFAC
 40
1.0
  9
$DIMTOFL
 70
     0
  9
$DIMTVP
 40
0.0
  9
$DIMTIX
 70
     0
  9
$DIMSOXD
 70
     0
  9
$DIMSAH
 70
     0
  9
$DIMBLK1
  1

  9
$DIMBLK2
  1

  9
$DIMSTYLE
  2
TEAM
  9
$DIMCLRD
 70
     9
  9
$DIMCLRE
 70
     9
  9
$DIMCLRT
 70
    11
  9
$DIMTFAC
 40
1.0
  9
$DIMGAP
 40
7.0
  9
$LUNITS
 70
     2
  9
$LUPREC
 70
     1
  9
$SKETCHINC
 40
1.0
  9
$FILLETRAD
 40
50.0
  9
$AUNITS
 70
     0
  9
$AUPREC
 70
     0
  9
$MENU
  1
ROPLANS
  9
$ELEVATION
 40
0.0
  9
$PELEVATION
 40
0.0
  9
$THICKNESS
 40
0.0
  9
$LIMCHECK
 70
     0
  9
$BLIPMODE
 70
     1
  9
$CHAMFERA
 40
0.0
  9
$CHAMFERB
 40
0.0
  9
$SKPOLY
 70
     0
  9
$TDCREATE
 40
2450392.957851
  9
$TDUPDATE
 40
2456272.033233
  9
$TDINDWG
 40
2.315654
  9
$TDUSRTIMER
 40
2.315654
  9
$USRTIMER
 70
     1
  9
$ANGBASE
 50
0.0
  9
$ANGDIR
 70
     0
  9
$PDMODE
 70
     0
  9
$PDSIZE
 40
0.0
  9
$PLINEWID
 40
0.0
  9
$COORDS
 70
     2
  9
$SPLFRAME
 70
     0
  9
$SPLINETYPE
 70
     6
  9
$SPLINESEGS
 70
     8
  9
$ATTDIA
 70
     0
  9
$ATTREQ
 70
     0
  9
$HANDLING
 70
     1
  9
$HANDSEED
  5
10E
  9
$SURFTAB1
 70
    24
  9
$SURFTAB2
 70
    24
  9
$SURFTYPE
 70
     6
  9
$SURFU
 70
     6
  9
$SURFV
 70
     6
  9
$UCSNAME
  2

  9
$UCSORG
 10
0.0
 20
0.0
 30
0.0
  9
$UCSXDIR
 10
1.0
 20
0.0
 30
0.0
  9
$UCSYDIR
 10
0.0
 20
1.0
 30
0.0
  9
$PUCSNAME
  2

  9
$PUCSORG
 10
0.0
 20
0.0
 30
0.0
  9
$PUCSXDIR
 10
1.0
 20
0.0
 30
0.0
  9
$PUCSYDIR
 10
0.0
 20
1.0
 30
0.0
  9
$USERI1
 70
     0
  9
$USERI2
 70
     0
  9
$USERI3
 70
     0
  9
$USERI4
 70
     0
  9
$USERI5
 70
     0
  9
$USERR1
 40
0.0
  9
$USERR2
 40
0.0
  9
$USERR3
 40
0.0
  9
$USERR4
 40
0.0
  9
$USERR5
 40
0.0
  9
$WORLDVIEW
 70
     1
  9
$SHADEDGE
 70
     0
  9
$SHADEDIF
 70
    70
  9
$TILEMODE
 70
     1
  9
$MAXACTVP
 70
    16
  9
$PLIMCHECK
 70
     0
  9
$PEXTMIN
 10
-0.805942
 20
0.005011
 30
0.0
  9
$PEXTMAX
 10
20.250094
 20
11.356329
 30
0.0
  9
$PLIMMIN
 10
0.0
 20
0.0
  9
$PLIMMAX
 10
12.0
 20
9.0
  9
$UNITMODE
 70
     0
  9
$VISRETAIN
 70
     0
  9
$PLINEGEN
 70
     0
  9
$PSLTSCALE
 70
     0
  0
ENDSEC
  0
SECTION
  2
TABLES
  0
TABLE
  2
VPORT
 70
     2
  0
VPORT
  2
*ACTIVE
 70
     0
 10
0.0
 20
0.0
 11
1.0
 21
1.0
 12
77.699557
 22
555.009987
 13
0.0
 23
0.0
 14
1.0
 24
1.0
 15
50.0
 25
50.0
 16
0.0
 26
0.0
 36
1.0
 17
0.0
 27
0.0
 37
0.0
 40
1137.259415
 41
1.911765
 42
50.0
 43
0.0
 44
0.0
 50
0.0
 51
0.0
 71
     0
 72
   100
 73
     1
 74
     1
 75
     0
 76
     0
 77
     0
 78
     0
  0
ENDTAB
  0
TABLE
  2
LTYPE
 70
     2
  0
LTYPE
  2
CONTINUOUS
 70
     0
  3
Solid Line
 72
    65
 73
     0
 40
0.0
  0
LTYPE
  2
31
 70
     0
  3

 72
    65
 73
     4
 40
2.1
 49
1.5
 49
-0.3
 49
0.0
 49
-0.3
  0
ENDTAB
  0
TABLE
  2
LAYER
 70
    12
  0
LAYER
  2
0
 70
     0
 62
     7
  6
CONTINUOUS
  0
LAYER
  2
079300000000
 70
     0
 62
     7
  6
CONTINUOUS
  0
LAYER
  2
DEFPOINTS
 70
     0
 62
     7
  6
CONTINUOUS
  0
LAYER
  2
TEAM-BODY
 70
     0
 62
     2
  6
CONTINUOUS
  0
LAYER
  2
TEAM-AXE
 70
     0
 62
    10
  6
31
  0
LAYER
  2
TEAM-MAS
 70
     0
 62
     9
  6
CONTINUOUS
  0
LAYER
  2
TEAM-TXT
 70
     0
 62
    11
  6
CONTINUOUS
  0
LAYER
  2
TEAM-DET1
 70
     0
 62
     4
  6
CONTINUOUS
  0
LAYER
  2
TEAM-COLD
 70
     0
 62
     3
  6
CONTINUOUS
  0
LAYER
  2
TEAM-KAN
 70
     0
 62
     6
  6
CONTINUOUS
  0
LAYER
  2
TEAM-WARM
 70
     0
 62
     1
  6
CONTINUOUS
  0
LAYER
  2
TEAM-INSP
 70
     0
 62
     5
  6
CONTINUOUS
  0
ENDTAB
  0
TABLE
  2
STYLE
 70
     2
  0
STYLE
  2
STANDARD
 70
     0
 40
0.0
 41
1.0
 50
0.0
 71
     0
 42
200.0
  3
txt
  4

  0
STYLE
  2
TEAM
 70
     0
 40
0.0
 41
0.8
 50
15.0
 71
     0
 42
7.0
  3
ROMANS.shx
  4

  0
ENDTAB
  0
TABLE
  2
VIEW
 70
     0
  0
ENDTAB
  0
TABLE
  2
UCS
 70
     0
  0
ENDTAB
  0
TABLE
  2
APPID
 70
     1
  0
APPID
  2
ACAD
 70
     0
  0
ENDTAB
  0
TABLE
  2
DIMSTYLE
 70
     1
  0
DIMSTYLE
  2
TEAM
 70
     0
  3

  4

  5

  6

  7

 40
0.0
 41
20.0
 42
10.0
 43
1.0
 44
1.0
 45
0.0
 46
0.0
 47
0.0
 48
0.0
140
35.0
141
1.0
142
0.0
143
25.4
144
1.0
145
0.0
146
1.0
147
7.0
 71
     0
 72
     0
 73
     0
 74
     0
 75
     0
 76
     0
 77
     0
 78
     0
170
     0
171
     2
172
     0
173
     0
174
     0
175
     0
176
     9
177
     9
178
    11
  0
ENDTAB
  0
ENDSEC
  0
SECTION
  2
BLOCKS
  0
BLOCK
  8
0
  2
$MODEL_SPACE
 70
     0
 10
0.0
 20
0.0
 30
0.0
  3
$MODEL_SPACE
  1

  0
ENDBLK
  5
107
  8
0
  0
BLOCK
 67
     1
  8
0
  2
$PAPER_SPACE
 70
     0
 10
0.0
 20
0.0
 30
0.0
  3
$PAPER_SPACE
  1

  0
ENDBLK
  5
105
 67
     1
  8
0
  0
BLOCK
  8
0
  2
*D0
 70
     1
 10
0.0
 20
0.0
 30
0.0
  3
*D0
  1

  0
LINE
  5
95
  8
0
  6
BYBLOCK
 62
     9
 10
-10.0
 20
172000.0
 30
0.0
 11
-169.472004
 21
172000.0
 31
0.0
  0
LINE
  5
96
  8
0
  6
BYBLOCK
 62
     9
 10
-10.0
 20
172800.0
 30
0.0
 11
-169.472004
 21
172800.0
 31
0.0
  0
LINE
  5
97
  8
0
  6
BYBLOCK
 62
     9
 10
-168.472004
 20
172020.0
 30
0.0
 11
-168.472004
 21
172285.083333
 31
0.0
  0
LINE
  5
98
  8
0
  6
BYBLOCK
 62
     9
 10
-168.472004
 20
172780.0
 30
0.0
 11
-168.472004
 21
172514.916667
 31
0.0
  0
SOLID
  5
99
  8
0
  6
BYBLOCK
 62
     9
 10
-171.805338
 20
172020.0
 30
0.0
 11
-165.138671
 21
172020.0
 31
0.0
 12
-168.472004
 22
172000.0
 32
0.0
 13
-168.472004
 23
172000.0
 33
0.0
  0
SOLID
  5
9A
  8
0
  6
BYBLOCK
 62
     9
 10
-171.805338
 20
172780.0
 30
0.0
 11
-165.138671
 21
172780.0
 31
0.0
 12
-168.472004
 22
172800.0
 32
0.0
 13
-168.472004
 23
172800.0
 33
0.0
  0
TEXT
  5
9B
  8
0
  6
BYBLOCK
 62
    11
 10
-150.972004
 20
172292.083333
 30
0.0
 40
35.0
  1
700-850
 50
90.0
  0
POINT
  5
9C
  8
DEFPOINTS
  6
BYBLOCK
 62
     0
 10
0.0
 20
172000.0
 30
0.0
  0
POINT
  5
9D
  8
DEFPOINTS
  6
BYBLOCK
 62
     0
 10
0.0
 20
172800.0
 30
0.0
  0
POINT
  5
9E
  8
DEFPOINTS
  6
BYBLOCK
 62
     0
 10
-168.472004
 20
172800.0
 30
0.0
  0
ENDBLK
  5
A0
  8
0
  0
BLOCK
  8
0
  2
*D1
 70
     1
 10
0.0
 20
0.0
 30
0.0
  3
*D1
  1

  0
LINE
  5
87
  8
0
  6
BYBLOCK
 62
     9
 10
-10.0
 20
172000.0
 30
0.0
 11
-125.994556
 21
172000.0
 31
0.0
  0
LINE
  5
88
  8
0
  6
BYBLOCK
 62
     9
 10
-10.0
 20
172800.0
 30
0.0
 11
-125.994556
 21
172800.0
 31
0.0
  0
LINE
  5
89
  8
0
  6
BYBLOCK
 62
     9
 10
-124.994556
 20
172020.0
 30
0.0
 11
-124.994556
 21
172352.166667
 31
0.0
  0
LINE
  5
8A
  8
0
  6
BYBLOCK
 62
     9
 10
-124.994556
 20
172780.0
 30
0.0
 11
-124.994556
 21
172447.833333
 31
0.0
  0
SOLID
  5
8B
  8
0
  6
BYBLOCK
 62
     9
 10
-128.327889
 20
172020.0
 30
0.0
 11
-121.661222
 21
172020.0
 31
0.0
 12
-124.994556
 22
172000.0
 32
0.0
 13
-124.994556
 23
172000.0
 33
0.0
  0
SOLID
  5
8C
  8
0
  6
BYBLOCK
 62
     9
 10
-128.327889
 20
172780.0
 30
0.0
 11
-121.661222
 21
172780.0
 31
0.0
 12
-124.994556
 22
172800.0
 32
0.0
 13
-124.994556
 23
172800.0
 33
0.0
  0
TEXT
  5
8D
  8
0
  6
BYBLOCK
 62
    11
 10
-107.494556
 20
172359.166667
 30
0.0
 40
35.0
  1
800
 50
90.0
  0
POINT
  5
8E
  8
DEFPOINTS
  6
BYBLOCK
 62
     0
 10
0.0
 20
172000.0
 30
0.0
  0
POINT
  5
8F
  8
DEFPOINTS
  6
BYBLOCK
 62
     0
 10
0.0
 20
172800.0
 30
0.0
  0
POINT
  5
90
  8
DEFPOINTS
  6
BYBLOCK
 62
     0
 10
-124.994556
 20
172800.0
 30
0.0
  0
ENDBLK
  5
92
  8
0
  0
BLOCK
  8
0
  2
*D2
 70
     1
 10
0.0
 20
0.0
 30
0.0
  3
*D2
  1

  0
LINE
  5
79
  8
0
  6
BYBLOCK
 62
     9
 10
-10.0
 20
172000.0
 30
0.0
 11
-87.473309
 21
172000.0
 31
0.0
  0
LINE
  5
7A
  8
0
  6
BYBLOCK
 62
     9
 10
-10.0
 20
172400.0
 30
0.0
 11
-87.473309
 21
172400.0
 31
0.0
  0
LINE
  5
7B
  8
0
  6
BYBLOCK
 62
     9
 10
-86.473309
 20
172020.0
 30
0.0
 11
-86.473309
 21
172085.083333
 31
0.0
  0
LINE
  5
7C
  8
0
  6
BYBLOCK
 62
     9
 10
-86.473309
 20
172380.0
 30
0.0
 11
-86.473309
 21
172314.916667
 31
0.0
  0
SOLID
  5
7D
  8
0
  6
BYBLOCK
 62
     9
 10
-89.806643
 20
172020.0
 30
0.0
 11
-83.139976
 21
172020.0
 31
0.0
 12
-86.473309
 22
172000.0
 32
0.0
 13
-86.473309
 23
172000.0
 33
0.0
  0
SOLID
  5
7E
  8
0
  6
BYBLOCK
 62
     9
 10
-89.806643
 20
172380.0
 30
0.0
 11
-83.139976
 21
172380.0
 31
0.0
 12
-86.473309
 22
172400.0
 32
0.0
 13
-86.473309
 23
172400.0
 33
0.0
  0
TEXT
  5
7F
  8
0
  6
BYBLOCK
 62
    11
 10
-68.973309
 20
172092.083333
 30
0.0
 40
35.0
  1
300-450
 50
90.0
  0
POINT
  5
80
  8
DEFPOINTS
  6
BYBLOCK
 62
     0
 10
0.0
 20
172000.0
 30
0.0
  0
POINT
  5
81
  8
DEFPOINTS
  6
BYBLOCK
 62
     0
 10
0.0
 20
172400.0
 30
0.0
  0
POINT
  5
82
  8
DEFPOINTS
  6
BYBLOCK
 62
     0
 10
-86.473309
 20
172400.0
 30
0.0
  0
ENDBLK
  5
84
  8
0
  0
BLOCK
  8
0
  2
*D3
 70
     1
 10
0.0
 20
0.0
 30
0.0
  3
*D3
  1

  0
LINE
  5
6B
  8
0
  6
BYBLOCK
 62
     9
 10
-10.0
 20
172000.0
 30
0.0
 11
-43.995861
 21
172000.0
 31
0.0
  0
LINE
  5
6C
  8
0
  6
BYBLOCK
 62
     9
 10
-10.0
 20
172400.0
 30
0.0
 11
-43.995861
 21
172400.0
 31
0.0
  0
LINE
  5
6D
  8
0
  6
BYBLOCK
 62
     9
 10
-42.995861
 20
172020.0
 30
0.0
 11
-42.995861
 21
172152.166667
 31
0.0
  0
LINE
  5
6E
  8
0
  6
BYBLOCK
 62
     9
 10
-42.995861
 20
172380.0
 30
0.0
 11
-42.995861
 21
172247.833333
 31
0.0
  0
SOLID
  5
6F
  8
0
  6
BYBLOCK
 62
     9
 10
-46.329194
 20
172020.0
 30
0.0
 11
-39.662528
 21
172020.0
 31
0.0
 12
-42.995861
 22
172000.0
 32
0.0
 13
-42.995861
 23
172000.0
 33
0.0
  0
SOLID
  5
70
  8
0
  6
BYBLOCK
 62
     9
 10
-46.329194
 20
172380.0
 30
0.0
 11
-39.662528
 21
172380.0
 31
0.0
 12
-42.995861
 22
172400.0
 32
0.0
 13
-42.995861
 23
172400.0
 33
0.0
  0
TEXT
  5
71
  8
0
  6
BYBLOCK
 62
    11
 10
-25.495861
 20
172159.166667
 30
0.0
 40
35.0
  1
400
 50
90.0
  0
POINT
  5
72
  8
DEFPOINTS
  6
BYBLOCK
 62
     0
 10
0.0
 20
172000.0
 30
0.0
  0
POINT
  5
73
  8
DEFPOINTS
  6
BYBLOCK
 62
     0
 10
0.0
 20
172400.0
 30
0.0
  0
POINT
  5
74
  8
DEFPOINTS
  6
BYBLOCK
 62
     0
 10
-42.995861
 20
172400.0
 30
0.0
  0
ENDBLK
  5
76
  8
0
  0
BLOCK
  8
0
  2
*D4
 70
     1
 10
0.0
 20
0.0
 30
0.0
  3
*D4
  1

  0
LINE
  5
5D
  8
0
  6
BYBLOCK
 62
     9
 10
-10.0
 20
172000.0
 30
0.0
 11
-212.949453
 21
172000.0
 31
0.0
  0
LINE
  5
5E
  8
0
  6
BYBLOCK
 62
     9
 10
-10.0
 20
173100.0
 30
0.0
 11
-212.949453
 21
173100.0
 31
0.0
  0
LINE
  5
5F
  8
0
  6
BYBLOCK
 62
     9
 10
-211.949453
 20
172020.0
 30
0.0
 11
-211.949453
 21
172496.333333
 31
0.0
  0
LINE
  5
60
  8
0
  6
BYBLOCK
 62
     9
 10
-211.949453
 20
173080.0
 30
0.0
 11
-211.949453
 21
172603.666667
 31
0.0
  0
SOLID
  5
61
  8
0
  6
BYBLOCK
 62
     9
 10
-215.282786
 20
172020.0
 30
0.0
 11
-208.616119
 21
172020.0
 31
0.0
 12
-211.949453
 22
172000.0
 32
0.0
 13
-211.949453
 23
172000.0
 33
0.0
  0
SOLID
  5
62
  8
0
  6
BYBLOCK
 62
     9
 10
-215.282786
 20
173080.0
 30
0.0
 11
-208.616119
 21
173080.0
 31
0.0
 12
-211.949453
 22
173100.0
 32
0.0
 13
-211.949453
 23
173100.0
 33
0.0
  0
TEXT
  5
63
  8
0
  6
BYBLOCK
 62
    11
 10
-194.449453
 20
172503.333333
 30
0.0
 40
35.0
  1
1100
 50
90.0
  0
POINT
  5
64
  8
DEFPOINTS
  6
BYBLOCK
 62
     0
 10
0.0
 20
172000.0
 30
0.0
  0
POINT
  5
65
  8
DEFPOINTS
  6
BYBLOCK
 62
     0
 10
0.0
 20
173100.0
 30
0.0
  0
POINT
  5
66
  8
DEFPOINTS
  6
BYBLOCK
 62
     0
 10
-211.949453
 20
173100.0
 30
0.0
  0
ENDBLK
  5
68
  8
0
  0
BLOCK
  8
0
  2
*D5
 70
     1
 10
0.0
 20
0.0
 30
0.0
  3
*D5
  1

  0
LINE
  5
4F
  8
0
  6
BYBLOCK
 62
     9
 10
-10.0
 20
172000.0
 30
0.0
 11
-258.079438
 21
172000.0
 31
0.0
  0
LINE
  5
50
  8
0
  6
BYBLOCK
 62
     9
 10
-2.420683
 20
173100.0
 30
0.0
 11
-258.079438
 21
173100.0
 31
0.0
  0
LINE
  5
51
  8
0
  6
BYBLOCK
 62
     9
 10
-257.079438
 20
172020.0
 30
0.0
 11
-257.079438
 21
172417.583333
 31
0.0
  0
LINE
  5
52
  8
0
  6
BYBLOCK
 62
     9
 10
-257.079438
 20
173080.0
 30
0.0
 11
-257.079438
 21
172682.416667
 31
0.0
  0
SOLID
  5
53
  8
0
  6
BYBLOCK
 62
     9
 10
-260.412771
 20
172020.0
 30
0.0
 11
-253.746105
 21
172020.0
 31
0.0
 12
-257.079438
 22
172000.0
 32
0.0
 13
-257.079438
 23
172000.0
 33
0.0
  0
SOLID
  5
54
  8
0
  6
BYBLOCK
 62
     9
 10
-260.412771
 20
173080.0
 30
0.0
 11
-253.746105
 21
173080.0
 31
0.0
 12
-257.079438
 22
173100.0
 32
0.0
 13
-257.079438
 23
173100.0
 33
0.0
  0
TEXT
  5
55
  8
0
  6
BYBLOCK
 62
    11
 10
-239.579438
 20
172424.583333
 30
0.0
 40
35.0
  1
1100-1250
 50
90.0
  0
POINT
  5
56
  8
DEFPOINTS
  6
BYBLOCK
 62
     0
 10
0.0
 20
172000.0
 30
0.0
  0
POINT
  5
57
  8
DEFPOINTS
  6
BYBLOCK
 62
     0
 10
7.579317
 20
173100.0
 30
0.0
  0
POINT
  5
58
  8
DEFPOINTS
  6
BYBLOCK
 62
     0
 10
-257.079438
 20
173100.0
 30
0.0
  0
ENDBLK
  5
5A
  8
0
  0
BLOCK
  8
0
  2
*D6
 70
     1
 10
0.0
 20
0.0
 30
0.0
  3
*D6
  1

  0
LINE
  5
41
  8
0
  6
BYBLOCK
 62
     9
 10
0.0
 20
172010.0
 30
0.0
 11
0.0
 21
172915.442136
 31
0.0
  0
LINE
  5
42
  8
0
  6
BYBLOCK
 62
     9
 10
430.0
 20
172798.8
 30
0.0
 11
430.0
 21
172915.442136
 31
0.0
  0
LINE
  5
43
  8
0
  6
BYBLOCK
 62
     9
 10
20.0
 20
172914.442136
 30
0.0
 11
164.25
 21
172914.442136
 31
0.0
  0
LINE
  5
44
  8
0
  6
BYBLOCK
 62
     9
 10
410.0
 20
172914.442136
 30
0.0
 11
265.75
 21
172914.442136
 31
0.0
  0
SOLID
  5
45
  8
0
  6
BYBLOCK
 62
     9
 10
20.0
 20
172917.775469
 30
0.0
 11
20.0
 21
172911.108803
 31
0.0
 12
0.0
 22
172914.442136
 32
0.0
 13
0.0
 23
172914.442136
 33
0.0
  0
SOLID
  5
46
  8
0
  6
BYBLOCK
 62
     9
 10
410.0
 20
172917.775469
 30
0.0
 11
410.0
 21
172911.108803
 31
0.0
 12
430.0
 22
172914.442136
 32
0.0
 13
430.0
 23
172914.442136
 33
0.0
  0
TEXT
  5
47
  8
0
  6
BYBLOCK
 62
    11
 10
171.25
 20
172896.942136
 30
0.0
 40
35.0
  1
430
  0
POINT
  5
48
  8
DEFPOINTS
  6
BYBLOCK
 62
     0
 10
0.0
 20
172000.0
 30
0.0
  0
POINT
  5
49
  8
DEFPOINTS
  6
BYBLOCK
 62
     0
 10
430.0
 20
172788.8
 30
0.0
  0
POINT
  5
4A
  8
DEFPOINTS
  6
BYBLOCK
 62
     0
 10
430.0
 20
172914.442136
 30
0.0
  0
ENDBLK
  5
4C
  8
0
  0
BLOCK
  8
0
  2
*D7
 70
     1
 10
0.0
 20
0.0
 30
0.0
  3
*D7
  1

  0
LINE
  5
33
  8
0
  6
BYBLOCK
 62
     9
 10
61.503518
 20
172560.0
 30
0.0
 11
-87.473309
 21
172560.0
 31
0.0
  0
LINE
  5
34
  8
0
  6
BYBLOCK
 62
     9
 10
-10.0
 20
172800.0
 30
0.0
 11
-87.473309
 21
172800.0
 31
0.0
  0
LINE
  5
35
  8
0
  6
BYBLOCK
 62
     9
 10
-86.473309
 20
172580.0
 30
0.0
 11
-86.473309
 21
172629.25
 31
0.0
  0
LINE
  5
36
  8
0
  6
BYBLOCK
 62
     9
 10
-86.473309
 20
172780.0
 30
0.0
 11
-86.473309
 21
172730.75
 31
0.0
  0
SOLID
  5
37
  8
0
  6
BYBLOCK
 62
     9
 10
-89.806643
 20
172580.0
 30
0.0
 11
-83.139976
 21
172580.0
 31
0.0
 12
-86.473309
 22
172560.0
 32
0.0
 13
-86.473309
 23
172560.0
 33
0.0
  0
SOLID
  5
38
  8
0
  6
BYBLOCK
 62
     9
 10
-89.806643
 20
172780.0
 30
0.0
 11
-83.139976
 21
172780.0
 31
0.0
 12
-86.473309
 22
172800.0
 32
0.0
 13
-86.473309
 23
172800.0
 33
0.0
  0
TEXT
  5
39
  8
0
  6
BYBLOCK
 62
    11
 10
-68.973309
 20
172636.25
 30
0.0
 40
35.0
  1
240
 50
90.0
  0
POINT
  5
3A
  8
DEFPOINTS
  6
BYBLOCK
 62
     0
 10
71.503518
 20
172560.0
 30
0.0
  0
POINT
  5
3B
  8
DEFPOINTS
  6
BYBLOCK
 62
     0
 10
0.0
 20
172800.0
 30
0.0
  0
POINT
  5
3C
  8
DEFPOINTS
  6
BYBLOCK
 62
     0
 10
-86.473309
 20
172800.0
 30
0.0
  0
ENDBLK
  5
3E
  8
0
  0
BLOCK
  8
0
  2
*D8
 70
     1
 10
0.0
 20
0.0
 30
0.0
  3
*D8
  1

  0
LINE
  5
22
  8
0
  6
BYBLOCK
 62
     9
 10
-10.0
 20
172800.0
 30
0.0
 11
-87.473309
 21
172800.0
 31
0.0
  0
LINE
  5
23
  8
0
  6
BYBLOCK
 62
     9
 10
-10.0
 20
172815.0
 30
0.0
 11
-87.473309
 21
172815.0
 31
0.0
  0
LINE
  5
24
  8
0
  6
BYBLOCK
 62
     9
 10
-86.473309
 20
172780.0
 30
0.0
 11
-86.473309
 21
172760.0
 31
0.0
  0
LINE
  5
25
  8
0
  6
BYBLOCK
 62
     9
 10
-86.473309
 20
172835.0
 30
0.0
 11
-86.473309
 21
172855.0
 31
0.0
  0
TEXT
  5
26
  8
0
  6
BYBLOCK
 62
    11
 10
-68.973309
 20
172870.177301
 30
0.0
 40
35.0
  1
15
 50
90.0
  0
LINE
  5
27
  8
0
  6
BYBLOCK
 62
     9
 10
-86.473309
 20
172800.0
 30
0.0
 11
-86.473309
 21
172815.0
 31
0.0
  0
SOLID
  5
28
  8
0
  6
BYBLOCK
 62
     9
 10
-89.806643
 20
172780.0
 30
0.0
 11
-83.139976
 21
172780.0
 31
0.0
 12
-86.473309
 22
172800.0
 32
0.0
 13
-86.473309
 23
172800.0
 33
0.0
  0
SOLID
  5
29
  8
0
  6
BYBLOCK
 62
     9
 10
-89.806643
 20
172835.0
 30
0.0
 11
-83.139976
 21
172835.0
 31
0.0
 12
-86.473309
 22
172815.0
 32
0.0
 13
-86.473309
 23
172815.0
 33
0.0
  0
POINT
  5
2A
  8
DEFPOINTS
  6
BYBLOCK
 62
     0
 10
0.0
 20
172800.0
 30
0.0
  0
POINT
  5
2C
  8
DEFPOINTS
  6
BYBLOCK
 62
     0
 10
0.0
 20
172815.0
 30
0.0
  0
POINT
  5
2D
  8
DEFPOINTS
  6
BYBLOCK
 62
     0
 10
-86.473309
 20
172815.0
 30
0.0
  0
ENDBLK
  5
2F
  8
0
  0
ENDSEC
  0
SECTION
  2
ENTITIES
  0
DIMENSION
  5
20
  8
TEAM-MAS
  2
*D8
 10
-86.473309
 20
815.0
 30
0.0
 11
-86.473309
 21
893.510634
 31
0.0
 12
0.0
 22
-172000.0
 32
0.0
 70
   128
 13
0.0
 23
800.0
 33
0.0
 14
0.0
 24
815.0
 34
0.0
 50
90.0
1001
ACAD
1000
DSTYLE
1002
{
1070
    40
1040
1.0
1002
}
  0
DIMENSION
  5
30
  8
079300000000
  2
*D7
 10
-86.473309
 20
800.0
 30
0.0
 11
-86.473309
 21
680.0
 31
0.0
 12
0.0
 22
-172000.0
 32
0.0
 13
71.503518
 23
560.0
 33
0.0
 14
0.0
 24
800.0
 34
0.0
 50
90.0
  0
DIMENSION
  5
3F
  8
TEAM-MAS
  2
*D6
 10
430.0
 20
914.442136
 30
0.0
 11
215.0
 21
914.442136
 31
0.0
 12
0.0
 22
-172000.0
 32
0.0
 13
0.0
 23
0.0
 33
0.0
 14
430.0
 24
788.8
 34
0.0
  0
DIMENSION
  5
4D
  8
TEAM-MAS
  2
*D5
 10
-257.079438
 20
1100.0
 30
0.0
 11
-257.079438
 21
550.0
 31
0.0
 12
0.0
 22
-172000.0
 32
0.0
  1
1100-1250
 13
0.0
 23
0.0
 33
0.0
 14
7.579317
 24
1100.0
 34
0.0
 50
90.0
  0
DIMENSION
  5
5B
  8
TEAM-MAS
  2
*D4
 10
-211.949453
 20
1100.0
 30
0.0
 11
-211.949453
 21
550.0
 31
0.0
 12
0.0
 22
-172000.0
 32
0.0
 13
0.0
 23
0.0
 33
0.0
 14
0.0
 24
1100.0
 34
0.0
 50
90.0
  0
DIMENSION
  5
69
  8
TEAM-MAS
  2
*D3
 10
-42.995861
 20
400.0
 30
0.0
 11
-42.995861
 21
200.0
 31
0.0
 12
0.0
 22
-172000.0
 32
0.0
 13
0.0
 23
0.0
 33
0.0
 14
0.0
 24
400.0
 34
0.0
 50
90.0
  0
DIMENSION
  5
77
  8
TEAM-MAS
  2
*D2
 10
-86.473309
 20
400.0
 30
0.0
 11
-86.473309
 21
200.0
 31
0.0
 12
0.0
 22
-172000.0
 32
0.0
  1
300-450
 13
0.0
 23
0.0
 33
0.0
 14
0.0
 24
400.0
 34
0.0
 50
90.0
  0
DIMENSION
  5
85
  8
TEAM-MAS
  2
*D1
 10
-124.994556
 20
800.0
 30
0.0
 11
-124.994556
 21
400.0
 31
0.0
 12
0.0
 22
-172000.0
 32
0.0
 13
0.0
 23
0.0
 33
0.0
 14
0.0
 24
800.0
 34
0.0
 50
90.0
  0
DIMENSION
  5
93
  8
TEAM-MAS
  2
*D0
 10
-168.472004
 20
800.0
 30
0.0
 11
-168.472004
 21
400.0
 31
0.0
 12
0.0
 22
-172000.0
 32
0.0
  1
700-850
 13
0.0
 23
0.0
 33
0.0
 14
0.0
 24
800.0
 34
0.0
 50
90.0
  0
ARC
  5
A1
  8
TEAM-DET1
 10
223.690541
 20
650.566982
 30
0.0
 40
71.378835
 50
268.698332
 51
333.478749
  0
ARC
  5
A3
  8
TEAM-BODY
 10
223.720424
 20
650.051174
 30
0.0
 40
80.861471
 50
268.829822
 51
335.557043
  0
TEXT
  5
A5
  8
TEAM-TXT
 10
73.155952
 20
724.551513
 30
0.0
 40
30.0
  1
team 433011
 41
0.8
 51
15.0
  7
TEAM
  0
LINE
  5
A8
  8
TEAM-BODY
 10
416.983169
 20
800.0
 30
0.0
 11
0.0
 21
800.0
 31
0.0
  0
LINE
  5
A9
  8
TEAM-BODY
 10
430.0
 20
788.8
 30
0.0
 11
0.0
 21
788.8
 31
0.0
  0
LINE
  5
AA
  8
TEAM-MAS
 10
0.0
 20
800.0
 30
0.0
 11
0.0
 21
815.0
 31
0.0
  0
LINE
  5
AB
  8
TEAM-DET1
 10
221.672663
 20
579.198707
 30
0.0
 11
69.298382
 21
568.071461
 31
0.0
  0
LINE
  5
AC
  8
TEAM-BODY
 10
222.069068
 20
569.206567
 30
0.0
 11
69.694787
 21
560.0
 31
0.0
  0
LINE
  5
AD
  8
TEAM-KAN
 10
20.630869
 20
400.0
 30
0.0
 11
118.109167
 21
400.0
 31
0.0
  0
LINE
  5
AF
  8
TEAM-AXE
 10
118.109167
 20
618.698268
 30
0.0
 11
118.109167
 21
557.0
 31
0.0
  0
LINE
  5
B2
  8
TEAM-KAN
 10
118.109167
 20
557.0
 30
0.0
 11
118.109167
 21
325.980383
 31
0.0
  0
LINE
  5
B3
  8
TEAM-BODY
 10
139.109167
 20
564.716946
 30
0.0
 11
139.109167
 21
555.0
 31
0.0
  0
ARC
  5
B4
  8
TEAM-DET1
 10
67.400869
 20
602.451323
 30
0.0
 40
34.432186
 50
187.347528
 51
273.159095
  0
LINE
  5
B5
  8
TEAM-BODY
 10
97.109167
 20
561.862902
 30
0.0
 11
97.109167
 21
555.0
 31
0.0
  0
LINE
  5
B6
  8
TEAM-BODY
 10
139.109167
 20
555.0
 30
0.0
 11
97.109167
 21
555.0
 31
0.0
  0
LINE
  5
B7
  8
TEAM-BODY
 10
0.0
 20
800.0
 30
0.0
 11
0.0
 21
788.8
 31
0.0
  0
LINE
  5
B8
  8
TEAM-AXE
 10
0.0
 20
370.0
 30
0.0
 11
0.0
 21
430.0
 31
0.0
  0
CIRCLE
  5
B9
  8
TEAM-KAN
 10
0.0
 20
400.0
 30
0.0
 40
20.0
  0
ARC
  5
BA
  8
TEAM-BODY
 10
64.341908
 20
600.835604
 30
0.0
 40
41.184947
 50
183.881199
 51
277.467959
  0
LINE
  5
BB
  8
TEAM-DET1
 10
33.251416
 20
598.047881
 30
0.0
 11
17.478299
 21
788.8
 31
0.0
  0
LINE
  5
BC
  8
TEAM-BODY
 10
17.478299
 20
788.8
 30
0.0
 11
23.251416
 21
598.047881
 31
0.0
  0
LINE
  5
BD
  8
TEAM-AXE
 10
-30.0
 20
400.0
 30
0.0
 11
20.630869
 21
400.0
 31
0.0
  0
LINE
  5
BE
  8
TEAM-AXE
 10
0.0
 20
1080.0
 30
0.0
 11
0.0
 21
1120.0
 31
0.0
  0
LINE
  5
BF
  8
TEAM-AXE
 10
7.579317
 20
1080.0
 30
0.0
 11
7.579317
 21
1120.0
 31
0.0
  0
CIRCLE
  5
C0
  8
TEAM-WARM
 10
0.0
 20
1100.0
 30
0.0
 40
15.0
  0
LINE
  5
C2
  8
TEAM-AXE
 10
-20.0
 20
1100.0
 30
0.0
 11
20.0
 21
1100.0
 31
0.0
  0
LINE
  5
C3
  8
TEAM-AXE
 10
-12.420683
 20
1100.0
 30
0.0
 11
27.579317
 21
1100.0
 31
0.0
  0
CIRCLE
  5
C4
  8
TEAM-COLD
 10
7.579317
 20
1100.0
 30
0.0
 40
15.0
  0
LINE
  5
C6
  8
TEAM-BODY
 10
297.334579
 20
616.591741
 30
0.0
 11
380.0
 21
788.8
 31
0.0
  0
LINE
  5
C7
  8
TEAM-DET1
 10
287.558096
 20
618.694212
 30
0.0
 11
380.0
 21
788.8
 31
0.0
  0
ARC
  5
C8
  8
TEAM-BODY
 10
416.983169
 20
790.0
 30
0.0
 40
10.0
 50
34.826577
 51
90.0
  0
LINE
  5
C9
  8
TEAM-BODY
 10
425.192013
 20
795.710944
 30
0.0
 11
430.0
 21
788.8
 31
0.0
  0
CIRCLE
  5
CA
  8
TEAM-INSP
 10
0.0
 20
0.0
 30
0.0
 40
10.0
  0
ENDSEC
  0
EOF
