  0
SECTION
  2
HEADER
  9
$ACADVER
  1
AC1009
  9
$INSBASE
 10
0.0
 20
0.0
 30
0.0
  9
$EXTMIN
 10
-295.807732
 20
-26.264997
 30
-0.000006
  9
$EXTMAX
 10
75.965392
 20
1162.314767
 30
0.000006
  9
$LIMMIN
 10
-295.807732
 20
-26.264997
  9
$LIMMAX
 10
75.965392
 20
1162.314767
  9
$ORTHOMODE
 70
     1
  9
$REGENMODE
 70
     1
  9
$FILLMODE
 70
     1
  9
$QTEXTMODE
 70
     0
  9
$MIRRTEXT
 70
     0
  9
$DRAGMODE
 70
     2
  9
$LTSCALE
 40
50.0
  9
$OSMODE
 70
     0
  9
$ATTMODE
 70
     1
  9
$TEXTSIZE
 40
200.0
  9
$TRACEWID
 40
1.0
  9
$TEXTSTYLE
  7
STANDARD
  9
$CLAYER
  8
TEAM-MAS
  9
$CELTYPE
  6
BYLAYER
  9
$CECOLOR
 62
   256
  9
$DIMSCALE
 40
1.0
  9
$DIMASZ
 40
20.0
  9
$DIMEXO
 40
10.0
  9
$DIMDLI
 40
1.0
  9
$DIMRND
 40
0.0
  9
$DIMDLE
 40
0.0
  9
$DIMEXE
 40
1.0
  9
$DIMTP
 40
0.0
  9
$DIMTM
 40
0.0
  9
$DIMTXT
 40
35.0
  9
$DIMCEN
 40
1.0
  9
$DIMTSZ
 40
0.0
  9
$DIMTOL
 70
     0
  9
$DIMLIM
 70
     0
  9
$DIMTIH
 70
     0
  9
$DIMTOH
 70
     0
  9
$DIMSE1
 70
     0
  9
$DIMSE2
 70
     0
  9
$DIMTAD
 70
     0
  9
$DIMZIN
 70
     0
  9
$DIMBLK
  1

  9
$DIMASO
 70
     1
  9
$DIMSHO
 70
     0
  9
$DIMPOST
  1

  9
$DIMAPOST
  1

  9
$DIMALT
 70
     0
  9
$DIMALTD
 70
     2
  9
$DIMALTF
 40
25.4
  9
$DIMLFAC
 40
1.0
  9
$DIMTOFL
 70
     0
  9
$DIMTVP
 40
0.0
  9
$DIMTIX
 70
     0
  9
$DIMSOXD
 70
     0
  9
$DIMSAH
 70
     0
  9
$DIMBLK1
  1

  9
$DIMBLK2
  1

  9
$DIMSTYLE
  2
TEAM
  9
$DIMCLRD
 70
     9
  9
$DIMCLRE
 70
     9
  9
$DIMCLRT
 70
    11
  9
$DIMTFAC
 40
1.0
  9
$DIMGAP
 40
7.0
  9
$LUNITS
 70
     2
  9
$LUPREC
 70
     1
  9
$SKETCHINC
 40
1.0
  9
$FILLETRAD
 40
50.0
  9
$AUNITS
 70
     0
  9
$AUPREC
 70
     0
  9
$MENU
  1
ROPLANS
  9
$ELEVATION
 40
0.0
  9
$PELEVATION
 40
0.0
  9
$THICKNESS
 40
0.0
  9
$LIMCHECK
 70
     0
  9
$BLIPMODE
 70
     1
  9
$CHAMFERA
 40
0.0
  9
$CHAMFERB
 40
0.0
  9
$SKPOLY
 70
     0
  9
$TDCREATE
 40
2450392.957851
  9
$TDUPDATE
 40
2456118.662559
  9
$TDINDWG
 40
5.307301
  9
$TDUSRTIMER
 40
5.307301
  9
$USRTIMER
 70
     1
  9
$ANGBASE
 50
0.0
  9
$ANGDIR
 70
     0
  9
$PDMODE
 70
     0
  9
$PDSIZE
 40
0.0
  9
$PLINEWID
 40
0.0
  9
$COORDS
 70
     2
  9
$SPLFRAME
 70
     0
  9
$SPLINETYPE
 70
     6
  9
$SPLINESEGS
 70
     8
  9
$ATTDIA
 70
     0
  9
$ATTREQ
 70
     0
  9
$HANDLING
 70
     1
  9
$HANDSEED
  5
13F
  9
$SURFTAB1
 70
    24
  9
$SURFTAB2
 70
    24
  9
$SURFTYPE
 70
     6
  9
$SURFU
 70
     6
  9
$SURFV
 70
     6
  9
$UCSNAME
  2

  9
$UCSORG
 10
0.0
 20
0.0
 30
0.0
  9
$UCSXDIR
 10
1.0
 20
0.0
 30
0.0
  9
$UCSYDIR
 10
0.0
 20
1.0
 30
0.0
  9
$PUCSNAME
  2

  9
$PUCSORG
 10
0.0
 20
0.0
 30
0.0
  9
$PUCSXDIR
 10
1.0
 20
0.0
 30
0.0
  9
$PUCSYDIR
 10
0.0
 20
1.0
 30
0.0
  9
$USERI1
 70
     0
  9
$USERI2
 70
     0
  9
$USERI3
 70
     0
  9
$USERI4
 70
     0
  9
$USERI5
 70
     0
  9
$USERR1
 40
0.0
  9
$USERR2
 40
0.0
  9
$USERR3
 40
0.0
  9
$USERR4
 40
0.0
  9
$USERR5
 40
0.0
  9
$WORLDVIEW
 70
     1
  9
$SHADEDGE
 70
     0
  9
$SHADEDIF
 70
    70
  9
$TILEMODE
 70
     1
  9
$MAXACTVP
 70
    16
  9
$PLIMCHECK
 70
     0
  9
$PEXTMIN
 10
-0.805942
 20
0.005011
 30
0.0
  9
$PEXTMAX
 10
20.250094
 20
11.356329
 30
0.0
  9
$PLIMMIN
 10
0.0
 20
0.0
  9
$PLIMMAX
 10
12.0
 20
9.0
  9
$UNITMODE
 70
     0
  9
$VISRETAIN
 70
     0
  9
$PLINEGEN
 70
     0
  9
$PSLTSCALE
 70
     0
  0
ENDSEC
  0
SECTION
  2
TABLES
  0
TABLE
  2
VPORT
 70
     2
  0
VPORT
  2
*ACTIVE
 70
     0
 10
0.0
 20
0.0
 11
1.0
 21
1.0
 12
-109.92117
 22
568.024885
 13
0.0
 23
0.0
 14
1.0
 24
1.0
 15
50.0
 25
50.0
 16
0.0
 26
0.0
 36
1.0
 17
0.0
 27
0.0
 37
0.0
 40
1196.062953
 41
1.911765
 42
50.0
 43
0.0
 44
0.0
 50
0.0
 51
0.0
 71
     0
 72
   100
 73
     1
 74
     1
 75
     0
 76
     0
 77
     0
 78
     0
  0
ENDTAB
  0
TABLE
  2
LTYPE
 70
     3
  0
LTYPE
  2
CONTINUOUS
 70
     0
  3
Solid Line
 72
    65
 73
     0
 40
0.0
  0
LTYPE
  2
31
 70
     0
  3

 72
    65
 73
     4
 40
2.1
 49
1.5
 49
-0.3
 49
0.0
 49
-0.3
  0
LTYPE
  2
22
 70
     0
  3

 72
    65
 73
     2
 40
1.4
 49
1.2
 49
-0.2
  0
ENDTAB
  0
TABLE
  2
LAYER
 70
     9
  0
LAYER
  2
0
 70
     0
 62
     7
  6
CONTINUOUS
  0
LAYER
  2
DEFPOINTS
 70
     0
 62
     7
  6
CONTINUOUS
  0
LAYER
  2
TEAM-AXE
 70
     0
 62
    10
  6
31
  0
LAYER
  2
TEAM-MAS
 70
     0
 62
     9
  6
CONTINUOUS
  0
LAYER
  2
TEAM-TXT
 70
     0
 62
    11
  6
CONTINUOUS
  0
LAYER
  2
TEAM-DET2
 70
     0
 62
    11
  6
CONTINUOUS
  0
LAYER
  2
TEAM-HIDE
 70
     0
 62
     8
  6
22
  0
LAYER
  2
TEAM-DET3
 70
     0
 62
    14
  6
CONTINUOUS
  0
LAYER
  2
TEAM-INSP
 70
     0
 62
     5
  6
CONTINUOUS
  0
ENDTAB
  0
TABLE
  2
STYLE
 70
     2
  0
STYLE
  2
STANDARD
 70
     0
 40
0.0
 41
1.0
 50
0.0
 71
     0
 42
200.0
  3
txt
  4

  0
STYLE
  2
TEAM
 70
     0
 40
0.0
 41
0.8
 50
15.0
 71
     0
 42
7.0
  3
ROMANS.shx
  4

  0
ENDTAB
  0
TABLE
  2
VIEW
 70
     0
  0
ENDTAB
  0
TABLE
  2
UCS
 70
     0
  0
ENDTAB
  0
TABLE
  2
APPID
 70
     1
  0
APPID
  2
ACAD
 70
     0
  0
ENDTAB
  0
TABLE
  2
DIMSTYLE
 70
     1
  0
DIMSTYLE
  2
TEAM
 70
     0
  3

  4

  5

  6

  7

 40
1.0
 41
20.0
 42
10.0
 43
1.0
 44
1.0
 45
0.0
 46
0.0
 47
0.0
 48
0.0
140
35.0
141
1.0
142
0.0
143
25.4
144
1.0
145
0.0
146
1.0
147
7.0
 71
     0
 72
     0
 73
     0
 74
     0
 75
     0
 76
     0
 77
     0
 78
     0
170
     0
171
     2
172
     0
173
     0
174
     0
175
     0
176
     9
177
     9
178
    11
  0
ENDTAB
  0
ENDSEC
  0
SECTION
  2
BLOCKS
  0
BLOCK
  8
0
  2
$MODEL_SPACE
 70
     0
 10
0.0
 20
0.0
 30
0.0
  3
$MODEL_SPACE
  1

  0
ENDBLK
  5
12C
  8
0
  0
BLOCK
 67
     1
  8
0
  2
$PAPER_SPACE
 70
     0
 10
0.0
 20
0.0
 30
0.0
  3
$PAPER_SPACE
  1

  0
ENDBLK
  5
12A
 67
     1
  8
0
  0
BLOCK
  8
0
  2
*D0
 70
     1
 10
0.0
 20
0.0
 30
0.0
  3
*D0
  1

  0
LINE
  5
56
  8
0
  6
BYBLOCK
 62
     9
 10
8010.0
 20
72000.0
 30
0.0
 11
8059.460996
 21
72000.0
 31
0.0
  0
LINE
  5
57
  8
0
  6
BYBLOCK
 62
     9
 10
8010.0
 20
73120.0
 30
0.0
 11
8059.460996
 21
73120.0
 31
0.0
  0
LINE
  5
58
  8
0
  6
BYBLOCK
 62
     9
 10
8058.460996
 20
72020.0
 30
0.0
 11
8058.460996
 21
72503.416667
 31
0.0
  0
LINE
  5
59
  8
0
  6
BYBLOCK
 62
     9
 10
8058.460996
 20
73100.0
 30
0.0
 11
8058.460996
 21
72616.583333
 31
0.0
  0
SOLID
  5
5A
  8
0
  6
BYBLOCK
 62
     9
 10
8055.127663
 20
72020.0
 30
0.0
 11
8061.79433
 21
72020.0
 31
0.0
 12
8058.460996
 22
72000.0
 32
0.0
 13
8058.460996
 23
72000.0
 33
0.0
  0
SOLID
  5
5B
  8
0
  6
BYBLOCK
 62
     9
 10
8055.127663
 20
73100.0
 30
0.0
 11
8061.79433
 21
73100.0
 31
0.0
 12
8058.460996
 22
73120.0
 32
0.0
 13
8058.460996
 23
73120.0
 33
0.0
  0
TEXT
  5
5C
  8
0
  6
BYBLOCK
 62
    11
 10
8075.960996
 20
72510.416667
 30
0.0
 40
35.0
  1
1120
 50
90.0
  0
POINT
  5
5D
  8
DEFPOINTS
  6
BYBLOCK
 62
     0
 10
8000.0
 20
72000.0
 30
0.0
  0
POINT
  5
5E
  8
DEFPOINTS
  6
BYBLOCK
 62
     0
 10
8000.0
 20
73120.0
 30
0.0
  0
POINT
  5
5F
  8
DEFPOINTS
  6
BYBLOCK
 62
     0
 10
8058.460996
 20
73120.0
 30
0.0
  0
ENDBLK
  5
61
  8
0
  0
BLOCK
  8
0
  2
*D1
 70
     1
 10
0.0
 20
0.0
 30
0.0
  3
*D1
  1

  0
LINE
  5
22
  8
0
  6
BYBLOCK
 62
     9
 10
8000.0
 20
73128.0
 30
0.0
 11
8000.0
 21
73145.811783
 31
0.0
  0
LINE
  5
23
  8
0
  6
BYBLOCK
 62
     9
 10
7850.0
 20
72194.8125
 30
0.0
 11
7850.0
 21
73145.811783
 31
0.0
  0
LINE
  5
24
  8
0
  6
BYBLOCK
 62
     9
 10
7980.0
 20
73144.811783
 30
0.0
 11
7969.916667
 21
73144.811783
 31
0.0
  0
LINE
  5
25
  8
0
  6
BYBLOCK
 62
     9
 10
7870.0
 20
73144.811783
 30
0.0
 11
7880.083333
 21
73144.811783
 31
0.0
  0
SOLID
  5
26
  8
0
  6
BYBLOCK
 62
     9
 10
7980.0
 20
73148.145116
 30
0.0
 11
7980.0
 21
73141.47845
 31
0.0
 12
8000.0
 22
73144.811783
 32
0.0
 13
8000.0
 23
73144.811783
 33
0.0
  0
SOLID
  5
27
  8
0
  6
BYBLOCK
 62
     9
 10
7870.0
 20
73148.145116
 30
0.0
 11
7870.0
 21
73141.47845
 31
0.0
 12
7850.0
 22
73144.811783
 32
0.0
 13
7850.0
 23
73144.811783
 33
0.0
  0
TEXT
  5
28
  8
0
  6
BYBLOCK
 62
    11
 10
7887.083333
 20
73127.311783
 30
0.0
 40
35.0
  1
150
  0
POINT
  5
29
  8
DEFPOINTS
  6
BYBLOCK
 62
     0
 10
8000.0
 20
73118.0
 30
0.0
  0
POINT
  5
2B
  8
DEFPOINTS
  6
BYBLOCK
 62
     0
 10
7850.0
 20
72184.8125
 30
0.0
  0
POINT
  5
2C
  8
DEFPOINTS
  6
BYBLOCK
 62
     0
 10
7850.0
 20
73144.811783
 30
0.0
  0
ENDBLK
  5
2E
  8
0
  0
ENDSEC
  0
SECTION
  2
ENTITIES
  0
DIMENSION
  5
20
  8
TEAM-MAS
  2
*D1
 10
-150.0
 20
1144.811783
 30
0.0
 11
-75.0
 21
1144.811783
 31
0.0
 12
-8000.0
 22
-72000.0
 32
0.0
 13
0.0
 23
1118.0
 33
0.0
 14
-150.0
 24
184.8125
 34
0.0
1001
ACAD
1000
DSTYLE
1002
{
1070
    40
1040
1.0
1002
}
  0
ARC
  5
2F
  8
TEAM-AXE
 10
-59.313505
 20
184.683474
 30
0.0
 40
45.686678
 50
97.298381
 51
179.838188
  0
LINE
  5
32
  8
TEAM-HIDE
 10
-36.5725
 20
281.0
 30
0.0
 11
-36.5725
 21
179.0
 31
0.0
  0
LINE
  5
35
  8
TEAM-AXE
 10
-104.8125
 20
-26.244812
 30
0.0
 11
-104.8125
 21
187.3125
 31
0.0
  0
LINE
  5
36
  8
TEAM-AXE
 10
-35.3125
 20
230.0
 30
0.0
 11
-65.117384
 21
230.0
 31
0.0
  0
LINE
  5
37
  8
TEAM-HIDE
 10
-44.8125
 20
46.25
 30
0.0
 11
-44.8125
 21
42.75
 31
0.0
  0
LINE
  5
38
  8
TEAM-HIDE
 10
-59.625
 20
58.75
 30
0.0
 11
-59.625
 21
184.8125
 31
0.0
  0
LINE
  5
39
  8
TEAM-HIDE
 10
-48.7125
 20
56.441318
 30
0.0
 11
-48.7125
 21
46.25
 31
0.0
  0
LINE
  5
3A
  8
TEAM-HIDE
 10
-49.8125
 20
42.75
 30
0.0
 11
-49.8125
 21
-17.25
 31
0.0
  0
LINE
  5
3B
  8
TEAM-HIDE
 10
-58.7125
 20
58.75
 30
0.0
 11
-48.7125
 21
56.441318
 31
0.0
  0
LINE
  5
3C
  8
TEAM-HIDE
 10
-37.8125
 20
281.0
 30
0.0
 11
-37.8125
 21
179.0
 31
0.0
  0
LINE
  5
3D
  8
TEAM-HIDE
 10
-53.3125
 20
281.0
 30
0.0
 11
-53.3125
 21
179.0
 31
0.0
  0
LINE
  5
3E
  8
TEAM-HIDE
 10
-56.8125
 20
281.0
 30
0.0
 11
-56.8125
 21
179.0
 31
0.0
  0
LINE
  5
3F
  8
TEAM-HIDE
 10
-59.6225
 20
275.1875
 30
0.0
 11
-59.6225
 21
184.8125
 31
0.0
  0
LINE
  5
40
  8
TEAM-HIDE
 10
-36.5725
 20
179.0
 30
0.0
 11
-37.8125
 21
179.0
 31
0.0
  0
LINE
  5
41
  8
TEAM-HIDE
 10
-36.5725
 20
281.0
 30
0.0
 11
-37.8125
 21
281.0
 31
0.0
  0
LINE
  5
42
  8
TEAM-HIDE
 10
-37.8125
 20
180.9
 30
0.0
 11
-53.3125
 21
180.9
 31
0.0
  0
LINE
  5
43
  8
TEAM-HIDE
 10
-37.8125
 20
279.1
 30
0.0
 11
-53.3125
 21
279.1
 31
0.0
  0
LINE
  5
44
  8
TEAM-HIDE
 10
-53.3125
 20
179.0
 30
0.0
 11
-56.8125
 21
179.0
 31
0.0
  0
LINE
  5
45
  8
TEAM-HIDE
 10
-53.3125
 20
281.0
 30
0.0
 11
-56.8125
 21
281.0
 31
0.0
  0
LINE
  5
46
  8
TEAM-HIDE
 10
-56.8125
 20
184.8125
 30
0.0
 11
-59.6225
 21
184.8125
 31
0.0
  0
LINE
  5
47
  8
TEAM-HIDE
 10
-56.8125
 20
275.1875
 30
0.0
 11
-59.6225
 21
275.1875
 31
0.0
  0
LINE
  5
48
  8
TEAM-HIDE
 10
-59.625
 20
275.1875
 30
0.0
 11
-59.625
 21
184.8125
 31
0.0
  0
LINE
  5
49
  8
TEAM-HIDE
 10
-150.0
 20
58.75
 30
0.0
 11
-150.0
 21
184.8125
 31
0.0
  0
LINE
  5
4A
  8
TEAM-HIDE
 10
-160.9125
 20
56.441318
 30
0.0
 11
-160.9125
 21
46.25
 31
0.0
  0
LINE
  5
4B
  8
TEAM-HIDE
 10
-164.8125
 20
46.25
 30
0.0
 11
-164.8125
 21
42.75
 31
0.0
  0
LINE
  5
4C
  8
TEAM-HIDE
 10
-159.8125
 20
42.75
 30
0.0
 11
-159.8125
 21
-17.25
 31
0.0
  0
LINE
  5
4D
  8
TEAM-HIDE
 10
-150.9125
 20
58.75
 30
0.0
 11
-160.9125
 21
56.441318
 31
0.0
  0
ARC
  5
4E
  8
TEAM-HIDE
 10
-59.625
 20
184.8125
 30
0.0
 40
90.375
 50
90.0
 51
180.0
  0
LINE
  5
4F
  8
TEAM-HIDE
 10
-160.9125
 20
56.441318
 30
0.0
 11
-48.7125
 21
56.441318
 31
0.0
  0
LINE
  5
50
  8
TEAM-HIDE
 10
-164.8125
 20
46.25
 30
0.0
 11
-44.8125
 21
46.25
 31
0.0
  0
LINE
  5
51
  8
TEAM-HIDE
 10
-164.8125
 20
42.75
 30
0.0
 11
-44.8125
 21
42.75
 31
0.0
  0
LINE
  5
52
  8
TEAM-HIDE
 10
-159.8125
 20
-17.25
 30
0.0
 11
-49.8125
 21
-17.25
 31
0.0
  0
LINE
  5
53
  8
TEAM-HIDE
 10
-150.9125
 20
58.75
 30
0.0
 11
-58.7125
 21
58.75
 31
0.0
  0
DIMENSION
  5
54
  8
TEAM-MAS
  2
*D0
 10
58.460996
 20
1120.0
 30
0.0
 11
58.460996
 21
560.0
 31
0.0
 12
-8000.0
 22
-72000.0
 32
0.0
 13
0.0
 23
0.0
 33
0.0
 14
0.0
 24
1120.0
 34
0.0
 50
90.0
1001
ACAD
1000
DSTYLE
1002
{
1070
    40
1040
1.0
1002
}
  0
LINE
  5
62
  8
TEAM-DET2
 10
0.0
 20
1118.0
 30
0.0
 11
-1.05051
 21
1118.0
 31
0.0
  0
LINE
  5
64
  8
TEAM-DET2
 10
-8.2
 20
1118.0
 30
0.0
 11
-23.8
 21
1118.0
 31
0.0
  0
LINE
  5
65
  8
TEAM-DET2
 10
-38.94949
 20
1118.0
 30
0.0
 11
-39.5
 21
1118.0
 31
0.0
  0
LINE
  5
66
  8
TEAM-DET3
 10
0.0
 20
1120.0
 30
0.0
 11
0.0
 21
1118.0
 31
0.0
  0
LINE
  5
68
  8
TEAM-DET3
 10
-39.5
 20
1118.0
 30
0.0
 11
-39.5
 21
1120.0
 31
0.0
  0
LINE
  5
69
  8
TEAM-DET3
 10
-39.5
 20
1120.0
 30
0.0
 11
0.0
 21
1120.0
 31
0.0
  0
ARC
  5
6A
  8
TEAM-DET3
 10
-20.75
 20
560.0
 30
0.0
 40
4.25
 50
90.0
 51
270.0
  0
LINE
  5
6B
  8
TEAM-DET3
 10
-19.25
 20
555.75
 30
0.0
 11
-20.75
 21
555.75
 31
0.0
  0
ARC
  5
6C
  8
TEAM-DET3
 10
-19.25
 20
560.0
 30
0.0
 40
4.25
 50
270.0
 51
90.0
  0
LINE
  5
6D
  8
TEAM-DET3
 10
-20.75
 20
564.25
 30
0.0
 11
-19.25
 21
564.25
 31
0.0
  0
ARC
  5
6E
  8
TEAM-DET3
 10
-20.75
 20
1070.0
 30
0.0
 40
4.25
 50
90.0
 51
270.0
  0
LINE
  5
6F
  8
TEAM-DET3
 10
-19.25
 20
1065.75
 30
0.0
 11
-20.75
 21
1065.75
 31
0.0
  0
ARC
  5
70
  8
TEAM-DET3
 10
-19.25
 20
1070.0
 30
0.0
 40
4.25
 50
270.0
 51
90.0
  0
LINE
  5
71
  8
TEAM-DET3
 10
-20.75
 20
1074.25
 30
0.0
 11
-19.25
 21
1074.25
 31
0.0
  0
LINE
  5
72
  8
TEAM-DET3
 10
-8.2
 20
1085.0
 30
0.0
 11
-23.8
 21
1085.0
 31
0.0
  0
LINE
  5
73
  8
TEAM-DET3
 10
-8.2
 20
1118.0
 30
0.0
 11
-8.2
 21
1085.0
 31
0.0
  0
LINE
  5
74
  8
TEAM-DET3
 10
-23.8
 20
1085.0
 30
0.0
 11
-23.8
 21
1118.0
 31
0.0
  0
LINE
  5
75
  8
TEAM-DET3
 10
-8.2
 20
603.0
 30
0.0
 11
-8.2
 21
570.0
 31
0.0
  0
LINE
  5
76
  8
TEAM-DET3
 10
-23.8
 20
603.0
 30
0.0
 11
-8.2
 21
603.0
 31
0.0
  0
LINE
  5
77
  8
TEAM-DET3
 10
-23.8
 20
570.0
 30
0.0
 11
-23.8
 21
603.0
 31
0.0
  0
LINE
  5
78
  8
TEAM-DET3
 10
-8.2
 20
570.0
 30
0.0
 11
-23.8
 21
570.0
 31
0.0
  0
LINE
  5
79
  8
TEAM-DET2
 10
-38.94949
 20
1118.0
 30
0.0
 11
-36.5
 21
1118.0
 31
0.0
  0
LINE
  5
7A
  8
TEAM-DET2
 10
-40.0
 20
1118.0
 30
0.0
 11
-39.5
 21
1118.0
 31
0.0
  0
LINE
  5
7B
  8
TEAM-DET2
 10
-23.8
 20
1118.0
 30
0.0
 11
-36.5
 21
1118.0
 31
0.0
  0
LINE
  5
7C
  8
TEAM-DET2
 10
-3.5
 20
70.0
 30
0.0
 11
-36.5
 21
70.0
 31
0.0
  0
LINE
  5
7D
  8
TEAM-DET2
 10
-3.5
 20
1118.0
 30
0.0
 11
-8.2
 21
1118.0
 31
0.0
  0
LINE
  5
7E
  8
TEAM-DET2
 10
-3.5
 20
1118.0
 30
0.0
 11
-1.05051
 21
1118.0
 31
0.0
  0
LINE
  5
7F
  8
TEAM-DET2
 10
-3.5
 20
70.0
 30
0.0
 11
0.0
 21
70.0
 31
0.0
  0
LINE
  5
80
  8
TEAM-DET2
 10
0.0
 20
70.0
 30
0.0
 11
0.0
 21
1118.0
 31
0.0
  0
LINE
  5
81
  8
TEAM-DET2
 10
-40.0
 20
70.0
 30
0.0
 11
-40.0
 21
1118.0
 31
0.0
  0
LINE
  5
82
  8
TEAM-DET2
 10
-40.0
 20
70.0
 30
0.0
 11
-36.5
 21
70.0
 31
0.0
  0
LINE
  5
83
  8
TEAM-DET3
 10
-13.5
 20
1118.0
 30
0.0
 11
-13.5
 21
1085.0
 31
0.0
  0
LINE
  5
84
  8
TEAM-DET3
 10
-13.5
 20
603.0
 30
0.0
 11
-13.5
 21
570.0
 31
0.0
  0
LINE
  5
85
  8
TEAM-DET3
 10
0.0
 20
1000.5
 30
0.0
 11
1.0
 21
1000.5
 31
0.0
  0
LINE
  5
86
  8
TEAM-DET3
 10
1.0
 20
999.5
 30
0.0
 11
0.0
 21
999.5
 31
0.0
  0
LINE
  5
87
  8
TEAM-DET3
 10
1.0
 20
1000.5
 30
0.0
 11
1.0
 21
1012.5
 31
0.0
  0
LINE
  5
88
  8
TEAM-DET3
 10
0.0
 20
1012.5
 30
0.0
 11
1.0
 21
1012.5
 31
0.0
  0
LINE
  5
89
  8
TEAM-DET3
 10
0.0
 20
987.5
 30
0.0
 11
1.0
 21
987.5
 31
0.0
  0
LINE
  5
8A
  8
TEAM-DET3
 10
1.0
 20
987.5
 30
0.0
 11
1.0
 21
999.5
 31
0.0
  0
LINE
  5
8B
  8
TEAM-DET3
 10
-48.0
 20
742.0
 30
0.0
 11
-48.0
 21
742.085786
 31
0.0
  0
LINE
  5
8C
  8
TEAM-DET3
 10
-45.0
 20
744.0
 30
0.0
 11
-45.0
 21
743.5
 31
0.0
  0
LINE
  5
8D
  8
TEAM-DET3
 10
-47.0
 20
743.5
 30
0.0
 11
-47.0
 21
744.0
 31
0.0
  0
LINE
  5
8E
  8
TEAM-DET3
 10
-60.0
 20
740.0
 30
0.0
 11
-60.0
 21
742.0
 31
0.0
  0
LINE
  5
8F
  8
TEAM-DET3
 10
-48.0
 20
740.0
 30
0.0
 11
-60.0
 21
740.0
 31
0.0
  0
LINE
  5
90
  8
TEAM-DET3
 10
-48.0
 20
740.035898
 30
0.0
 11
-48.0
 21
740.0
 31
0.0
  0
ARC
  5
91
  8
TEAM-DET3
 10
-48.5
 20
743.5
 30
0.0
 40
3.5
 50
278.213211
 51
334.623066
  0
LINE
  5
92
  8
TEAM-DET3
 10
-60.0
 20
742.0
 30
0.0
 11
-48.0
 21
742.0
 31
0.0
  0
LINE
  5
93
  8
TEAM-DET3
 10
-48.0
 20
797.914214
 30
0.0
 11
-48.0
 21
798.0
 31
0.0
  0
LINE
  5
94
  8
TEAM-DET3
 10
-47.0
 20
796.0
 30
0.0
 11
-47.0
 21
796.5
 31
0.0
  0
LINE
  5
95
  8
TEAM-DET3
 10
-45.0
 20
796.5
 30
0.0
 11
-45.0
 21
796.0
 31
0.0
  0
LINE
  5
96
  8
TEAM-DET3
 10
-60.0
 20
798.0
 30
0.0
 11
-60.0
 21
800.0
 31
0.0
  0
LINE
  5
97
  8
TEAM-DET3
 10
-48.0
 20
798.0
 30
0.0
 11
-60.0
 21
798.0
 31
0.0
  0
ARC
  5
98
  8
TEAM-DET3
 10
-48.5
 20
796.5
 30
0.0
 40
3.5
 50
25.376934
 51
81.786789
  0
LINE
  5
99
  8
TEAM-DET3
 10
-48.0
 20
800.0
 30
0.0
 11
-48.0
 21
799.964102
 31
0.0
  0
LINE
  5
9A
  8
TEAM-DET3
 10
-60.0
 20
800.0
 30
0.0
 11
-48.0
 21
800.0
 31
0.0
  0
LINE
  5
9B
  8
TEAM-DET3
 10
-47.0
 20
744.0
 30
0.0
 11
-47.0
 21
796.0
 31
0.0
  0
LINE
  5
9C
  8
TEAM-DET3
 10
-47.0
 20
744.0
 30
0.0
 11
-42.5
 21
744.0
 31
0.0
  0
LINE
  5
9D
  8
TEAM-DET3
 10
-42.5
 20
796.0
 30
0.0
 11
-47.0
 21
796.0
 31
0.0
  0
LINE
  5
9E
  8
TEAM-DET3
 10
-42.5
 20
744.0
 30
0.0
 11
-42.5
 21
731.5
 31
0.0
  0
ARC
  5
9F
  8
TEAM-DET3
 10
-39.5
 20
731.5
 30
0.0
 40
3.0
 50
180.0
 51
260.405932
  0
ARC
  5
A0
  8
TEAM-DET3
 10
-39.5
 20
808.5
 30
0.0
 40
3.0
 50
99.594068
 51
180.0
  0
LINE
  5
A1
  8
TEAM-DET3
 10
-42.5
 20
808.5
 30
0.0
 11
-42.5
 21
796.0
 31
0.0
  0
LINE
  5
A2
  8
TEAM-DET3
 10
-37.5
 20
-12.0
 30
0.0
 11
-37.5
 21
70.0
 31
0.0
  0
LINE
  5
A3
  8
TEAM-DET3
 10
-2.5
 20
-12.0
 30
0.0
 11
-2.5
 21
70.0
 31
0.0
  0
LINE
  5
A4
  8
TEAM-DET3
 10
-48.75
 20
-20.0
 30
0.0
 11
-48.75
 21
-12.0
 31
0.0
  0
LINE
  5
A5
  8
TEAM-DET3
 10
-0.75
 20
-20.0
 30
0.0
 11
-0.75
 21
-12.0
 31
0.0
  0
LINE
  5
A6
  8
TEAM-DET3
 10
-0.75
 20
-12.0
 30
0.0
 11
-48.75
 21
-12.0
 31
0.0
  0
LINE
  5
A7
  8
TEAM-DET3
 10
-0.75
 20
-20.0
 30
0.0
 11
-48.75
 21
-20.0
 31
0.0
  0
LINE
  5
A8
  8
TEAM-DET3
 10
-40.0
 20
166.0
 30
0.0
 11
-41.49
 21
166.0
 31
0.0
  0
LINE
  5
A9
  8
TEAM-DET3
 10
-41.49
 20
166.0
 30
0.0
 11
-44.24
 21
166.0
 31
0.0
  0
LINE
  5
AA
  8
TEAM-DET3
 10
-41.49
 20
166.0
 30
0.0
 11
-41.49
 21
192.340563
 31
0.0
  0
LINE
  5
AB
  8
TEAM-DET3
 10
-44.24
 20
197.742917
 30
0.0
 11
-41.49
 21
197.742917
 31
0.0
  0
LINE
  5
AC
  8
TEAM-DET3
 10
-44.24
 20
197.742917
 30
0.0
 11
-44.24
 21
166.0
 31
0.0
  0
LINE
  5
AD
  8
TEAM-DET3
 10
0.0
 20
157.0
 30
0.0
 11
0.26
 21
157.0
 31
0.0
  0
LINE
  5
AE
  8
TEAM-DET3
 10
0.26
 20
157.0
 30
0.0
 11
0.26
 21
160.5
 31
0.0
  0
LINE
  5
AF
  8
TEAM-DET3
 10
0.26
 20
160.5
 30
0.0
 11
0.0
 21
160.5
 31
0.0
  0
LINE
  5
B0
  8
TEAM-DET3
 10
-44.24
 20
221.5
 30
0.0
 11
-44.24
 21
197.742917
 31
0.0
  0
LINE
  5
B1
  8
TEAM-DET3
 10
-41.49
 20
209.840563
 30
0.0
 11
-41.49
 21
207.476375
 31
0.0
  0
LINE
  5
B2
  8
TEAM-DET3
 10
-41.49
 20
221.5
 30
0.0
 11
-41.49
 21
214.644469
 31
0.0
  0
LINE
  5
B3
  8
TEAM-DET3
 10
-44.24
 20
221.5
 30
0.0
 11
-41.49
 21
221.5
 31
0.0
  0
LINE
  5
B4
  8
TEAM-DET3
 10
-44.24
 20
222.5
 30
0.0
 11
-44.24
 21
221.5
 31
0.0
  0
LINE
  5
B5
  8
TEAM-DET3
 10
-44.24
 20
225.0
 30
0.0
 11
-44.24
 21
222.5
 31
0.0
  0
LINE
  5
B6
  8
TEAM-DET3
 10
-41.49
 20
222.5
 30
0.0
 11
-44.24
 21
222.5
 31
0.0
  0
LINE
  5
B7
  8
TEAM-DET3
 10
-41.49
 20
225.0
 30
0.0
 11
-44.24
 21
225.0
 31
0.0
  0
LINE
  5
B8
  8
TEAM-DET3
 10
-44.378945
 20
259.007808
 30
0.0
 11
-44.49
 21
259.43195
 31
0.0
  0
LINE
  5
B9
  8
TEAM-DET3
 10
-41.49
 20
256.710297
 30
0.0
 11
-41.49
 21
256.340563
 31
0.0
  0
POLYLINE
  5
BA
  8
TEAM-DET3
 66
     1
 10
0.0
 20
0.0
 30
0.0
 70
   128
  0
VERTEX
  5
132
  8
TEAM-DET3
 10
-43.49015
 20
260.447254
 30
0.0
  0
VERTEX
  5
133
  8
TEAM-DET3
 10
-43.098105
 20
259.193171
 30
0.0
  0
VERTEX
  5
134
  8
TEAM-DET3
 10
-42.623825
 20
258.131353
 30
0.0
  0
VERTEX
  5
135
  8
TEAM-DET3
 10
-42.082143
 20
257.295009
 30
0.0
  0
VERTEX
  5
136
  8
TEAM-DET3
 10
-41.49
 20
256.710297
 30
0.0
  0
SEQEND
  5
137
  8
TEAM-DET3
  0
LINE
  5
BB
  8
TEAM-DET3
 10
-43.49015
 20
260.447254
 30
0.0
 11
-44.49
 21
263.996324
 31
0.0
  0
LINE
  5
BC
  8
TEAM-DET3
 10
-44.49
 20
259.43195
 30
0.0
 11
-44.49
 21
263.996324
 31
0.0
  0
POLYLINE
  5
BD
  8
TEAM-DET3
 66
     1
 10
0.0
 20
0.0
 30
0.0
 70
   128
  0
VERTEX
  5
138
  8
TEAM-DET3
 10
-44.378945
 20
259.007808
 30
0.0
  0
VERTEX
  5
139
  8
TEAM-DET3
 10
-43.81809
 20
257.244206
 30
0.0
  0
VERTEX
  5
13A
  8
TEAM-DET3
 10
-43.131909
 20
255.783553
 30
0.0
  0
VERTEX
  5
13B
  8
TEAM-DET3
 10
-42.346077
 20
254.680505
 30
0.0
  0
VERTEX
  5
13C
  8
TEAM-DET3
 10
-41.49
 20
253.976335
 30
0.0
  0
SEQEND
  5
13D
  8
TEAM-DET3
  0
LINE
  5
BE
  8
TEAM-DET3
 10
-40.0
 20
256.340563
 30
0.0
 11
-41.49
 21
256.340563
 31
0.0
  0
LINE
  5
BF
  8
TEAM-DET3
 10
-41.49
 20
248.340563
 30
0.0
 11
-41.49
 21
256.340563
 31
0.0
  0
LINE
  5
C0
  8
TEAM-DET3
 10
-41.49
 20
232.840563
 30
0.0
 11
-41.49
 21
221.5
 31
0.0
  0
LINE
  5
C1
  8
TEAM-DET3
 10
-41.49
 20
207.476375
 30
0.0
 11
-41.49
 21
203.14441
 31
0.0
  0
LINE
  5
C2
  8
TEAM-DET3
 10
-40.0
 20
203.14441
 30
0.0
 11
-41.49
 21
203.14441
 31
0.0
  0
LINE
  5
C3
  8
TEAM-DET3
 10
-41.49
 20
248.340563
 30
0.0
 11
-41.49
 21
237.840563
 31
0.0
  0
LINE
  5
C4
  8
TEAM-DET3
 10
-41.49
 20
203.14441
 30
0.0
 11
-41.49
 21
194.609562
 31
0.0
  0
LINE
  5
C5
  8
TEAM-DET3
 10
-44.49
 20
263.996324
 30
0.0
 11
-44.49
 21
286.0
 31
0.0
  0
LINE
  5
C6
  8
TEAM-DET3
 10
-41.49
 20
269.785925
 30
0.0
 11
-40.0
 21
269.785925
 31
0.0
  0
LINE
  5
C7
  8
TEAM-DET3
 10
-41.49
 20
285.965217
 30
0.0
 11
-40.0
 21
285.965217
 31
0.0
  0
LINE
  5
C8
  8
TEAM-DET3
 10
-41.49
 20
192.340563
 30
0.0
 11
-41.49
 21
194.609562
 31
0.0
  0
LINE
  5
C9
  8
TEAM-DET3
 10
-41.49
 20
286.0
 30
0.0
 11
-44.49
 21
286.0
 31
0.0
  0
LINE
  5
CA
  8
TEAM-DET3
 10
-40.0
 20
192.340563
 30
0.0
 11
-41.49
 21
192.340563
 31
0.0
  0
LINE
  5
CB
  8
TEAM-DET3
 10
-41.49
 20
209.840563
 30
0.0
 11
-41.49
 21
214.644469
 31
0.0
  0
LINE
  5
CC
  8
TEAM-DET3
 10
-41.49
 20
232.840563
 30
0.0
 11
-41.49
 21
237.840563
 31
0.0
  0
LINE
  5
CD
  8
TEAM-DET3
 10
-41.49
 20
269.785925
 30
0.0
 11
-41.49
 21
274.752219
 31
0.0
  0
LINE
  5
CE
  8
TEAM-DET3
 10
-41.49
 20
285.965217
 30
0.0
 11
-41.49
 21
290.0
 31
0.0
  0
LINE
  5
CF
  8
TEAM-DET3
 10
-40.0
 20
209.840563
 30
0.0
 11
-41.49
 21
209.840563
 31
0.0
  0
LINE
  5
D0
  8
TEAM-DET3
 10
-40.0
 20
214.840563
 30
0.0
 11
-41.49
 21
214.840563
 31
0.0
  0
LINE
  5
D1
  8
TEAM-DET3
 10
-40.0
 20
232.840563
 30
0.0
 11
-41.49
 21
232.840563
 31
0.0
  0
LINE
  5
D2
  8
TEAM-DET3
 10
-40.0
 20
237.840563
 30
0.0
 11
-41.49
 21
237.840563
 31
0.0
  0
LINE
  5
D3
  8
TEAM-DET3
 10
-40.0
 20
274.752219
 30
0.0
 11
-41.49
 21
274.752219
 31
0.0
  0
LINE
  5
D4
  8
TEAM-DET3
 10
-40.0
 20
290.0
 30
0.0
 11
-41.49
 21
290.0
 31
0.0
  0
LINE
  5
D5
  8
TEAM-DET3
 10
28.0
 20
787.0
 30
0.0
 11
28.0
 21
760.0
 31
0.0
  0
LINE
  5
D6
  8
TEAM-DET3
 10
28.0
 20
760.0
 30
0.0
 11
20.0
 21
760.0
 31
0.0
  0
LINE
  5
D7
  8
TEAM-DET3
 10
28.0
 20
787.0
 30
0.0
 11
20.0
 21
787.0
 31
0.0
  0
LINE
  5
D8
  8
TEAM-DET3
 10
-45.0
 20
796.5
 30
0.0
 11
-45.0
 21
802.5
 31
0.0
  0
LINE
  5
D9
  8
TEAM-DET3
 10
-45.0
 20
802.5
 30
0.0
 11
-42.5
 21
802.5
 31
0.0
  0
LINE
  5
DA
  8
TEAM-DET3
 10
20.0
 20
793.5
 30
0.0
 11
20.0
 21
753.5
 31
0.0
  0
LINE
  5
DB
  8
TEAM-DET3
 10
0.0
 20
793.5
 30
0.0
 11
20.0
 21
793.5
 31
0.0
  0
LINE
  5
DC
  8
TEAM-DET3
 10
0.0
 20
753.5
 30
0.0
 11
20.0
 21
753.5
 31
0.0
  0
LINE
  5
DD
  8
TEAM-DET3
 10
-48.514359
 20
776.5
 30
0.0
 11
-48.514359
 21
770.5
 31
0.0
  0
LINE
  5
DE
  8
TEAM-DET3
 10
-51.5
 20
775.7
 30
0.0
 11
-51.5
 21
771.3
 31
0.0
  0
LINE
  5
DF
  8
TEAM-DET3
 10
-47.0
 20
770.5
 30
0.0
 11
-48.514359
 21
770.5
 31
0.0
  0
LINE
  5
E0
  8
TEAM-DET3
 10
-47.0
 20
776.5
 30
0.0
 11
-48.514359
 21
776.5
 31
0.0
  0
LINE
  5
E1
  8
TEAM-DET3
 10
-51.5
 20
775.7
 30
0.0
 11
-48.514359
 21
776.5
 31
0.0
  0
LINE
  5
E2
  8
TEAM-DET3
 10
-51.5
 20
771.3
 30
0.0
 11
-48.514359
 21
770.5
 31
0.0
  0
LINE
  5
E3
  8
TEAM-DET3
 10
-48.514359
 20
796.5
 30
0.0
 11
-48.514359
 21
790.5
 31
0.0
  0
LINE
  5
E4
  8
TEAM-DET3
 10
-51.5
 20
795.7
 30
0.0
 11
-51.5
 21
791.3
 31
0.0
  0
LINE
  5
E5
  8
TEAM-DET3
 10
-47.0
 20
790.5
 30
0.0
 11
-48.514359
 21
790.5
 31
0.0
  0
LINE
  5
E6
  8
TEAM-DET3
 10
-47.0
 20
796.5
 30
0.0
 11
-48.514359
 21
796.5
 31
0.0
  0
LINE
  5
E7
  8
TEAM-DET3
 10
-51.5
 20
795.7
 30
0.0
 11
-48.514359
 21
796.5
 31
0.0
  0
LINE
  5
E8
  8
TEAM-DET3
 10
-51.5
 20
791.3
 30
0.0
 11
-48.514359
 21
790.5
 31
0.0
  0
TEXT
  5
E9
  8
TEAM-TXT
 10
-303.024825
 20
327.260487
 30
0.0
 40
30.0
  1
team 871056
 41
0.8
 51
15.0
  7
TEAM
  0
CIRCLE
  5
EC
  8
TEAM-INSP
 10
0.0
 20
0.0
 30
0.0
 40
10.0
  0
ENDSEC
  0
EOF
